Thám Tử Ngoại Cảm 2 | épisode 3 streaming Date Rapes and AIDS Jokes | Servir y proteger 1x380

Гигантский космический монстр Гирара / The X from Outer Space / Uchū Daikaijū Girara (Кадзуи Нихонмацу / Kazui Nihonmatsu)[1967, Япония, Ужасы, Фантастика, DVD5 (Custom)] Sub Eng, Rus + Orig Jap / Criterion.Eclipse Series #37 

Цитировать
Гигантский космический монстр Гирара / The X from Outer Space / Uchū Daikaijū Girara / Criterion.Eclipse Series #37
Страна:ЯпонияСтудия:Shochiku Films Ltd.Жанр:Ужасы, ФантастикаГод выпуска:1967
Продолжительность:01:28:20Производство:Criterion.Eclipse Series #37Перевод:СубтитрыСубтитры:Английские, Русские KaijuKeizer (AdmiralPiett & Nyarley)
Премьера (мир):25.03.1967Режиссер:Кадзуи Нихонмацу / Kazui NihonmatsuВ ролях:Эйдзи Окада, Сюнья Вадзаки, Итоко Харада, Пегги Нил, Франц Грубер, Майк Данин, Шиничи Янагисава, Keisuke Sonoi, Хироси Фудзиока, Рюдзи КитаОписание:Недалекое будущее. Человечество исследует космос. Но каждая экспедиция с лунной базы на Марс заканчивается неудачей, так как появляется таинственный летающий объект и уничтожает ракету. Тем не менее, японцы предпринимают еще одну попытку достичь красной планеты на новейшем космическом корабле «AAB-Gamma» под руководством капитана Сано. Когда ракета приближается к Марсу, вновь появляется неопознанный объект и покрывает корабль странными порами.
Космонавты решают взять частичку этого вещества для изучения и возвратиться на Землю. Там вещество помещают в лабораторию, но оно прожигает дыру в полу и исчезает. Вскоре вещество превращается в отвратительного монстра и начинает сеять панику в Токио. Власти и военные пытаются остановить инопланетное чудовище…

Доп. информация:Исходник найден в сети.Субтитры взяты из раздачиAdmiralPiett-http://rutracker.org/forum/viewtopic.php?t=3936866Огромное Спасибо Всем, без чьей помощи этот релиз не состоялся бы!Сценарий:Мориёси Исида, Eibi Motomochi, Кадзуи НихонмацуПродюсер:Ватару НакаджимаОператор:Сидзуо Хирасэ, Chitora OkoshiКомпозитор:Таку ИзумиХудожник:Шигемори ШигетаМонтаж:Ёси Сугихара

Это интересно

Кадзуи Нихонмацу-http://www.kinopoisk.ru/name/1331917/
Фильм-http://en.wikipedia.org/wiki/The_X_from_Outer_Space

Софт

PgcDemux 1.2.0.5 - разделение компонентов диска на файлы.
Subtitle Workshop, MaestroSBT, DVD SubEdit (субтитры).
MuxMan DVD authoring Professional - мультиплексирование и авторинг.
DVDRemake Pro 3.6.4 - реавторинг DVD.
DVD Shrink 3.2 - Сэмпл.--
Меню:Английский, статичное, неозвученное. Тип релиза:DVD5 (Custom)
Контейнер:DVD-Video
Видео:NTSC 16:9 (720x480) VBR, Auto Letterboxed, 6064 Кбит/сек, 23,976 (24000/1001) кадра/секАудио 1:Японский:AC3, 1 ch, 48.0 KHz, 384 Кбит/сек / ОригиналАудио 2:Английский:AC3, 1 ch, 48.0 KHz, 192 Кбит/сек / ДублированныйФормат субтитров:prerendered (DVD/IDX+SUB)

Dvd Info

Title: The X From Outer Space DVD-5_Custom_Criterion.Eclipse Series #37
Size: 4.25 Gb ( 4 460 934,00 KBytes ) - DVD-5
Enabled regions: 1, 2, 3, 4, 5, 6, 7, 8
VTS_01 :
Play Length: 00:00:00
Video: NTSC 16:9 (720x480) VBR, Auto Letterboxed
VTS_02 :
Play Length: 01:28:20
Video: NTSC 16:9 (720x480) VBR, Auto Letterboxed
Audio:
Japanese (Dolby AC3, 1 ch)
English (Dolby AC3, 1 ch)
Subtitles:
Russian
English
VTS_03 :
Play Length: 00:00:20
Video: NTSC 16:9 (720x480) VBR, Auto Pan&Scan
VTS_04 :
Play Length: 00:00:00
Video: NTSC 4:3 (720x480) VBR

Mediainfo

Общее
Полное имя : F:\The X From Outer Space DVD-5_Custom_Criterion.Eclipse Series #37\VIDEO_TS\VTS_02_3.VOB
Формат : MPEG-PS
Размер файла : 1024 Мбайт
Продолжительность : 21 м. 7 с.
Режим общего битрейта : Переменный
Общий поток : 6775 Кбит/сек
Видео
Идентификатор : 224 (0xE0)
Формат : MPEG Video
Версия формата : Version 2
Профиль формата : Main@Main
Параметр BVOP формата : Да
Параметр матрицы формата : Выборочная
Параметр GOP формата : Variable
Продолжительность : 21 м. 7 с.
Вид битрейта : Переменный
Битрейт : 6064 Кбит/сек
Максимальный битрейт : 9800 Кбит/сек
Ширина : 720 пикселей
Высота : 480 пикселей
Соотношение сторон : 16:9
Частота кадров : 23,976 (24000/1001) кадра/сек
Цветовое пространство : YUV
Субдискретизация насыщенности : 4:2:0
Битовая глубина : 8 бит
Тип развёртки : Прогрессивная
Порядок развёртки : 2:3 Pulldown
Метод сжатия : С потерями
Бит/(Пиксели*Кадры) : 0.732
Временной код первого кадра : 01:41:10:21
Оригинал временного кода : Group of pictures header
Размер потока : 916 Мбайт (89%)
Аудио #1
Идентификатор : 189 (0xBD)-128 (0x80)
Формат : AC-3
Формат/Информация : Audio Coding 3
Расширение режима : CM (complete main)
Параметр Endianness формата : Big
Режим смешивания : DVD-Video
Продолжительность : 21 м. 7 с.
Вид битрейта : Постоянный
Битрейт : 384 Кбит/сек
Каналы : 1 канал
Расположение каналов : Front: C
Частота : 48,0 КГц
Частота кадров : 31,250 кадров/сек (1536 spf)
Метод сжатия : С потерями
Задержка видео : -513 мс.
Размер потока : 58,0 Мбайт (6%)
Аудио #2
Идентификатор : 189 (0xBD)-129 (0x81)
Формат : AC-3
Формат/Информация : Audio Coding 3
Расширение режима : CM (complete main)
Параметр Endianness формата : Big
Режим смешивания : DVD-Video
Продолжительность : 21 м. 7 с.
Вид битрейта : Постоянный
Битрейт : 192 Кбит/сек
Каналы : 1 канал
Расположение каналов : Front: C
Частота : 48,0 КГц
Частота кадров : 31,250 кадров/сек (1536 spf)
Метод сжатия : С потерями
Задержка видео : -417 мс.
Размер потока : 29,0 Мбайт (3%)
Текст #1
Идентификатор : 189 (0xBD)-32 (0x20)
Формат : RLE
Формат/Информация : Run-length encoding
Режим смешивания : DVD-Video
Текст #2
Идентификатор : 189 (0xBD)-33 (0x21)
Формат : RLE
Формат/Информация : Run-length encoding
Режим смешивания : DVD-Video

Скриншоты меню

Скриншоты фильма Полиграфия
Релиз: Уважаемые пользователи!Найдите пару минут поблагодарить релизера и высказаться в топике раздачи.Ваше мнение - бальзам для раздающего и пища для ума остальным пользователям.Мои раздачи
Вы не можете начинать темы
Вы не можете отвечать на сообщения
Вы не можете редактировать свои сообщения
Вы не можете удалять свои сообщения
Вы не можете голосовать в опросах
Вы не можете прикреплять файлы к сообщениям
Вы можете скачивать файлы
!ВНИМАНИЕ!

Сайт не предоставляет электронные версии произведений, а занимается лишь коллекционированием и каталогизацией ссылок, присылаемых и публикуемых на форуме нашими читателями. Если вы являетесь правообладателем какого-либо представленного материала и не желаете, чтобы ссылка на него находилась в нашем каталоге, свяжитесь с нами, и мы незамедлительно удалим ее. Файлы для обмена на трекере предоставлены пользователями сайта, и администрация не несет ответственности за их содержание. Просьба не заливать файлы, защищенные авторскими правами, а также файлы нелегального содержания!

Искали программы, игры, дополнения, музыка mp3, аниме, аудио книги, журналы? Добро пожаловать на свободный торрент трекер Torrents, у нас можно скачать бесплатно, без смс и регистрации и прочих ограничений лучшие, отборные сборки программ, игр. Скачать торрентом не составит труда даже не опытному пользователю. Раздачи ежедневно обновляются, только лучшие и качественные раздачи, подробные описания и скриншоты. Огромная коллекция программ для работы со звуком, графикой, дизайном, а так же множество плагинов и инструментов к ним с подробной инструкцией и рекомендациями. Прошивки для навигаторов, карты. Разнообразные игры, для Windows, Linux. В коллекцие есть и старые игры любых жанров, Rpg, Action, Shooter, strategy Множество дополнений, модификаций, сценариев для популярных игр в жанре экш, рпг, гонки, стратегии, логические игры. Множество аддонов и сценариев для Microsoft Flight Simulator Большая коллекция книг, учебников. Если нет возможности купить печатное издание - смело скачивайте цифровую версию книги или, быть может, журнала. Не любите читать - можно загрузить бесплатно аудикнигу. Для веб дизайнеров и программистов так же найдется множество специализированного софта, таких как: редакторы с подсветкой, среды программирования, компоненты, системы управления базами данных, разнообразные скрипты и шаблоны. Не так давно у нас появился материал для автолюбителей и владельцев мото - оригинальные и неоригинальные каталоги запчастей, книги и журналы по ремонту и обслуживанию, видеоуроки, статьи по чип тюнингу, прошивкам. Процедура получения контента элементарная, достаточно просто скачать торрент файл и добавить его в загрузку в вашем торрент клиенте. Если у вас нет специального торрент клиента, вы можете его скачать у нас.