Живой скелет / Kyuketsu dokuro-sen / The Living Skeleton (Хироши Мацуно / Hiroshi Matsuno)[1968, Япония, Ужасы, DVD5 (Custom)] Sub Eng, Rus (GreedLoss) + Orig Jap / Criterion.Eclipse Series #37 

Цитировать
Живой скелет / Kyuketsu dokuro-sen / The Living Skeleton / Criterion.Eclipse Series #37
Страна:ЯпонияСтудия:Shochiku Films Ltd.Жанр:УжасыГод выпуска:1968
Продолжительность:01:20:24Производство:Criterion.Eclipse Series #37Перевод:СубтитрыСубтитры:Английские, Русские GreedLoss
Премьера (мир):9.11.1968Режиссер:Хироши Мацуно / Hiroshi MatsunoВ ролях:Kikko Matsuoka, Ясунори Ирикава, Масуми Окада, Асао Утида, Асао Койкэ, Норихико Ямамото, Keijiro Kikyo, Хитоси Такаги, Каори Танигути, Кэйко ЯнагаваОписание:В прологе нам показывают, как группа бандитов во главе с уродливым человеком, чье лицо «украшает» здоровенный шрам, расстреливают целую команду и всех пассажиров корабля. После этого корабль идет ко дну. Проходят годы и в маленьком прибрежном городке начинают происходить странные вещи. По ночам его окутывает туман, некоторые люди видят вдалеке силуэт корабля точь-в-точь похожего на тот, что нам показывали в прологе. Начинаются загадочные смерти. Чуть позже выясняется, что фигуранты тех страшных событий – всё ещё в городе и часть из них даже сильно изменили внешность. Но постепенно призраки прошлого заставят их заплатить за преступления, в особенности призрак девушки, которая умоляла лидера бандитов пощадить её мужа, но была убита сама и чья сестра Саеко живет в этом самом городке…
Доп. информация:Исходник найден в сети.Субтитры взяты из раздачиArgento88-http://rutracker.org/forum/viewtopic.php?t=4629760Огромное Спасибо Всем, без чьей помощи этот релиз не состоялся бы!Сценарий:Кюдзо Кобаяси, Kikuma ShimoiizakaПродюсер:Акира ИноматаОператор:Масаюки КатоКомпозитор:Нобору НишиямаХудожник:Кёхэй МоритаМонтаж:Кацуо Ота

Это интересно

Хироши Мацуно-http://www.kinopoisk.ru/name/864319/
Фильм-http://en.wikipedia.org/wiki/The_Living_Skeleton

Софт

PgcDemux 1.2.0.5 - разделение компонентов диска на файлы.
Subtitle Workshop, MaestroSBT, DVD SubEdit (субтитры).
MuxMan DVD authoring Professional - мультиплексирование и авторинг.
DVDRemake Pro 3.6.4 - реавторинг DVD.
DVD Shrink 3.2 - Сэмпл.--
Меню:Английский, статичное, неозвученное. Тип релиза:DVD5 (Custom)
Контейнер:DVD-Video
Видео:NTSC 16:9 (720x480) VBR, Auto Letterboxed, 6710 Кбит/сек, 23,976 (24000/1001) кадра/секАудио:Японский:AC3, 1 ch, 48.0 KHz, 384 Кбит/сек / ОригиналФормат субтитров:prerendered (DVD/IDX+SUB)

Dvd Info

Title: The Living Skeleton DVD-5_Custom_Criterion.Eclipse Series #37
Size: 4.17 Gb ( 4 368 032,00 KBytes ) - DVD-5
Enabled regions: 1, 2, 3, 4, 5, 6, 7, 8
VTS_01 :
Play Length: 00:00:00
Video: NTSC 16:9 (720x480) VBR, Auto Letterboxed
VTS_02 :
Play Length: 01:20:24
Video: NTSC 16:9 (720x480) VBR, Auto Letterboxed
Audio:
Japanese (Dolby AC3, 1 ch)
Subtitles:
English
Russian
VTS_03 :
Play Length: 00:00:20
Video: NTSC 16:9 (720x480) VBR, Auto Pan&Scan
VTS_04 :
Play Length: 00:00:00
Video: NTSC 4:3 (720x480) VBR

Mediainfo

Общее
Полное имя : F:\The Living Skeleton DVD-5_Custom_Criterion.Eclipse Series #37\VIDEO_TS\VTS_02_2.VOB
Формат : MPEG-PS
Размер файла : 1024 Мбайт
Продолжительность : 19 м. 46 с.
Режим общего битрейта : Переменный
Общий поток : 7238 Кбит/сек
Видео
Идентификатор : 224 (0xE0)
Формат : MPEG Video
Версия формата : Version 2
Профиль формата : Main@Main
Параметр BVOP формата : Да
Параметр матрицы формата : Выборочная
Параметр GOP формата : Variable
Продолжительность : 19 м. 46 с.
Вид битрейта : Переменный
Битрейт : 6710 Кбит/сек
Максимальный битрейт : 9800 Кбит/сек
Ширина : 720 пикселей
Высота : 480 пикселей
Соотношение сторон : 16:9
Частота кадров : 23,976 (24000/1001) кадра/сек
Цветовое пространство : YUV
Субдискретизация насыщенности : 4:2:0
Битовая глубина : 8 бит
Тип развёртки : Прогрессивная
Порядок развёртки : 2:3 Pulldown
Метод сжатия : С потерями
Бит/(Пиксели*Кадры) : 0.810
Временной код первого кадра : 01:18:42:12
Оригинал временного кода : Group of pictures header
Размер потока : 949 Мбайт (93%)
Аудио
Идентификатор : 189 (0xBD)-128 (0x80)
Формат : AC-3
Формат/Информация : Audio Coding 3
Расширение режима : CM (complete main)
Параметр Endianness формата : Big
Режим смешивания : DVD-Video
Продолжительность : 19 м. 46 с.
Вид битрейта : Постоянный
Битрейт : 384 Кбит/сек
Каналы : 1 канал
Расположение каналов : Front: C
Частота : 48,0 КГц
Частота кадров : 31,250 кадров/сек (1536 spf)
Метод сжатия : С потерями
Задержка видео : -722 мс.
Размер потока : 54,3 Мбайт (5%)
Текст #1
Идентификатор : 189 (0xBD)-32 (0x20)
Формат : RLE
Формат/Информация : Run-length encoding
Режим смешивания : DVD-Video
Текст #2
Идентификатор : 189 (0xBD)-33 (0x21)
Формат : RLE
Формат/Информация : Run-length encoding
Режим смешивания : DVD-Video
Текст #3
Идентификатор : 189 (0xBD)-34 (0x22)
Формат : RLE
Формат/Информация : Run-length encoding
Режим смешивания : DVD-Video

Скриншоты меню

Скриншоты фильма Полиграфия Релиз: Уважаемые пользователи!Найдите пару минут поблагодарить релизера и высказаться в топике раздачи.Ваше мнение - бальзам для раздающего и пища для ума остальным пользователям.Мои раздачи
Вы не можете начинать темы
Вы не можете отвечать на сообщения
Вы не можете редактировать свои сообщения
Вы не можете удалять свои сообщения
Вы не можете голосовать в опросах
Вы не можете прикреплять файлы к сообщениям
Вы можете скачивать файлы
!ВНИМАНИЕ!

Сайт не предоставляет электронные версии произведений, а занимается лишь коллекционированием и каталогизацией ссылок, присылаемых и публикуемых на форуме нашими читателями. Если вы являетесь правообладателем какого-либо представленного материала и не желаете, чтобы ссылка на него находилась в нашем каталоге, свяжитесь с нами, и мы незамедлительно удалим ее. Файлы для обмена на трекере предоставлены пользователями сайта, и администрация не несет ответственности за их содержание. Просьба не заливать файлы, защищенные авторскими правами, а также файлы нелегального содержания!

Искали программы, игры, дополнения, музыка mp3, аниме, аудио книги, журналы? Добро пожаловать на свободный торрент трекер Torrents, у нас можно скачать бесплатно, без смс и регистрации и прочих ограничений лучшие, отборные сборки программ, игр. Скачать торрентом не составит труда даже не опытному пользователю. Раздачи ежедневно обновляются, только лучшие и качественные раздачи, подробные описания и скриншоты. Огромная коллекция программ для работы со звуком, графикой, дизайном, а так же множество плагинов и инструментов к ним с подробной инструкцией и рекомендациями. Прошивки для навигаторов, карты. Разнообразные игры, для Windows, Linux. В коллекцие есть и старые игры любых жанров, Rpg, Action, Shooter, strategy Множество дополнений, модификаций, сценариев для популярных игр в жанре экш, рпг, гонки, стратегии, логические игры. Множество аддонов и сценариев для Microsoft Flight Simulator Большая коллекция книг, учебников. Если нет возможности купить печатное издание - смело скачивайте цифровую версию книги или, быть может, журнала. Не любите читать - можно загрузить бесплатно аудикнигу. Для веб дизайнеров и программистов так же найдется множество специализированного софта, таких как: редакторы с подсветкой, среды программирования, компоненты, системы управления базами данных, разнообразные скрипты и шаблоны. Не так давно у нас появился материал для автолюбителей и владельцев мото - оригинальные и неоригинальные каталоги запчастей, книги и журналы по ремонту и обслуживанию, видеоуроки, статьи по чип тюнингу, прошивкам. Процедура получения контента элементарная, достаточно просто скачать торрент файл и добавить его в загрузку в вашем торрент клиенте. Если у вас нет специального торрент клиента, вы можете его скачать у нас.

*TR-450* Honda VFR 750 CBR 1000 Bremsbeläge EBC FA124 Bremse | Malayalam | Taking Flight