1x84 Dragon Ball Super | Ghost Adventures - Season 17 | Saisons en cours VF

(Rock ’n’ roll, rockabilly, singer-songwriter) [CD] Bo Walton - Дискография (4 CD, 1 CD-R, 3 сингла) - 2011 - 2017, (feat. Micky Gee, Mark Knopfler, Nik Kershaw, Red Alert),FLAC (image+.cue), lossless 

Цитировать
Bo Walton / Дискография (4 CD, 1 CD-R, 3 сингла)
Жанр: Rock ’n’ roll, rockabilly, singer-songwriter
Носитель: CD
Страна-производитель диска (релиза): GB
Год издания: 2011 - 2017
Издатель (лейбл): Tabitha Records, Jump Jack Records
Страна исполнителя (группы): GB
Аудиокодек: FLAC (*.flac)
Тип рипа: image+.cue
Битрейт аудио: lossless
Продолжительность: 04:08:38
Источник (релизер): Alex Fal
Наличие сканов в содержимом раздачи: да
Альбомы:

(2011)Waiting on a Dream [Tabitha Records - TABCD116]

Год: 2011
Лейбл: Tabitha Records
Каталожный номер: TABCD116
Продолжительность: 00:42:09
Треклист:
[01] Hangin' On [03:59]
[02] I Like It Like That [03:12]
[03] That's Not Love [03:44]
[04] Wicked Moon [04:22]
[05] 's Too Much [02:53]
[06] Miss You Bad (feat. Mark Knopfler) [03:44]
[07] Heartbreak Town [03:27]
[08] The Woman Inside [03:27]
[09] Down In A Blaze Of Love [03:18]
[10] My Heart's On Fire [03:45]
[11] Wild At Heart [03:20]
[12] Waiting On A Dream [03:19]

Лог создания рипа

Exact Audio Copy V1.2 from 12. August 2016EAC extraction logfile from 17. October 2016, 14:58Bo Walton / Waiting on a DreamUsed drive  : ASUS    SDRW-08D1S-U   Adapter: 1  ID: 2Read mode               : SecureUtilize accurate stream : YesDefeat audio cache      : YesMake use of C2 pointers : NoRead offset correction                      : 667Overread into Lead-In and Lead-Out          : NoFill up missing offset samples with silence : YesDelete leading and trailing silent blocks   : NoNull samples used in CRC calculations       : YesUsed interface                              : Native Win32 interface for Win NT & 2000Used output format              : User Defined EncoderSelected bitrate                : 128 kBit/sQuality                         : HighAdd ID3 tag                     : NoCommand line compressor         : C:\Program Files (x86)\Exact Audio Copy\Flac\flac.exeAdditional command line options : -V -8 -T "Date=%year%" -T "Genre=%genre%" %source%TOC of the extracted CD
Track | Start | Length | Start sector | End sector --------------------------------------------------------- 1 | 0:00.00 | 3:58.03 | 0 | 17852 2 | 3:58.03 | 3:10.25 | 17853 | 32127 3 | 7:08.28 | 3:44.21 | 32128 | 48948 4 | 10:52.49 | 4:18.54 | 48949 | 68352 5 | 15:11.28 | 2:52.58 | 68353 | 81310 6 | 18:04.11 | 3:43.25 | 81311 | 98060 7 | 21:47.36 | 3:25.02 | 98061 | 113437 8 | 25:12.38 | 3:25.59 | 113438 | 128871 9 | 28:38.22 | 3:14.37 | 128872 | 143458 10 | 31:52.59 | 3:45.18 | 143459 | 160351 11 | 35:38.02 | 3:15.42 | 160352 | 175018 12 | 38:53.44 | 3:15.33 | 175019 | 189676 13 | 44:41.02 | 3:36.14 | 201077 | 217290
Range status and errors
Selected range
Filename C:\Users\Олег\Desktop\Bo Walton - Waiting on a Dream\Bo Walton - Waiting on a Dream.wav
Peak level 100.0 % Extraction speed 3.6 X Range quality 100.0 % Test CRC 6B7DEE9A Copy CRC 6B7DEE9A Copy OK
No errors occurred
End of status report
---- CUETools DB Plugin V2.1.6
[CTDB TOCID: XnamOyT6SZtV51VckZGWdE6FuMI-] foundSubmit result: already submittedTrack | CTDB Status 1 | (1/1) Accurately ripped 2 | (1/1) Accurately ripped 3 | (1/1) Accurately ripped 4 | (1/1) Accurately ripped 5 | (1/1) Accurately ripped 6 | (1/1) Accurately ripped 7 | (1/1) Accurately ripped 8 | (1/1) Accurately ripped 9 | (1/1) Accurately ripped 10 | (1/1) Accurately ripped 11 | (1/1) Accurately ripped 12 | (1/1) Accurately ripped
==== Log checksum 50CDDC0989C6531571C1742884C6DAB239BF2E81E0223AFCAEC859BB3E4CCB1A ====

Содержание индексной карты (.CUE)

REM GENRE "Rock & Roll"REM DATE 2012REM DISCID 920B510DREM COMMENT "ExactAudioCopy v1.2"PERFORMER "Bo Walton"TITLE "Waiting on a Dream"REM COMPOSER ""FILE "Bo Walton - Waiting on a Dream.flac" WAVE  TRACK 01 AUDIO    TITLE "Hangin’ On"    PERFORMER "Bo Walton"    REM COMPOSER ""    INDEX 01 00:00:00  TRACK 02 AUDIO    TITLE "I Like It Like That"    PERFORMER "Bo Walton"    REM COMPOSER ""    INDEX 01 03:58:03  TRACK 03 AUDIO    TITLE "That’s Not Love"    PERFORMER "Bo Walton"    REM COMPOSER ""    INDEX 01 07:08:28  TRACK 04 AUDIO    TITLE "Wicked Moon"    PERFORMER "Bo Walton"    REM COMPOSER ""    INDEX 01 10:52:49  TRACK 05 AUDIO    TITLE "‘S Too Much"    PERFORMER "Bo Walton"    REM COMPOSER ""    INDEX 01 15:11:28  TRACK 06 AUDIO    TITLE "Miss You Bad (feat. Mark Knopfler)"    PERFORMER "Bo Walton"    REM COMPOSER ""    INDEX 01 18:04:11  TRACK 07 AUDIO    TITLE "Heartbreak Town"    PERFORMER "Bo Walton"    REM COMPOSER ""    INDEX 01 21:47:36  TRACK 08 AUDIO    TITLE "The Woman Inside"    PERFORMER "Bo Walton"    REM COMPOSER ""    INDEX 01 25:12:38  TRACK 09 AUDIO    TITLE "Down In A Blaze Of Love"    PERFORMER "Bo Walton"    REM COMPOSER ""    INDEX 01 28:38:22  TRACK 10 AUDIO    TITLE "My Hearts On Fire"    PERFORMER "Bo Walton"    REM COMPOSER ""    INDEX 01 31:52:59  TRACK 11 AUDIO    TITLE "Wild At Heart"    PERFORMER "Bo Walton"    REM COMPOSER ""    INDEX 01 35:38:02  TRACK 12 AUDIO    TITLE "Waiting On A Dream"    PERFORMER "Bo Walton"    REM COMPOSER ""    INDEX 01 38:53:44
*********************************

(2013) In A Different World - The Nik Kershaw Sessions [Jump Jack Records - JJRCD001]

Год: 2013
Лейбл: Jump Jack Records
Каталожный номер: JJRCD001
Продолжительность: 00:53:17
Треклист:
[01] This Heart Ain't Big Enough [04:44]
[02] Asleep At The Wheel [04:46]
[03] We Got One Another [04:09]
[04] Suzanne [04:27]
[05] In A Different World [04:05]
[06] Long Walk Home [04:14]
[07] You're Such A Fool To Love Me [04:12]
[08] Dream On [05:01]
[09] Killing Time [04:41]
[10] Yours For The Taking [04:23]
[11] Untouchable [03:57]
Bonus:
[12] Dirty Talk [04:39]

Лог создания рипа

Exact Audio Copy V1.2 from 12. August 2016
EAC extraction logfile from 19. October 2016, 15:14
Bo Walton / In A Different World (The Nick Kershaw Sessions)
Used drive : ASUS SDRW-08D1S-U Adapter: 1 ID: 2
Read mode : SecureUtilize accurate stream : YesDefeat audio cache : YesMake use of C2 pointers : No
Read offset correction : 667Overread into Lead-In and Lead-Out : NoFill up missing offset samples with silence : YesDelete leading and trailing silent blocks : NoNull samples used in CRC calculations : YesUsed interface : Native Win32 interface for Win NT & 2000
Used output format : User Defined EncoderSelected bitrate : 128 kBit/sQuality : HighAdd ID3 tag : NoCommand line compressor : C:\Program Files (x86)\Exact Audio Copy\Flac\flac.exeAdditional command line options : -V -8 -T "Date=%year%" -T "Genre=%genre%" %source%
TOC of the extracted CD
Track | Start | Length | Start sector | End sector --------------------------------------------------------- 1 | 0:00.00 | 4:44.27 | 0 | 21326 2 | 4:44.27 | 4:46.08 | 21327 | 42784 3 | 9:30.35 | 4:08.73 | 42785 | 61457 4 | 13:39.33 | 4:26.66 | 61458 | 81473 5 | 18:06.24 | 4:04.63 | 81474 | 99836 6 | 22:11.12 | 4:14.11 | 99837 | 118897 7 | 26:25.23 | 4:11.41 | 118898 | 137763 8 | 30:36.64 | 5:00.50 | 137764 | 160313 9 | 35:37.39 | 4:40.68 | 160314 | 181381 10 | 40:18.32 | 4:22.50 | 181382 | 201081 11 | 44:41.07 | 3:57.05 | 201082 | 218861 12 | 48:38.12 | 4:39.19 | 218862 | 239805
Range status and errors
Selected range
Filename C:\Users\Олег\Desktop\Walton - In A Different World\Bo Walton - In A Different World (The Nick Kershaw Sessions).wav
Peak level 100.0 % Extraction speed 3.8 X Range quality 100.0 % Test CRC ECD1B888 Copy CRC ECD1B888 Copy OK
No errors occurred
End of status report
---- CUETools DB Plugin V2.1.6
[CTDB TOCID: ULNFlC.4oDt9UW10Ka4RblbVvDk-] foundSubmit result: ULNFlC.4oDt9UW10Ka4RblbVvDk- has been confirmedTrack | CTDB Status 1 | (1/1) Accurately ripped 2 | (1/1) Accurately ripped 3 | (1/1) Accurately ripped 4 | (1/1) Accurately ripped 5 | (1/1) Accurately ripped 6 | (1/1) Accurately ripped 7 | (1/1) Accurately ripped 8 | (1/1) Accurately ripped 9 | (1/1) Accurately ripped 10 | (1/1) Accurately ripped 11 | (1/1) Accurately ripped 12 | (1/1) Accurately ripped
==== Log checksum B27DD539938CB0DC1D1B2F1610A43E71B5B9801123A02905CB793532FD4FBF4F ====

Содержание индексной карты (.CUE)

REM GENRE "Rock & Roll"REM DATE 2013REM DISCID A60C7D0CREM COMMENT "ExactAudioCopy v1.2"PERFORMER "Bo Walton"TITLE "In A Different World (The Nick Kershaw Sessions)"REM COMPOSER ""FILE "Bo Walton - In A Different World (The Nick Kershaw Sessions).flac" WAVE  TRACK 01 AUDIO    TITLE "This Heart Ain't Big Enough"    PERFORMER "Bo Walton"    REM COMPOSER ""    FLAGS DCP    INDEX 01 00:00:00  TRACK 02 AUDIO    TITLE "Asleep At The Wheel"    PERFORMER "Bo Walton"    REM COMPOSER ""    FLAGS DCP    INDEX 01 04:44:27  TRACK 03 AUDIO    TITLE "We Got One Another"    PERFORMER "Bo Walton"    REM COMPOSER ""    FLAGS DCP    INDEX 01 09:30:35  TRACK 04 AUDIO    TITLE "Suzanne"    PERFORMER "Bo Walton"    REM COMPOSER ""    FLAGS DCP    INDEX 01 13:39:33  TRACK 05 AUDIO    TITLE "In A Different World"    PERFORMER "Bo Walton"    REM COMPOSER ""    FLAGS DCP    INDEX 01 18:06:24  TRACK 06 AUDIO    TITLE "Long Walk Home"    PERFORMER "Bo Walton"    REM COMPOSER ""    FLAGS DCP    INDEX 01 22:11:12  TRACK 07 AUDIO    TITLE "You're Such A Fool To Love Me"    PERFORMER "Bo Walton"    REM COMPOSER ""    FLAGS DCP    INDEX 01 26:25:23  TRACK 08 AUDIO    TITLE "Dream On"    PERFORMER "Bo Walton"    REM COMPOSER ""    FLAGS DCP    INDEX 01 30:36:64  TRACK 09 AUDIO    TITLE "Killing Time"    PERFORMER "Bo Walton"    REM COMPOSER ""    FLAGS DCP    INDEX 01 35:37:39  TRACK 10 AUDIO    TITLE "Yours For The Taking"    PERFORMER "Bo Walton"    REM COMPOSER ""    FLAGS DCP    INDEX 01 40:18:32  TRACK 11 AUDIO    TITLE "Untouchable"    PERFORMER "Bo Walton"    REM COMPOSER ""    FLAGS DCP    INDEX 01 44:41:07  TRACK 12 AUDIO    TITLE "Dirty Talk"    PERFORMER "Bo Walton"    REM COMPOSER ""    FLAGS DCP    INDEX 01 48:38:12
*********************************

(2014) Faster Than Time [Jump Jack Records - JJRCD002 -CD-R]

Год: 2014
Лейбл: Jump Jack Records
Каталожный номер: JJRCD002 -CD-R
Продолжительность: 00: 33:28
Треклист:
[01] Let's Talk Now [03:03]
[02] Lonely Weekend [02:31]
[03] When A Man Cries [04:10]
[04] Faster Than Time [03:05]
[05] Now I'm In Love [03:23]
[06] He Ain't Got You [02:59]
[07] Only A Dream [04:14]
[08] Let It Be Me [03:25]
[09] Ain't Gonna Cry [03:10]
[10] Gonna Make Love [03:27]

Лог создания рипа

Exact Audio Copy V1.2 from 12. August 2016
EAC extraction logfile from 19. October 2016, 16:00
Bo Walton / Faster Than Time
Used drive : ASUS SDRW-08D1S-U Adapter: 1 ID: 2
Read mode : SecureUtilize accurate stream : YesDefeat audio cache : YesMake use of C2 pointers : No
Read offset correction : 667Overread into Lead-In and Lead-Out : NoFill up missing offset samples with silence : YesDelete leading and trailing silent blocks : NoNull samples used in CRC calculations : YesUsed interface : Native Win32 interface for Win NT & 2000
Used output format : User Defined EncoderSelected bitrate : 128 kBit/sQuality : HighAdd ID3 tag : NoCommand line compressor : C:\Program Files (x86)\Exact Audio Copy\Flac\flac.exeAdditional command line options : -V -8 -T "Date=%year%" -T "Genre=%genre%" %source%
TOC of the extracted CD
Track | Start | Length | Start sector | End sector --------------------------------------------------------- 1 | 0:00.00 | 3:03.34 | 0 | 13758 2 | 3:03.34 | 2:31.24 | 13759 | 25107 3 | 5:34.58 | 4:09.46 | 25108 | 43828 4 | 9:44.29 | 3:05.05 | 43829 | 57708 5 | 12:49.34 | 3:23.12 | 57709 | 72945 6 | 16:12.46 | 2:58.60 | 72946 | 86355 7 | 19:11.31 | 4:13.71 | 86356 | 105401 8 | 23:25.27 | 3:25.00 | 105402 | 120776 9 | 26:50.27 | 3:10.33 | 120777 | 135059 10 | 30:00.60 | 3:27.07 | 135060 | 150591
Range status and errors
Selected range
Filename C:\Users\Олег\Desktop\2014 - Faster Than Time\Bo Walton - Faster Than Time.wav
Peak level 100.0 % Extraction speed 3.4 X Range quality 100.0 % Test CRC 974A2EEA Copy CRC 974A2EEA Copy OK
No errors occurred
End of status report
---- CUETools DB Plugin V2.1.6
[CTDB TOCID: uNIJwZplsdsf8NsJ0sqo1JfPIEM-] foundSubmit result: already submittedTrack | CTDB Status 1 | (1/1) Accurately ripped 2 | (1/1) Accurately ripped 3 | (1/1) Accurately ripped 4 | (1/1) Accurately ripped 5 | (1/1) Accurately ripped 6 | (1/1) Accurately ripped 7 | (1/1) Accurately ripped 8 | (1/1) Accurately ripped 9 | (1/1) Accurately ripped 10 | (1/1) Accurately ripped
==== Log checksum 1F437C2661ADEEE42F00722A517D6035980E3174535236AF8A6B73D92C28BC7C ====

Содержание индексной карты (.CUE)

REM GENRE "Rock & Roll"REM DATE 2014REM DISCID 7D07D70AREM COMMENT "ExactAudioCopy v1.2"PERFORMER "Bo Walton"TITLE "Faster Than Time"REM COMPOSER ""FILE "Bo Walton - Faster Than Time.flac" WAVE  TRACK 01 AUDIO    TITLE " Let's Talk Now"    PERFORMER "Bo Walton"    REM COMPOSER ""    INDEX 01 00:00:00  TRACK 02 AUDIO    TITLE " Lonely Weekend"    PERFORMER "Bo Walton"    REM COMPOSER ""    INDEX 01 03:03:34  TRACK 03 AUDIO    TITLE "When A Man Cries"    PERFORMER "Bo Walton"    REM COMPOSER ""    INDEX 01 05:34:58  TRACK 04 AUDIO    TITLE "Faster Than Time"    PERFORMER "Bo Walton"    REM COMPOSER ""    INDEX 01 09:44:29  TRACK 05 AUDIO    TITLE "Now I'm In Love"    PERFORMER "Bo Walton"    REM COMPOSER ""    INDEX 01 12:49:34  TRACK 06 AUDIO    TITLE " He Ain't Got You"    PERFORMER "Bo Walton"    REM COMPOSER ""    INDEX 01 16:12:46  TRACK 07 AUDIO    TITLE "Only A Dream"    PERFORMER "Bo Walton"    REM COMPOSER ""    INDEX 01 19:11:31  TRACK 08 AUDIO    TITLE " Let It Be Me"    PERFORMER "Bo Walton"    REM COMPOSER ""    INDEX 01 23:25:27  TRACK 09 AUDIO    TITLE "Ain't Gonna Cry"    PERFORMER "Bo Walton"    REM COMPOSER ""    INDEX 01 26:50:27  TRACK 10 AUDIO    TITLE "Gonna Make Love"    PERFORMER "Bo Walton"    REM COMPOSER ""    INDEX 01 30:00:60
*********************************

(2016) All the Best [Jump Jack Records]

Год: 2016
Лейбл: Jump Jack Records
Каталожный номер: -
Продолжительность: 01:08:05
Треклист:
[01] 's Too Much - Alternate Master (David/Griffiths/Walton/Walton) [02:56]
[02] Wild At Heart - Remix (David/Walton) [03:20]
[03] I Like It Like That (David/Walton) [03:13]
[04] Lonely Weekend (Costley/Walton) [02:33]
[05] Only A Dream (David) [04:16]
[06] He Ain't Got You (David/Walton) [03:01]
[07] Dream Again (Nevin/Walton) [03:08]
[08] Hangin' On (David/Walton) [04:01]
[09] That's Not Love (David/Walton) [03:48]
[10] Wicked Moon (David/Walton) [04:23]
[11] Miss You Bad - feat. Mark Knopfler (David) [03:45]
[12] Heartbreak Town (David/Walton) [03:28]
[13] Waiting On A Dream - Alternate Master feat. Micky Gee (David) [03:18]
[14] Hey Mister Night - feat. Mark Knopfler (David/Walton) [03:45]
[15] Wild Woman (David/Walton) [03:30]
[16] Let's Talk Now (David/Walton) [03:04]
[17] Ain't Gonna Cry (David/Walton) [03:12]
[18] Gonna Make Love (David) [03:31]
[19] Goodbye Heart (David/Walton) [02:25]
[20] She Means Nothing To Me (David) [03:28]

Лог создания рипа

Exact Audio Copy V1.2 from 12. August 2016
EAC extraction logfile from 20. October 2016, 10:45
Bo Walton / All The Best
Used drive : ASUS SDRW-08D1S-U Adapter: 1 ID: 2
Read mode : SecureUtilize accurate stream : YesDefeat audio cache : YesMake use of C2 pointers : No
Read offset correction : 667Overread into Lead-In and Lead-Out : NoFill up missing offset samples with silence : YesDelete leading and trailing silent blocks : NoNull samples used in CRC calculations : YesUsed interface : Native Win32 interface for Win NT & 2000
Used output format : User Defined EncoderSelected bitrate : 128 kBit/sQuality : HighAdd ID3 tag : NoCommand line compressor : C:\Program Files (x86)\Exact Audio Copy\Flac\flac.exeAdditional command line options : -V -8 -T "Date=%year%" -T "Genre=%genre%" %source%
TOC of the extracted CD
Track | Start | Length | Start sector | End sector --------------------------------------------------------- 1 | 0:00.00 | 2:55.56 | 0 | 13180 2 | 2:55.56 | 3:20.20 | 13181 | 28200 3 | 6:16.01 | 3:12.48 | 28201 | 42648 4 | 9:28.49 | 2:33.32 | 42649 | 54155 5 | 12:02.06 | 4:16.04 | 54156 | 73359 6 | 16:18.10 | 3:00.67 | 73360 | 86926 7 | 19:19.02 | 3:07.59 | 86927 | 101010 8 | 22:26.61 | 4:00.40 | 101011 | 119050 9 | 26:27.26 | 3:47.54 | 119051 | 136129 10 | 30:15.05 | 4:22.53 | 136130 | 155832 11 | 34:37.58 | 3:45.25 | 155833 | 172732 12 | 38:23.08 | 3:27.73 | 172733 | 188330 13 | 41:51.06 | 3:18.05 | 188331 | 203185 14 | 45:09.11 | 3:45.11 | 203186 | 220071 15 | 48:54.22 | 3:30.15 | 220072 | 235836 16 | 52:24.37 | 3:03.40 | 235837 | 249601 17 | 55:28.02 | 3:12.36 | 249602 | 264037 18 | 58:40.38 | 3:31.14 | 264038 | 279876 19 | 62:11.52 | 2:24.71 | 279877 | 290747 20 | 64:36.48 | 3:27.70 | 290748 | 306342
Range status and errors
Selected range
Filename C:\Users\Олег\Desktop\Bo Walton - All The Best\Bo Walton - All The Best.wav
Peak level 44.7 % Extraction speed 4.0 X Range quality 99.9 % Test CRC 739B02D1 Copy CRC 739B02D1 Copy OK
No errors occurred
End of status report
---- CUETools DB Plugin V2.1.6
[CTDB TOCID: VGp4ohGebc1pIbB_83xVGqxYAwE-] disk not present in databaseSubmit result: VGp4ohGebc1pIbB_83xVGqxYAwE- has been uploaded
==== Log checksum CD58E8EC4F5AD8A440FAED7C78CEF85BFF5A9990D7545E142DA7F2C2EBE960D5 ====

Содержание индексной карты (.CUE)

REM GENRE "Rock & Roll"REM DATE 2016REM DISCID 220FF414REM COMMENT "ExactAudioCopy v1.2"PERFORMER "Bo Walton"TITLE "All The Best"REM COMPOSER ""FILE "Bo Walton - All The Best.flac" WAVE  TRACK 01 AUDIO    TITLE " 's Too Much "    PERFORMER "Bo Walton"    REM COMPOSER ""    INDEX 01 00:00:00  TRACK 02 AUDIO    TITLE "Wild At Heart (Remix)"    PERFORMER "Bo Walton"    REM COMPOSER ""    INDEX 00 02:53:56    INDEX 01 02:55:56  TRACK 03 AUDIO    TITLE "I Like It Like That"    PERFORMER "Bo Walton"    REM COMPOSER ""    INDEX 00 06:14:01    INDEX 01 06:16:01  TRACK 04 AUDIO    TITLE "Lonely Weekend"    PERFORMER "Bo Walton"    REM COMPOSER ""    INDEX 00 09:26:49    INDEX 01 09:28:49  TRACK 05 AUDIO    TITLE "Only A Dream"    PERFORMER "Bo Walton"    REM COMPOSER ""    INDEX 00 12:00:06    INDEX 01 12:02:06  TRACK 06 AUDIO    TITLE "He Ain't Got You"    PERFORMER "Bo Walton"    REM COMPOSER ""    INDEX 00 16:16:10    INDEX 01 16:18:10  TRACK 07 AUDIO    TITLE "Dream Again"    PERFORMER "Bo Walton"    REM COMPOSER ""    INDEX 00 19:17:02    INDEX 01 19:19:02  TRACK 08 AUDIO    TITLE "Hangin' On"    PERFORMER "Bo Walton"    REM COMPOSER ""    INDEX 00 22:24:61    INDEX 01 22:26:61  TRACK 09 AUDIO    TITLE "That's Not Love"    PERFORMER "Bo Walton"    REM COMPOSER ""    INDEX 00 26:25:26    INDEX 01 26:27:26  TRACK 10 AUDIO    TITLE "Wicked Moon"    PERFORMER "Bo Walton"    REM COMPOSER ""    INDEX 00 30:13:05    INDEX 01 30:15:05  TRACK 11 AUDIO    TITLE "Miss You Bad (feat. Mark Knopfler)"    PERFORMER "Bo Walton"    REM COMPOSER ""    INDEX 00 34:35:58    INDEX 01 34:37:58  TRACK 12 AUDIO    TITLE "Heartbreak Town"    PERFORMER "Bo Walton"    REM COMPOSER ""    INDEX 00 38:21:08    INDEX 01 38:23:08  TRACK 13 AUDIO    TITLE "Waiting On A Dream (Alternate Master) (feat. Micky Gee)"    PERFORMER "Bo Walton"    REM COMPOSER ""    INDEX 00 41:49:06    INDEX 01 41:51:06  TRACK 14 AUDIO    TITLE "Hey Mister Night (feat. Mark Knopfler)"    PERFORMER "Bo Walton"    REM COMPOSER ""    INDEX 00 45:07:11    INDEX 01 45:09:11  TRACK 15 AUDIO    TITLE "Wild Woman"    PERFORMER "Bo Walton"    REM COMPOSER ""    INDEX 00 48:52:22    INDEX 01 48:54:22  TRACK 16 AUDIO    TITLE "Let's Talk Now"    PERFORMER "Bo Walton"    REM COMPOSER ""    INDEX 00 52:22:37    INDEX 01 52:24:37  TRACK 17 AUDIO    TITLE "Ain't Gonna Cry"    PERFORMER "Bo Walton"    REM COMPOSER ""    INDEX 00 55:26:02    INDEX 01 55:28:02  TRACK 18 AUDIO    TITLE "Gonna Make Love"    PERFORMER "Bo Walton"    REM COMPOSER ""    INDEX 00 58:38:38    INDEX 01 58:40:38  TRACK 19 AUDIO    TITLE "Goodbye Heart"    PERFORMER "Bo Walton"    REM COMPOSER ""    INDEX 00 62:09:52    INDEX 01 62:11:52  TRACK 20 AUDIO    TITLE "She Means Nothing To Me"    PERFORMER "Bo Walton"    REM COMPOSER ""    INDEX 00 64:34:48    INDEX 01 64:36:48
*********************************

(2017) Break On Out ! [Jump Jack Records - JJRCD004]

Год: 2017
Лейбл: Jump Jack Records
Каталожный номер: JJRCD004
Продолжительность: 00:32:24
Треклист:
[01]Goodbye Heart [02:20]
[02]Don't Wake Me Up [03:16]
[03]Forever True [02:57]
[04]Better Than This [03:09]
[05]Hookin' Up [03:09]
[06]The AWOLS [02:41]
[07]Dream Again [03:02]
[08]Love In Disguise [03:02]
[09]I'll Still Be Loving You [02:52]
[10]I Quit Quittin' [02:43]
[11]Just A Country Boy [03:15]

Лог создания рипа

Exact Audio Copy V1.2 from 12. August 2016
EAC extraction logfile from 22. February 2018, 20:07
Bo Walton / Break On Out!
Used drive : ASUS SDRW-08D1S-U Adapter: 1 ID: 1
Read mode : SecureUtilize accurate stream : YesDefeat audio cache : YesMake use of C2 pointers : No
Read offset correction : 667Overread into Lead-In and Lead-Out : NoFill up missing offset samples with silence : YesDelete leading and trailing silent blocks : NoNull samples used in CRC calculations : YesUsed interface : Native Win32 interface for Win NT & 2000
Used output format : User Defined EncoderSelected bitrate : 128 kBit/sQuality : HighAdd ID3 tag : NoCommand line compressor : C:\Program Files (x86)\Exact Audio Copy\Flac\flac.exeAdditional command line options : -V -8 -T "Date=%year%" -T "Genre=%genre%" %source%
TOC of the extracted CD
Track | Start | Length | Start sector | End sector --------------------------------------------------------- 1 | 0:00.00 | 2:19.46 | 0 | 10470 2 | 2:19.46 | 3:16.37 | 10471 | 25207 3 | 5:36.08 | 2:56.56 | 25208 | 38463 4 | 8:32.64 | 3:09.01 | 38464 | 52639 5 | 11:41.65 | 3:08.47 | 52640 | 66786 6 | 14:50.37 | 2:40.40 | 66787 | 78826 7 | 17:31.02 | 3:01.41 | 78827 | 92442 8 | 20:32.43 | 3:01.71 | 92443 | 106088 9 | 23:34.39 | 2:51.40 | 106089 | 118953 10 | 26:26.04 | 2:43.04 | 118954 | 131182 11 | 29:09.08 | 3:15.19 | 131183 | 145826
Range status and errors
Selected range
Filename C:\Users\Олег\Desktop\Bo Walton - Break On Out\Bo Walton - Break On Out!.wav
Peak level 98.9 % Extraction speed 3.3 X Range quality 100.0 % Test CRC 22E6ACA3 Copy CRC 22E6ACA3 Copy OK
No errors occurred
AccurateRip summary
Track 1 not present in databaseTrack 2 not present in databaseTrack 3 not present in databaseTrack 4 not present in databaseTrack 5 not present in databaseTrack 6 not present in databaseTrack 7 not present in databaseTrack 8 not present in databaseTrack 9 not present in databaseTrack 10 not present in databaseTrack 11 not present in database
None of the tracks are present in the AccurateRip database
End of status report
---- CUETools DB Plugin V2.1.6
[CTDB TOCID: E08djb9h5ZwDZGvJcAwJ.PWEqn8-] disk not present in databaseSubmit result: E08djb9h5ZwDZGvJcAwJ.PWEqn8- has been uploaded
==== Log checksum 362A69B56CA11A865CE9A9E5B04AEEBF973B2E38249AC906773B65C8690EF91B ====

Содержание индексной карты (.CUE)

REM GENRE "Rock & Roll"REM DATE 2017REM DISCID 8007980BREM COMMENT "ExactAudioCopy v1.2"PERFORMER "Bo Walton"TITLE "Break On Out!"REM COMPOSER ""FILE "Bo Walton - Break On Out!.flac" WAVE  TRACK 01 AUDIO    TITLE "Goodbye Heart"    PERFORMER "Bo Walton"    REM COMPOSER ""    INDEX 01 00:00:00  TRACK 02 AUDIO    TITLE "Don't Wake Me Up"    PERFORMER "Bo Walton"    REM COMPOSER ""    INDEX 01 02:19:46  TRACK 03 AUDIO    TITLE "Forever True"    PERFORMER "Bo Walton"    REM COMPOSER ""    INDEX 01 05:36:08  TRACK 04 AUDIO    TITLE "Better Than This"    PERFORMER "Bo Walton"    REM COMPOSER ""    INDEX 01 08:32:64  TRACK 05 AUDIO    TITLE "Hookin' Up"    PERFORMER "Bo Walton"    REM COMPOSER ""    INDEX 01 11:41:65  TRACK 06 AUDIO    TITLE "The AWOLS"    PERFORMER "Bo Walton"    REM COMPOSER ""    INDEX 01 14:50:37  TRACK 07 AUDIO    TITLE "Dream Again"    PERFORMER "Bo Walton"    REM COMPOSER ""    INDEX 01 17:31:02  TRACK 08 AUDIO    TITLE "Love In Disguise"    PERFORMER "Bo Walton"    REM COMPOSER ""    INDEX 01 20:32:43  TRACK 09 AUDIO    TITLE "I'll Still Be Lovin' You"    PERFORMER "Bo Walton"    REM COMPOSER ""    INDEX 01 23:34:39  TRACK 10 AUDIO    TITLE "I Quit Quittin' (When You Quit Lovin' Me)"    PERFORMER "Bo Walton"    REM COMPOSER ""    INDEX 01 26:26:04  TRACK 11 AUDIO    TITLE "Just A Country Boy"    PERFORMER "Bo Walton"    REM COMPOSER ""    INDEX 01 29:09:08
*********************************
Синглы:

(2011) 's Too Much / Hey Mister Night [Tabitha Records - TABCDS113]

Год: 2011
Лейбл: Tabitha Records
Каталожный номер: TABCDS113
Продолжительность: 00:06:37
Треклист:
[01] 's Too Much [02:56]
[02] Hey Mister Night (feat. Mark Knopfler) [03:41]

Лог создания рипа

Exact Audio Copy V1.1 from 23. June 2015
EAC extraction logfile from 3. August 2016, 16:54
Bo Walton / 'S Too Much
Used drive : ASUS SDRW-08D1S-U Adapter: 1 ID: 1
Read mode : SecureUtilize accurate stream : YesDefeat audio cache : YesMake use of C2 pointers : No
Read offset correction : 667Overread into Lead-In and Lead-Out : NoFill up missing offset samples with silence : YesDelete leading and trailing silent blocks : NoNull samples used in CRC calculations : YesUsed interface : Native Win32 interface for Win NT & 2000
Used output format : User Defined EncoderSelected bitrate : 128 kBit/sQuality : HighAdd ID3 tag : NoCommand line compressor : C:\Program Files (x86)\Exact Audio Copy\Flac\flac.exeAdditional command line options : -V -8 -T "Date=%year%" -T "Genre=%genre%" %source%
TOC of the extracted CD
Track | Start | Length | Start sector | End sector --------------------------------------------------------- 1 | 0:00.00 | 2:55.74 | 0 | 13198 2 | 2:55.74 | 3:41.21 | 13199 | 29794
Range status and errors
Selected range
Filename C:\Users\Олег\Desktop\Bo Walton - дискография\singles\Bo Walton - 's Too Much_Hey Mister Night\Bo Walton - 'S Too Much.wav
Peak level 100.0 % Extraction speed 2.6 X Range quality 100.0 % Test CRC F8602400 Copy CRC F8602400 Copy OK
No errors occurred
AccurateRip summary
Track 1 accurately ripped (confidence 1) [3CB91253] (AR v2)Track 2 accurately ripped (confidence 1) [52222D14] (AR v2)
All tracks accurately ripped
End of status report
---- CUETools DB Plugin V2.1.6
[CTDB TOCID: 8TeVnbbGLS8.HmwSkj7PlBEUQRA-] foundSubmit result: already submittedTrack | CTDB Status 1 | (1/1) Accurately ripped 2 | (1/1) Accurately ripped
==== Log checksum 58EC09EE9FDF340B1DEA95A9E04BE3F8C11D2AAA02F213912E9F4A7267890E32 ====

Содержание индексной карты (.CUE)

REM GENRE RockREM DATE 2011REM DISCID 11018D02REM COMMENT "ExactAudioCopy v1.1"PERFORMER "Bo Walton"TITLE "'S Too Much"FILE "Bo Walton - 'S Too Much.flac" WAVE  TRACK 01 AUDIO    TITLE "'S Too Much"    PERFORMER "Bo Walton"    INDEX 01 00:00:00  TRACK 02 AUDIO    TITLE "Hey Mister Night"    PERFORMER "Bo Walton"    INDEX 00 02:52:39    INDEX 01 02:55:74
*********************************

(2012) I like it like that/I’m the one you need [Tabitha Records - TABCDS120]

Год: 2012
Лейбл: Tabitha Records
Каталожный номер: TABCDS120
Продолжительность: 06:36
Треклист:
[01] I like it like that [03:12]
[02] I’m the one you need [03:24]

Лог создания рипа

Exact Audio Copy V1.1 from 23. June 2015
EAC extraction logfile from 31. July 2016, 22:33
Bo Walton / I like it like that/I’m the one you need (single)
Used drive : ASUS SDRW-08D1S-U Adapter: 1 ID: 1
Read mode : SecureUtilize accurate stream : YesDefeat audio cache : YesMake use of C2 pointers : No
Read offset correction : 667Overread into Lead-In and Lead-Out : NoFill up missing offset samples with silence : YesDelete leading and trailing silent blocks : NoNull samples used in CRC calculations : YesUsed interface : Native Win32 interface for Win NT & 2000
Used output format : User Defined EncoderSelected bitrate : 128 kBit/sQuality : HighAdd ID3 tag : NoCommand line compressor : C:\Program Files (x86)\Exact Audio Copy\Flac\flac.exeAdditional command line options : -V -8 -T "Date=%year%" -T "Genre=%genre%" %source%
TOC of the extracted CD
Track | Start | Length | Start sector | End sector --------------------------------------------------------- 1 | 0:00.00 | 3:11.53 | 0 | 14377 2 | 3:11.53 | 3:24.24 | 14378 | 29701
Range status and errors
Selected range
Filename C:\Users\Олег\Desktop\Bo Walton - I like it like that_I’m the one you need\Bo Walton - I like it like that,I’m the one you need (single).wav
Peak level 96.6 % Extraction speed 2.5 X Range quality 100.0 % Test CRC AA4C83F9 Copy CRC AA4C83F9 Copy OK
No errors occurred
AccurateRip summary
Track 1 not present in databaseTrack 2 not present in database
None of the tracks are present in the AccurateRip database
End of status report
---- CUETools DB Plugin V2.1.6
[CTDB TOCID: 2238U.pYI4RoHH6T8XMaoMnTSU0-] disk not present in databaseSubmit result: 2238U.pYI4RoHH6T8XMaoMnTSU0- has been uploaded
==== Log checksum E18ABF447E21BF0F20CE8DAB40821354F95EF39F781061E1A8C7683AC17E63CC ====

Содержание индексной карты (.CUE)

REM GENRE "Rock & Roll"REM DATE 2012REM DISCID 0F018C02REM COMMENT "ExactAudioCopy v1.1"PERFORMER "Bo Walton"TITLE "I like it like that/I’m the one you need (single)"FILE "Bo Walton - I like it like that,I’m the one you need (single).flac" WAVE  TRACK 01 AUDIO    TITLE "I like it like that"    PERFORMER "Bo Walton"    INDEX 01 00:00:00  TRACK 02 AUDIO    TITLE "I’m the one you need "    PERFORMER "Bo Walton"    INDEX 00 03:09:48    INDEX 01 03:11:53
*********************************

(2012) Goes Wild! (Wild At Heart/ Wild Woman) [Tabitha Records - TABCDS117]

Год: 2012
Лейбл: Tabitha Records
Каталожный номер: TABCDS117
Продолжительность: 06:42
Треклист:
[01] Wild At Heart [03:16]
[02] Wild Woman [03:27]

Лог создания рипа

Exact Audio Copy V1.1 from 23. June 2015
EAC extraction logfile from 1. August 2016, 15:05
Bo Walton / Goes Wild
Used drive : ASUS SDRW-08D1S-U Adapter: 1 ID: 1
Read mode : SecureUtilize accurate stream : YesDefeat audio cache : YesMake use of C2 pointers : No
Read offset correction : 667Overread into Lead-In and Lead-Out : NoFill up missing offset samples with silence : YesDelete leading and trailing silent blocks : NoNull samples used in CRC calculations : YesUsed interface : Native Win32 interface for Win NT & 2000
Used output format : User Defined EncoderSelected bitrate : 128 kBit/sQuality : HighAdd ID3 tag : NoCommand line compressor : C:\Program Files (x86)\Exact Audio Copy\Flac\flac.exeAdditional command line options : -V -8 -T "Date=%year%" -T "Genre=%genre%" %source%
TOC of the extracted CD
Track | Start | Length | Start sector | End sector --------------------------------------------------------- 1 | 0:00.00 | 3:15.49 | 0 | 14673 2 | 3:15.49 | 3:26.50 | 14674 | 30173
Range status and errors
Selected range
Filename C:\Users\Олег\Desktop\Bo Walton - Goes Wild\Bo Walton - Goes Wild.wav
Peak level 100.0 % Extraction speed 2.5 X Range quality 100.0 % Test CRC 82A93517 Copy CRC 82A93517 Copy OK
No errors occurred
AccurateRip summary
Track 1 not present in databaseTrack 2 not present in database
None of the tracks are present in the AccurateRip database
End of status report
---- CUETools DB Plugin V2.1.6
[CTDB TOCID: 4w39rSj9um4F.DX1BtXncBdMYQ8-] disk not present in databaseSubmit result: 4w39rSj9um4F.DX1BtXncBdMYQ8- has been uploaded
==== Log checksum BD23F64108C767888A7733420E8237B31ECF811F64E6BFE4CF6031D06B2C4B9A ====

Содержание индексной карты (.CUE)

REM GENRE "Rock & Roll"REM DATE 2012REM DISCID 13019202REM COMMENT "ExactAudioCopy v1.1"PERFORMER "Bo Walton"TITLE "Goes Wild"FILE "Bo Walton - Goes Wild.flac" WAVE  TRACK 01 AUDIO    TITLE "Wild At Heart"    PERFORMER "Bo Walton"    INDEX 01 00:00:00  TRACK 02 AUDIO    TITLE "Wild Woman"    PERFORMER "Bo Walton"    INDEX 01 03:15:49
Дискография замечательного британского исполнителя. Официальный сайт: http://www.bowalton.com Можно как послушать, так и посмотреть.
Все диски из личной коллекции. Faster Than Time представлен в виде рипа с CD-R (в таком виде был получен от автора). Насчет этого издания у меня очень большие подозрения, что он выходил только на виниле. И еще в виде DOWNLOADABLE MUSIC ALBUM (собственно в таком виде он уже на Amazon давно имеется).
Торрент обновлен 23 февраля 2018г. Добавлен альбом Break On Out! (2017г.)
Вы не можете начинать темы
Вы не можете отвечать на сообщения
Вы не можете редактировать свои сообщения
Вы не можете удалять свои сообщения
Вы не можете голосовать в опросах
Вы не можете прикреплять файлы к сообщениям
Вы можете скачивать файлы
!ВНИМАНИЕ!

Сайт не предоставляет электронные версии произведений, а занимается лишь коллекционированием и каталогизацией ссылок, присылаемых и публикуемых на форуме нашими читателями. Если вы являетесь правообладателем какого-либо представленного материала и не желаете, чтобы ссылка на него находилась в нашем каталоге, свяжитесь с нами, и мы незамедлительно удалим ее. Файлы для обмена на трекере предоставлены пользователями сайта, и администрация не несет ответственности за их содержание. Просьба не заливать файлы, защищенные авторскими правами, а также файлы нелегального содержания!

Искали программы, игры, дополнения, музыка mp3, аниме, аудио книги, журналы? Добро пожаловать на свободный торрент трекер Torrents, у нас можно скачать бесплатно, без смс и регистрации и прочих ограничений лучшие, отборные сборки программ, игр. Скачать торрентом не составит труда даже не опытному пользователю. Раздачи ежедневно обновляются, только лучшие и качественные раздачи, подробные описания и скриншоты. Огромная коллекция программ для работы со звуком, графикой, дизайном, а так же множество плагинов и инструментов к ним с подробной инструкцией и рекомендациями. Прошивки для навигаторов, карты. Разнообразные игры, для Windows, Linux. В коллекцие есть и старые игры любых жанров, Rpg, Action, Shooter, strategy Множество дополнений, модификаций, сценариев для популярных игр в жанре экш, рпг, гонки, стратегии, логические игры. Множество аддонов и сценариев для Microsoft Flight Simulator Большая коллекция книг, учебников. Если нет возможности купить печатное издание - смело скачивайте цифровую версию книги или, быть может, журнала. Не любите читать - можно загрузить бесплатно аудикнигу. Для веб дизайнеров и программистов так же найдется множество специализированного софта, таких как: редакторы с подсветкой, среды программирования, компоненты, системы управления базами данных, разнообразные скрипты и шаблоны. Не так давно у нас появился материал для автолюбителей и владельцев мото - оригинальные и неоригинальные каталоги запчастей, книги и журналы по ремонту и обслуживанию, видеоуроки, статьи по чип тюнингу, прошивкам. Процедура получения контента элементарная, достаточно просто скачать торрент файл и добавить его в загрузку в вашем торрент клиенте. Если у вас нет специального торрент клиента, вы можете его скачать у нас.