Australia | New Zealand | United Kingdom

(Rock\'n\'Roll) Ritchie Valens - The Very Best Of... - 1995, FLAC (image+.cue), lossless 

Цитировать
Ritchie Valens - The Very Best Of...
Жанр: Rock'n'Roll
Носитель: CD
Страна-производитель диска (релиза): UK
Год издания: 1995
Издатель (лейбл): Music Club
Номер по каталогу: MCCD 226
Страна исполнителя (группы): USA
Аудиокодек: FLAC (*.flac)
Тип рипа: image+.cue
Битрейт аудио: lossless
Продолжительность: 00:47:38
Источник (релизер): Собственный CD
Наличие сканов в содержимом раздачи: да
Треклист:
1. La Bamba
2. That's My Little Suzie
3. Hurry Up
4. Donna
5. Malaguena
6. Ooh! My Head
7. Bony Moronie
8. Little Girl
9. We Belong Together
10. Cry Cry Cry
11. Ritchie's Blues
12. Bluebirds Over The Mountain
13. Paddi-Wack Song
14. Rockin' All Night
15. Framed
16. Hi-Tone
17. Big Baby Blues
18. Stay Beside Me
19. Dooby Dooby Wah
20. Fast Freight
21. In A Turkish Town
22. Come On, Let's Go

Лог создания рипа

Exact Audio Copy V1.0 beta 6 from 9. April 2015
EAC extraction logfile from 2. April 2018, 20:59
Ritchie Valens / The Very Best Of...
Used drive : SONY DVD RW DRU-875S Adapter: 1 ID: 0
Read mode : SecureUtilize accurate stream : YesDefeat audio cache : YesMake use of C2 pointers : No
Read offset correction : 48Overread into Lead-In and Lead-Out : NoFill up missing offset samples with silence : YesDelete leading and trailing silent blocks : NoNull samples used in CRC calculations : YesUsed interface : Native Win32 interface for Win NT & 2000
Used output format : User Defined EncoderSelected bitrate : 896 kBit/sQuality : HighAdd ID3 tag : NoCommand line compressor : C:\Program Files\Exact Audio Copy\Flac\flac.exeAdditional command line options : -V -8 -T "Date=%year%" -T "Genre=%genre%" %source%
TOC of the extracted CD
Track | Start | Length | Start sector | End sector --------------------------------------------------------- 1 | 0:00.32 | 2:10.00 | 32 | 9781 2 | 2:10.32 | 2:00.45 | 9782 | 18826 3 | 4:11.02 | 1:51.60 | 18827 | 27211 4 | 6:02.62 | 2:29.35 | 27212 | 38421 5 | 8:32.22 | 2:55.73 | 38422 | 51619 6 | 11:28.20 | 1:49.37 | 51620 | 59831 7 | 13:17.57 | 2:46.68 | 59832 | 72349 8 | 16:04.50 | 2:22.45 | 72350 | 83044 9 | 18:27.20 | 1:58.17 | 83045 | 91911 10 | 20:25.37 | 2:14.65 | 91912 | 102026 11 | 22:40.27 | 1:32.63 | 102027 | 108989 12 | 24:13.15 | 1:46.15 | 108990 | 116954 13 | 25:59.30 | 2:24.45 | 116955 | 127799 14 | 28:24.00 | 2:21.05 | 127800 | 138379 15 | 30:45.05 | 2:13.57 | 138380 | 148411 16 | 32:58.62 | 2:07.08 | 148412 | 157944 17 | 35:05.70 | 1:56.45 | 157945 | 166689 18 | 37:02.40 | 2:22.32 | 166690 | 177371 19 | 39:24.72 | 1:55.35 | 177372 | 186031 20 | 41:20.32 | 1:59.60 | 186032 | 195016 21 | 43:20.17 | 2:15.05 | 195017 | 205146 22 | 45:35.22 | 2:03.33 | 205147 | 214404
Range status and errors
Selected range
Filename E:\1995 - Ritchie Valens - The Very Best Of\Ritchie Valens - The Very Best Of....wav
Peak level 100.0 % Extraction speed 3.8 X Range quality 100.0 % Test CRC 9928BA50 Copy CRC 9928BA50 Copy OK
No errors occurred
AccurateRip summary
Track 1 accurately ripped (confidence 6) [D41489F9] (AR v2)Track 2 accurately ripped (confidence 6) [B3C05B2B] (AR v2)Track 3 accurately ripped (confidence 6) [E3A0C4BA] (AR v2)Track 4 accurately ripped (confidence 6) [DE250FDF] (AR v2)Track 5 accurately ripped (confidence 6) [E1C494AF] (AR v2)Track 6 accurately ripped (confidence 6) [C30B9983] (AR v2)Track 7 accurately ripped (confidence 6) [E1EB19A5] (AR v2)Track 8 accurately ripped (confidence 6) [C3C42FB7] (AR v2)Track 9 accurately ripped (confidence 6) [D30FB14A] (AR v2)Track 10 accurately ripped (confidence 6) [365B1A2C] (AR v2)Track 11 accurately ripped (confidence 6) [4B4D6E82] (AR v2)Track 12 accurately ripped (confidence 6) [767DBA4F] (AR v2)Track 13 accurately ripped (confidence 6) [07F0EDC9] (AR v2)Track 14 accurately ripped (confidence 6) [8718914D] (AR v2)Track 15 accurately ripped (confidence 6) [0551C74B] (AR v2)Track 16 accurately ripped (confidence 6) [2E93B84C] (AR v2)Track 17 accurately ripped (confidence 6) [A59385F9] (AR v2)Track 18 accurately ripped (confidence 6) [EFAEE53A] (AR v2)Track 19 accurately ripped (confidence 6) [E90780AF] (AR v2)Track 20 accurately ripped (confidence 6) [0BB2DC85] (AR v2)Track 21 accurately ripped (confidence 6) [8933FBA3] (AR v2)Track 22 accurately ripped (confidence 6) [7BFEFD9C] (AR v2)
All tracks accurately ripped
End of status report

Содержание индексной карты (.CUE)

REM GENRE "Rock & Roll"REM DATE 1995REM DISCID 2C0B2A16REM COMMENT "ExactAudioCopy v1.0b6"PERFORMER "Ritchie Valens"TITLE "The Very Best Of..."FILE "Ritchie Valens - The Very Best Of....flac" WAVE  TRACK 01 AUDIO    TITLE "La Bamba"    PERFORMER "Ritchie Valens"    INDEX 00 00:00:00    INDEX 01 00:00:32  TRACK 02 AUDIO    TITLE "That's My Little Suzie"    PERFORMER "Ritchie Valens"    INDEX 00 02:08:12    INDEX 01 02:10:32  TRACK 03 AUDIO    TITLE "Hurry Up"    PERFORMER "Ritchie Valens"    INDEX 00 04:08:65    INDEX 01 04:11:02  TRACK 04 AUDIO    TITLE "Donna"    PERFORMER "Ritchie Valens"    INDEX 00 06:01:72    INDEX 01 06:02:62  TRACK 05 AUDIO    TITLE "Malaguena"    PERFORMER "Ritchie Valens"    INDEX 00 08:30:55    INDEX 01 08:32:22  TRACK 06 AUDIO    TITLE "Ooh! My Head"    PERFORMER "Ritchie Valens"    INDEX 00 11:26:62    INDEX 01 11:28:20  TRACK 07 AUDIO    TITLE "Bony Moronie"    PERFORMER "Ritchie Valens"    INDEX 00 13:17:03    INDEX 01 13:17:57  TRACK 08 AUDIO    TITLE "Little Girl"    PERFORMER "Ritchie Valens"    INDEX 00 16:03:62    INDEX 01 16:04:50  TRACK 09 AUDIO    TITLE "We Belong Together"    PERFORMER "Ritchie Valens"    INDEX 00 18:26:00    INDEX 01 18:27:20  TRACK 10 AUDIO    TITLE "Cry Cry Cry"    PERFORMER "Ritchie Valens"    INDEX 00 20:24:20    INDEX 01 20:25:37  TRACK 11 AUDIO    TITLE "Ritchie's Blues"    PERFORMER "Ritchie Valens"    INDEX 00 22:39:05    INDEX 01 22:40:27  TRACK 12 AUDIO    TITLE "Bluebirds Over The Mountain"    PERFORMER "Ritchie Valens"    INDEX 00 24:12:07    INDEX 01 24:13:15  TRACK 13 AUDIO    TITLE "Paddi-Wack Song"    PERFORMER "Ritchie Valens"    INDEX 00 25:57:47    INDEX 01 25:59:30  TRACK 14 AUDIO    TITLE "Rockin' All Night"    PERFORMER "Ritchie Valens"    INDEX 00 28:22:70    INDEX 01 28:24:00  TRACK 15 AUDIO    TITLE "Framed"    PERFORMER "Ritchie Valens"    INDEX 00 30:43:70    INDEX 01 30:45:05  TRACK 16 AUDIO    TITLE "Hi-Tone"    PERFORMER "Ritchie Valens"    INDEX 00 32:57:10    INDEX 01 32:58:62  TRACK 17 AUDIO    TITLE "Big Baby Blues"    PERFORMER "Ritchie Valens"    INDEX 00 35:04:65    INDEX 01 35:05:70  TRACK 18 AUDIO    TITLE "Stay Beside Me"    PERFORMER "Ritchie Valens"    INDEX 00 37:01:22    INDEX 01 37:02:40  TRACK 19 AUDIO    TITLE "Dooby Dooby Wah"    PERFORMER "Ritchie Valens"    INDEX 00 39:24:47    INDEX 01 39:24:72  TRACK 20 AUDIO    TITLE "Fast Freight"    PERFORMER "Ritchie Valens"    INDEX 00 41:19:45    INDEX 01 41:20:32  TRACK 21 AUDIO    TITLE "In A Turkish Town"    PERFORMER "Ritchie Valens"    INDEX 01 43:20:17  TRACK 22 AUDIO    TITLE "Come On, Let's Go"    PERFORMER "Ritchie Valens"    INDEX 00 45:34:45    INDEX 01 45:35:22

Скриншот спектра частот

Вы не можете начинать темы
Вы не можете отвечать на сообщения
Вы не можете редактировать свои сообщения
Вы не можете удалять свои сообщения
Вы не можете голосовать в опросах
Вы не можете прикреплять файлы к сообщениям
Вы можете скачивать файлы
!ВНИМАНИЕ!

Сайт не предоставляет электронные версии произведений, а занимается лишь коллекционированием и каталогизацией ссылок, присылаемых и публикуемых на форуме нашими читателями. Если вы являетесь правообладателем какого-либо представленного материала и не желаете, чтобы ссылка на него находилась в нашем каталоге, свяжитесь с нами, и мы незамедлительно удалим ее. Файлы для обмена на трекере предоставлены пользователями сайта, и администрация не несет ответственности за их содержание. Просьба не заливать файлы, защищенные авторскими правами, а также файлы нелегального содержания!

Искали программы, игры, дополнения, музыка mp3, аниме, аудио книги, журналы? Добро пожаловать на свободный торрент трекер Torrents, у нас можно скачать бесплатно, без смс и регистрации и прочих ограничений лучшие, отборные сборки программ, игр. Скачать торрентом не составит труда даже не опытному пользователю. Раздачи ежедневно обновляются, только лучшие и качественные раздачи, подробные описания и скриншоты. Огромная коллекция программ для работы со звуком, графикой, дизайном, а так же множество плагинов и инструментов к ним с подробной инструкцией и рекомендациями. Прошивки для навигаторов, карты. Разнообразные игры, для Windows, Linux. В коллекцие есть и старые игры любых жанров, Rpg, Action, Shooter, strategy Множество дополнений, модификаций, сценариев для популярных игр в жанре экш, рпг, гонки, стратегии, логические игры. Множество аддонов и сценариев для Microsoft Flight Simulator Большая коллекция книг, учебников. Если нет возможности купить печатное издание - смело скачивайте цифровую версию книги или, быть может, журнала. Не любите читать - можно загрузить бесплатно аудикнигу. Для веб дизайнеров и программистов так же найдется множество специализированного софта, таких как: редакторы с подсветкой, среды программирования, компоненты, системы управления базами данных, разнообразные скрипты и шаблоны. Не так давно у нас появился материал для автолюбителей и владельцев мото - оригинальные и неоригинальные каталоги запчастей, книги и журналы по ремонту и обслуживанию, видеоуроки, статьи по чип тюнингу, прошивкам. Процедура получения контента элементарная, достаточно просто скачать торрент файл и добавить его в загрузку в вашем торрент клиенте. Если у вас нет специального торрент клиента, вы можете его скачать у нас.