Non dimenticarmi - Don't Forget Me 15 novembre 2018 | The Problem Solverz (19) | Season 6 Episode 8 Pain in the Neck

(Indie Rock \'N\' Roll, Punk Blues) The Jon Spencer Blues Explosion - Дискография [28xCD] 1990-2015, FLAC (tracks+.cue), lossless 

Цитировать
The Jon Spencer Blues Explosion
=====================

Дискография

Жанр: Indie Rock 'N' Roll, Punk Blues
Год выпуска диска: 1990-2015
Производитель диска: US
Аудио кодек: FLAC
Тип рипа: tracks+.cue
Битрейт аудио: lossless
Продолжительность: 18:27:26
Источник: What.cd
Offsite
Main Albums

1992 - The Jon Spencer Blues Explosion

Label: Caroline Records
Catalog#: CAROL CD 1719
Продолжительность: 00:45:10
Трэклист:
01 Write A Song (1:53)
02 I.E.V. (1:45)
03 Exploder (2:00)
04 Rachel (2:25)
05 Chicken Walk (2:53)
06 White Tail (2:31)
07 '78 Style (1:26)
08 Changed (1:05)
09 What To Do (2:11)
10 Eye To Eye (1:43)
11 Eliza Jane (2:02)
12 History Of Sex (1:46)
13 Comeback (3:12)
14 Support-A-Man (2:00)
15 Maynard Ave. (1:57)
16 Feeling Of Love (1:47)
17 Vacuum of Loneliness (3:02)
18 Intro A (0:52)
19 Biological (2:10)
20 Water Main (1:51)

Exact Audio Copy

EAC extraction logfile from 14. September 2007, 19:11 for CD
Jon Spencer Blues Explosion / Jon Spencer Blues Explosion
Used drive : SONY DVD RW DRU-510A Adapter: 2 ID: 0
Read mode : Secure with NO C2, accurate stream, disable cache
Read offset correction : 120
Overread into Lead-In and Lead-Out : No
Used output format : C:\Program\FLAC\flac.exe (User Defined Encoder)
128 kBit/s
Additional command line options : -8 -V -T "artist=%a" -T "title=%t" -T "album=%g" -T "date=%y" -T "tracknumber=%n" -T "genre=%m" -T "comment=High Quality, EAC secure, Lossless flac " %s
Other options :
Fill up missing offset samples with silence : Yes
Delete leading and trailing silent blocks : No
Installed external ASPI interface
Track 1
Filename F:\EACRips\J Spencer\The Jon Spencer Blues Explosion - The Jon Spencer Blues Explosion (1992) [FLAC]\01 - Write A Song.wav
Pre-gap length 0:00:02.00
Peak level 85.9 %
Track quality 100.0 %
Test CRC 613A7EA0
Copy CRC 613A7EA0
Copy OK
Track 2
Filename F:\EACRips\J Spencer\The Jon Spencer Blues Explosion - The Jon Spencer Blues Explosion (1992) [FLAC]\02 - I.E.V..wav
Pre-gap length 0:00:00.89
Peak level 89.2 %
Track quality 100.0 %
Test CRC 45538775
Copy CRC 45538775
Copy OK
Track 3
Filename F:\EACRips\J Spencer\The Jon Spencer Blues Explosion - The Jon Spencer Blues Explosion (1992) [FLAC]\03 - Exploder.wav
Pre-gap length 0:00:03.69
Peak level 97.7 %
Track quality 99.9 %
Test CRC 2509C654
Copy CRC 2509C654
Copy OK
Track 4
Filename F:\EACRips\J Spencer\The Jon Spencer Blues Explosion - The Jon Spencer Blues Explosion (1992) [FLAC]\04 - Rachel.wav
Pre-gap length 0:00:01.70
Peak level 90.9 %
Track quality 99.9 %
Test CRC 5211670D
Copy CRC 5211670D
Copy OK
Track 5
Filename F:\EACRips\J Spencer\The Jon Spencer Blues Explosion - The Jon Spencer Blues Explosion (1992) [FLAC]\05 - Chicken Walk.wav
Pre-gap length 0:00:00.62
Peak level 92.9 %
Track quality 100.0 %
Test CRC 0135F915
Copy CRC 0135F915
Copy OK
Track 6
Filename F:\EACRips\J Spencer\The Jon Spencer Blues Explosion - The Jon Spencer Blues Explosion (1992) [FLAC]\06 - White Tail.wav
Pre-gap length 0:00:00.46
Peak level 71.2 %
Track quality 100.0 %
Test CRC CA98E074
Copy CRC CA98E074
Copy OK
Track 7
Filename F:\EACRips\J Spencer\The Jon Spencer Blues Explosion - The Jon Spencer Blues Explosion (1992) [FLAC]\07 - '78 Style.wav
Pre-gap length 0:00:04.90
Peak level 74.0 %
Track quality 100.0 %
Test CRC C52812A5
Copy CRC C52812A5
Copy OK
Track 8
Filename F:\EACRips\J Spencer\The Jon Spencer Blues Explosion - The Jon Spencer Blues Explosion (1992) [FLAC]\08 - Changed.wav
Peak level 96.4 %
Track quality 100.0 %
Test CRC D6C370DB
Copy CRC D6C370DB
Copy OK
Track 9
Filename F:\EACRips\J Spencer\The Jon Spencer Blues Explosion - The Jon Spencer Blues Explosion (1992) [FLAC]\09 - What To Do.wav
Pre-gap length 0:00:03.06
Peak level 73.9 %
Track quality 100.0 %
Test CRC A51EB806
Copy CRC A51EB806
Copy OK
Track 10
Filename F:\EACRips\J Spencer\The Jon Spencer Blues Explosion - The Jon Spencer Blues Explosion (1992) [FLAC]\10 - Eye To Eye.wav
Pre-gap length 0:00:04.50
Peak level 97.7 %
Track quality 100.0 %
Test CRC 13A78D17
Copy CRC 13A78D17
Copy OK
Track 11
Filename F:\EACRips\J Spencer\The Jon Spencer Blues Explosion - The Jon Spencer Blues Explosion (1992) [FLAC]\11 - Eliza Jane.wav
Pre-gap length 0:00:04.89
Peak level 92.4 %
Track quality 100.0 %
Test CRC DF0B70E8
Copy CRC DF0B70E8
Copy OK
Track 12
Filename F:\EACRips\J Spencer\The Jon Spencer Blues Explosion - The Jon Spencer Blues Explosion (1992) [FLAC]\12 - History Of Sex.wav
Peak level 92.9 %
Track quality 100.0 %
Test CRC 1B9D2EF9
Copy CRC 1B9D2EF9
Copy OK
Track 13
Filename F:\EACRips\J Spencer\The Jon Spencer Blues Explosion - The Jon Spencer Blues Explosion (1992) [FLAC]\13 - Comeback.wav
Peak level 95.5 %
Track quality 99.9 %
Test CRC 229D4760
Copy CRC 229D4760
Copy OK
Track 14
Filename F:\EACRips\J Spencer\The Jon Spencer Blues Explosion - The Jon Spencer Blues Explosion (1992) [FLAC]\14 - Support-A-Man.wav
Pre-gap length 0:00:01.17
Peak level 83.3 %
Track quality 100.0 %
Test CRC D42D4D12
Copy CRC D42D4D12
Copy OK
Track 15
Filename F:\EACRips\J Spencer\The Jon Spencer Blues Explosion - The Jon Spencer Blues Explosion (1992) [FLAC]\15 - Maynard Ave..wav
Peak level 80.4 %
Track quality 100.0 %
Test CRC 13D7AD2C
Copy CRC 13D7AD2C
Copy OK
Track 16
Filename F:\EACRips\J Spencer\The Jon Spencer Blues Explosion - The Jon Spencer Blues Explosion (1992) [FLAC]\16 - Feeling Of Love.wav
Pre-gap length 0:00:05.06
Peak level 77.4 %
Track quality 100.0 %
Test CRC 3131ACF7
Copy CRC 3131ACF7
Copy OK
Track 17
Filename F:\EACRips\J Spencer\The Jon Spencer Blues Explosion - The Jon Spencer Blues Explosion (1992) [FLAC]\17 - Vacuum Of Loneliness.wav
Pre-gap length 0:00:02.29
Peak level 67.0 %
Track quality 100.0 %
Test CRC 9DDF6BE5
Copy CRC 9DDF6BE5
Copy OK
Track 18
Filename F:\EACRips\J Spencer\The Jon Spencer Blues Explosion - The Jon Spencer Blues Explosion (1992) [FLAC]\18 - Intro A.wav
Pre-gap length 0:00:00.64
Peak level 61.8 %
Track quality 100.0 %
Test CRC CD77AE17
Copy CRC CD77AE17
Copy OK
Track 19
Filename F:\EACRips\J Spencer\The Jon Spencer Blues Explosion - The Jon Spencer Blues Explosion (1992) [FLAC]\19 - Biological.wav
Peak level 73.0 %
Track quality 100.0 %
Test CRC 21704368
Copy CRC 21704368
Copy OK
Track 20
Filename F:\EACRips\J Spencer\The Jon Spencer Blues Explosion - The Jon Spencer Blues Explosion (1992) [FLAC]\20 - Water Main.wav
Peak level 80.0 %
Track quality 100.0 %
Test CRC B23E93A8
Copy CRC B23E93A8
Copy OK
No errors occured
End of status report

audiochecker

AUDIOCHECKER v2.0 beta (build 457) - by Dester - opdester@freemail.hu
~~~~~~~~~~~~~~~~~~~~~~~~~~~~~~~~~~
-=== DO NOT EDIT THIS FILE! ===-
Path: ...\The Jon Spencer Blues Explosion (1992)
01 -=- 01 - Write A Song.flac -=- CDDA (100%)
02 -=- 02 - I.E.V..flac -=- CDDA (100%)
03 -=- 03 - Exploder.flac -=- CDDA (100%)
04 -=- 04 - Rachel.flac -=- CDDA (100%)
05 -=- 05 - Chicken Walk.flac -=- CDDA (100%)
06 -=- 06 - White Tail.flac -=- CDDA (100%)
07 -=- 07 - '78 Style.flac -=- CDDA (100%)
08 -=- 08 - Changed.flac -=- CDDA (100%)
09 -=- 09 - What To Do.flac -=- CDDA (100%)
10 -=- 10 - Eye To Eye.flac -=- CDDA (100%)
11 -=- 11 - Eliza Jane.flac -=- CDDA (100%)
12 -=- 12 - History Of Sex.flac -=- CDDA (100%)
13 -=- 13 - Comeback.flac -=- CDDA (100%)
14 -=- 14 - Support-A-Man.flac -=- CDDA (100%)
15 -=- 15 - Maynard Ave..flac -=- CDDA (100%)
16 -=- 16 - Feeling Of Love.flac -=- CDDA (100%)
17 -=- 17 - Vacuum Of Loneliness.flac -=- CDDA (100%)
18 -=- 18 - Intro A.flac -=- CDDA (100%)
19 -=- 19 - Biological.flac -=- CDDA (100%)
20 -=- 20 - Water Main.flac -=- CDDA (100%)
Summary 100,00% CDDA
244545380

Cue

REM GENRE Rock
REM DATE 1992
REM DISCID 05098914
REM COMMENT "ExactAudioCopy v0.95b4"
PERFORMER "Jon Spencer Blues Explosion"
TITLE "Jon Spencer Blues Explosion"
FILE "01 - Write A Song.wav" WAVE
TRACK 01 AUDIO
TITLE "Write A Song"
PERFORMER "Jon Spencer Blues Explosion"
INDEX 01 00:00:00
TRACK 02 AUDIO
TITLE "I.E.V."
PERFORMER "Jon Spencer Blues Explosion"
INDEX 00 01:52:20
FILE "02 - I.E.V..wav" WAVE
INDEX 01 00:00:00
TRACK 03 AUDIO
TITLE "Exploder"
PERFORMER "Jon Spencer Blues Explosion"
INDEX 00 01:41:23
FILE "03 - Exploder.wav" WAVE
INDEX 01 00:00:00
TRACK 04 AUDIO
TITLE "Rachel"
PERFORMER "Jon Spencer Blues Explosion"
INDEX 00 01:58:60
FILE "04 - Rachel.wav" WAVE
INDEX 01 00:00:00
TRACK 05 AUDIO
TITLE "Chicken Walk"
PERFORMER "Jon Spencer Blues Explosion"
INDEX 00 02:25:10
FILE "05 - Chicken Walk.wav" WAVE
INDEX 01 00:00:00
TRACK 06 AUDIO
TITLE "White Tail"
PERFORMER "Jon Spencer Blues Explosion"
INDEX 00 02:52:58
FILE "06 - White Tail.wav" WAVE
INDEX 01 00:00:00
TRACK 07 AUDIO
TITLE "'78 Style"
PERFORMER "Jon Spencer Blues Explosion"
INDEX 00 02:26:17
FILE "07 - '78 Style.wav" WAVE
INDEX 01 00:00:00
FILE "08 - Changed.wav" WAVE
TRACK 08 AUDIO
TITLE "Changed"
PERFORMER "Jon Spencer Blues Explosion"
INDEX 01 00:00:00
TRACK 09 AUDIO
TITLE "What To Do"
PERFORMER "Jon Spencer Blues Explosion"
INDEX 00 01:02:17
FILE "09 - What To Do.wav" WAVE
INDEX 01 00:00:00
TRACK 10 AUDIO
TITLE "Eye To Eye"
PERFORMER "Jon Spencer Blues Explosion"
INDEX 00 02:07:35
FILE "10 - Eye To Eye.wav" WAVE
INDEX 01 00:00:00
TRACK 11 AUDIO
TITLE "Eliza Jane"
PERFORMER "Jon Spencer Blues Explosion"
INDEX 00 01:38:55
FILE "11 - Eliza Jane.wav" WAVE
INDEX 01 00:00:00
FILE "12 - History Of Sex.wav" WAVE
TRACK 12 AUDIO
TITLE "History Of Sex"
PERFORMER "Jon Spencer Blues Explosion"
INDEX 01 00:00:00
FILE "13 - Comeback.wav" WAVE
TRACK 13 AUDIO
TITLE "Comeback"
PERFORMER "Jon Spencer Blues Explosion"
INDEX 01 00:00:00
TRACK 14 AUDIO
TITLE "Support-A-Man"
PERFORMER "Jon Spencer Blues Explosion"
INDEX 00 03:11:55
FILE "14 - Support-A-Man.wav" WAVE
INDEX 01 00:00:00
FILE "15 - Maynard Ave..wav" WAVE
TRACK 15 AUDIO
TITLE "Maynard Ave."
PERFORMER "Jon Spencer Blues Explosion"
INDEX 01 00:00:00
TRACK 16 AUDIO
TITLE "Feeling Of Love"
PERFORMER "Jon Spencer Blues Explosion"
INDEX 00 01:52:65
FILE "16 - Feeling Of Love.wav" WAVE
INDEX 01 00:00:00
TRACK 17 AUDIO
TITLE "Vacuum Of Loneliness"
PERFORMER "Jon Spencer Blues Explosion"
INDEX 00 01:45:50
FILE "17 - Vacuum Of Loneliness.wav" WAVE
INDEX 01 00:00:00
TRACK 18 AUDIO
TITLE "Intro A"
PERFORMER "Jon Spencer Blues Explosion"
INDEX 00 03:01:40
FILE "18 - Intro A.wav" WAVE
INDEX 01 00:00:00
FILE "19 - Biological.wav" WAVE
TRACK 19 AUDIO
TITLE "Biological"
PERFORMER "Jon Spencer Blues Explosion"
INDEX 01 00:00:00
FILE "20 - Water Main.wav" WAVE
TRACK 20 AUDIO
TITLE "Water Main"
PERFORMER "Jon Spencer Blues Explosion"
INDEX 01 00:00:00

1993 - Extra Width

Label: Matador
Catalog#: OLE 052-2
Продолжительность: 00:37:40
Трэклист:
01. Afro
02. History of Lies
03. Back Slider
04. Soul Letter
05. Soul Typecast
06. Pant Leg
07. Hey Mom
08. Big Road
09. Train #2
10. Inside the World of the Blues Explosion
11. The World of Sex

Exact Audio Copy

Exact Audio Copy V0.99 prebeta 3 from 28. July 2007
EAC extraction logfile from 17. December 2007, 0:00
The Jon Spencer Blues Explosion / Extra Width
Used drive : PIONEER DVD-RW DVR-111D Adapter: 0 ID: 2
Read mode : Secure
Utilize accurate stream : Yes
Defeat audio cache : Yes
Make use of C2 pointers : No
Read offset correction : 48
Overread into Lead-In and Lead-Out : No
Fill up missing offset samples with silence : Yes
Delete leading and trailing silent blocks : No
Null samples used in CRC calculations : Yes
Used interface : Installed external ASPI interface
Gap handling : Appended to previous track
Used output format : User Defined Encoder
Selected bitrate : 224 kBit/s
Quality : High
Add ID3 tag : No
Command line compressor : C:\flac-1.1.3-win\bin\flac.exe
Additional command line options : -8 -A tukey(0.25) -A gauss(0.1875) -b 4096 -V -T "artist=%a" -T "title=%t" -T "album=%g" -T "date=%y" -T "tracknumber=%n" -T "genre=%m" %s --sector-align
TOC of the extracted CD
Track | Start | Length | Start sector | End sector
---------------------------------------------------------
1 | 0:00.32 | 2:55.48 | 32 | 13204
2 | 2:56.05 | 3:42.50 | 13205 | 29904
3 | 6:38.55 | 3:00.00 | 29905 | 43404
4 | 9:38.55 | 2:49.17 | 43405 | 56096
5 | 12:27.72 | 6:06.68 | 56097 | 83614
6 | 18:34.65 | 2:27.30 | 83615 | 94669
7 | 21:02.20 | 3:00.67 | 94670 | 108236
8 | 24:03.12 | 3:59.23 | 108237 | 126184
9 | 28:02.35 | 2:25.05 | 126185 | 137064
10 | 30:27.40 | 3:27.27 | 137065 | 152616
11 | 33:54.67 | 3:46.05 | 152617 | 169571
Track 1
Filename C:\Cd Burner\Finalized\Cd1\01 - Afro.wav
Pre-gap length 0:00:02.32
Peak level 99.8 %
Track quality 99.9 %
Test CRC B1649D8A
Copy CRC B1649D8A
Cannot be verified as accurate (confidence 3) [68AA916B], AccurateRip returned [D6096E6D]
Copy OK
Track 2
Filename C:\Cd Burner\Finalized\Cd1\02 - History of Lies.wav
Pre-gap length 0:00:00.02
Peak level 99.8 %
Track quality 100.0 %
Test CRC 2904D11D
Copy CRC 2904D11D
Cannot be verified as accurate (confidence 3) [10786507], AccurateRip returned [DC640A89]
Copy OK
Track 3
Filename C:\Cd Burner\Finalized\Cd1\03 - Back Slider.wav
Pre-gap length 0:00:03.07
Peak level 99.8 %
Track quality 99.9 %
Test CRC EE6622B0
Copy CRC EE6622B0
Cannot be verified as accurate (confidence 3) [C4366EF9], AccurateRip returned [E80E6311]
Copy OK
Track 4
Filename C:\Cd Burner\Finalized\Cd1\04 - Soul Letter.wav
Pre-gap length 0:00:02.47
Peak level 97.7 %
Track quality 100.0 %
Test CRC 5C49DF66
Copy CRC 5C49DF66
Cannot be verified as accurate (confidence 3) [50519873], AccurateRip returned [D09069EB]
Copy OK
Track 5
Filename C:\Cd Burner\Finalized\Cd1\05 - Soul Typecast.wav
Pre-gap length 0:00:04.12
Peak level 97.5 %
Track quality 99.9 %
Test CRC AA7F9FCF
Copy CRC AA7F9FCF
Cannot be verified as accurate (confidence 3) [F6FB6501], AccurateRip returned [F882BDD9]
Copy OK
Track 6
Filename C:\Cd Burner\Finalized\Cd1\06 - Pant Leg.wav
Pre-gap length 0:00:01.32
Peak level 97.7 %
Track quality 99.9 %
Test CRC 4A418F2A
Copy CRC 4A418F2A
Cannot be verified as accurate (confidence 3) [43238E98], AccurateRip returned [93147338]
Copy OK
Track 7
Filename C:\Cd Burner\Finalized\Cd1\07 - Hey Mom.wav
Pre-gap length 0:00:00.02
Peak level 87.3 %
Track quality 100.0 %
Test CRC C3B56358
Copy CRC C3B56358
Cannot be verified as accurate (confidence 3) [00FF8C01], AccurateRip returned [4C837BD1]
Copy OK
Track 8
Filename C:\Cd Burner\Finalized\Cd1\08 - Big Road.wav
Pre-gap length 0:00:03.19
Peak level 97.6 %
Track quality 100.0 %
Test CRC 325E5CD2
Copy CRC 325E5CD2
Cannot be verified as accurate (confidence 3) [E1C3DF54], AccurateRip returned [B0655574]
Copy OK
Track 9
Filename C:\Cd Burner\Finalized\Cd1\09 - Train #2.wav
Pre-gap length 0:00:00.15
Peak level 97.6 %
Track quality 100.0 %
Test CRC C2F3298E
Copy CRC C2F3298E
Cannot be verified as accurate (confidence 3) [EC5D8248], AccurateRip returned [53A9C406]
Copy OK
Track 10
Filename C:\Cd Burner\Finalized\Cd1\10 - Inside the World of the Blues Explosion.wav
Pre-gap length 0:00:00.02
Peak level 97.7 %
Track quality 100.0 %
Test CRC B55D65D2
Copy CRC B55D65D2
Cannot be verified as accurate (confidence 3) [971D06E5], AccurateRip returned [14A70B0B]
Copy OK
Track 11
Filename C:\Cd Burner\Finalized\Cd1\11 - The World of Sex.wav
Pre-gap length 0:00:00.47
Peak level 97.6 %
Track quality 100.0 %
Test CRC AA47059A
Copy CRC AA47059A
Cannot be verified as accurate (confidence 3) [3110FEC0], AccurateRip returned [79EA6060]
Copy OK
No tracks could be verified as accurate
You may have a different pressing from the one(s) in the database
No errors occurred
End of status report

audiochecker

AUDIOCHECKER v2.0 beta (build 457) - by Dester - opdester@freemail.hu
~~~~~~~~~~~~~~~~~~~~~~~~~~~~~~~~~~
-=== DO NOT EDIT THIS FILE! ===-
Path: ...\The Jon Spencer Blues Explosion - 1993 - Extra Width
01 -=- 01 - Afro.flac -=- CDDA (100%)
02 -=- 02 - History of Lies.flac -=- CDDA (100%)
03 -=- 03 - Back Slider.flac -=- CDDA (100%)
04 -=- 04 - Soul Letter.flac -=- CDDA (100%)
05 -=- 05 - Soul Typecast.flac -=- CDDA (100%)
06 -=- 06 - Pant Leg.flac -=- CDDA (100%)
07 -=- 07 - Hey Mom.flac -=- CDDA (100%)
08 -=- 08 - Big Road.flac -=- CDDA (99%)
09 -=- 09 - Train #2.flac -=- CDDA (100%)
10 -=- 10 - Inside the World of the Blues Explosion.flac -=- CDDA (100%)
11 -=- 11 - The World of Sex.flac -=- CDDA (100%)
Summary 99,91% CDDA
156300100

Cue

REM GENRE Rock
REM DATE 1993
REM DISCID 8D08D40B
REM COMMENT "ExactAudioCopy v0.99pb3"
PERFORMER "Jon Spencer Blues Explosion"
TITLE "Extra Width"
FILE "01 - Afro.wav" WAVE
TRACK 01 AUDIO
TITLE "Afro"
PERFORMER "Jon Spencer Blues Explosion"
PREGAP 00:00:32
INDEX 01 00:00:00
TRACK 02 AUDIO
TITLE "History of Lies"
PERFORMER "Jon Spencer Blues Explosion"
INDEX 00 02:55:46
FILE "02 - History of Lies.wav" WAVE
INDEX 01 00:00:00
TRACK 03 AUDIO
TITLE "Back Slider"
PERFORMER "Jon Spencer Blues Explosion"
INDEX 00 03:39:43
FILE "03 - Back Slider.wav" WAVE
INDEX 01 00:00:00
TRACK 04 AUDIO
TITLE "Soul Letter"
PERFORMER "Jon Spencer Blues Explosion"
INDEX 00 02:57:28
FILE "04 - Soul Letter.wav" WAVE
INDEX 01 00:00:00
TRACK 05 AUDIO
TITLE "Soul Typecast"
PERFORMER "Jon Spencer Blues Explosion"
INDEX 00 02:45:05
FILE "05 - Soul Typecast.wav" WAVE
INDEX 01 00:00:00
TRACK 06 AUDIO
TITLE "Pant Leg"
PERFORMER "Jon Spencer Blues Explosion"
INDEX 00 06:05:36
FILE "06 - Pant Leg.wav" WAVE
INDEX 01 00:00:00
TRACK 07 AUDIO
TITLE "Hey Mom"
PERFORMER "Jon Spencer Blues Explosion"
INDEX 00 02:27:28
FILE "07 - Hey Mom.wav" WAVE
INDEX 01 00:00:00
TRACK 08 AUDIO
TITLE "Big Road"
PERFORMER "Jon Spencer Blues Explosion"
INDEX 00 02:57:48
FILE "08 - Big Road.wav" WAVE
INDEX 01 00:00:00
TRACK 09 AUDIO
TITLE "Train #2"
PERFORMER "Jon Spencer Blues Explosion"
INDEX 00 03:59:08
FILE "09 - Train #2.wav" WAVE
INDEX 01 00:00:00
TRACK 10 AUDIO
TITLE "Inside the World of the Blues Explosion"
PERFORMER "Jon Spencer Blues Explosion"
INDEX 00 02:25:03
FILE "10 - Inside the World of the Blues Explosion.wav" WAVE
INDEX 01 00:00:00
TRACK 11 AUDIO
TITLE "The World of Sex"
PERFORMER "Jon Spencer Blues Explosion"
INDEX 00 03:26:55
FILE "11 - The World of Sex.wav" WAVE
INDEX 01 00:00:00

1994 - Orange

Label: Matador
Catalog#: OLE 105-2
Продолжительность: 01:01:51
Трэклист:
01 Bellbottoms 5:18
02 Ditch 2:35
03 Dang 2:00
04 Very Rare 3:05
05 Sweat 3:06
06 Cowboy 2:58
07 Orange 2:59
08 Brenda 2:57
09 Dissect 2:40
10 Blues X Man 3:33
11 Full Grown 3:20
12 Flavor 6:16
13 Greyhound 4:04
14 Bellbottoms (Old Rascal Mix) (Japan Bonus)
15 Flavor (Remix-Part 1 & 2) (Japan Bonus)

Exact Audio Copy

[Exact Audio Copy V0.99 prebeta 5 from 4. May 2009
EAC extraction logfile from 25. November 2009, 16:46
The Jon Spencer Blues Explosion / Orange (1994)
Used drive : ASUS DRW-2014L1T Adapter: 3 ID: 0
Read mode : Secure
Utilize accurate stream : Yes
Defeat audio cache : Yes
Make use of C2 pointers : No
Read offset correction : 6
Overread into Lead-In and Lead-Out : No
Fill up missing offset samples with silence : Yes
Delete leading and trailing silent blocks : No
Null samples used in CRC calculations : Yes
Used interface : Native Win32 interface for Win NT & 2000
Gap handling : Appended to previous track
Used output format : User Defined Encoder
Selected bitrate : 768 kBit/s
Quality : High
Add ID3 tag : No
Command line compressor : C:\Program Files (x86)\Exact Audio Copy\FLAC\FLAC.EXE
Additional command line options : -6 -V -T "ARTIST=%a" -T "TITLE=%t" -T "ALBUM=%g" -T "DATE=%y" -T "TRACKNUMBER=%n" -T "GENRE=%m" -T "COMMENT=%e" %s -o %d
TOC of the extracted CD
Track | Start | Length | Start sector | End sector
---------------------------------------------------------
1 | 0:00.00 | 5:17.70 | 0 | 23844
2 | 5:17.70 | 2:34.73 | 23845 | 35467
3 | 7:52.68 | 1:59.65 | 35468 | 44457
4 | 9:52.58 | 3:05.15 | 44458 | 58347
5 | 12:57.73 | 3:06.07 | 58348 | 72304
6 | 16:04.05 | 2:57.70 | 72305 | 85649
7 | 19:02.00 | 2:59.25 | 85650 | 99099
8 | 22:01.25 | 2:56.60 | 99100 | 112359
9 | 24:58.10 | 2:39.50 | 112360 | 124334
10 | 27:37.60 | 3:33.13 | 124335 | 140322
11 | 31:10.73 | 3:19.40 | 140323 | 155287
12 | 34:30.38 | 6:16.20 | 155288 | 183507
13 | 40:46.58 | 4:06.32 | 183508 | 201989
14 | 44:53.15 | 8:22.00 | 201990 | 239639
15 | 53:15.15 | 8:36.38 | 239640 | 278377
Track 1
Filename C:\Users\Matt\Music\The Jon Spencer Blues Explosion\Orange (1994)\01 Bellbottoms.wav
Pre-gap length 0:00:02.00
Peak level 97.7 %
Track quality 100.0 %
Test CRC E9C2D9EB
Copy CRC E9C2D9EB
Track not present in AccurateRip database
Copy OK
Track 2
Filename C:\Users\Matt\Music\The Jon Spencer Blues Explosion\Orange (1994)\02 Ditch.wav
Peak level 92.6 %
Track quality 100.0 %
Test CRC 08C20A84
Copy CRC 08C20A84
Track not present in AccurateRip database
Copy OK
Track 3
Filename C:\Users\Matt\Music\The Jon Spencer Blues Explosion\Orange (1994)\03 Dang.wav
Peak level 92.2 %
Track quality 99.9 %
Test CRC 9C98DDFD
Copy CRC 9C98DDFD
Track not present in AccurateRip database
Copy OK
Track 4
Filename C:\Users\Matt\Music\The Jon Spencer Blues Explosion\Orange (1994)\04 Very Rare.wav
Pre-gap length 0:00:05.97
Peak level 94.7 %
Track quality 100.0 %
Test CRC A6D91C1D
Copy CRC A6D91C1D
Track not present in AccurateRip database
Copy OK
Track 5
Filename C:\Users\Matt\Music\The Jon Spencer Blues Explosion\Orange (1994)\05 Sweat.wav
Pre-gap length 0:00:00.64
Peak level 93.2 %
Track quality 100.0 %
Test CRC E309B754
Copy CRC E309B754
Track not present in AccurateRip database
Copy OK
Track 6
Filename C:\Users\Matt\Music\The Jon Spencer Blues Explosion\Orange (1994)\06 Cowboy.wav
Pre-gap length 0:00:03.36
Peak level 95.0 %
Track quality 100.0 %
Test CRC 6401F3CC
Copy CRC 6401F3CC
Track not present in AccurateRip database
Copy OK
Track 7
Filename C:\Users\Matt\Music\The Jon Spencer Blues Explosion\Orange (1994)\07 Orange.wav
Pre-gap length 0:00:03.16
Peak level 92.7 %
Track quality 99.9 %
Test CRC 1C5D52C3
Copy CRC 1C5D52C3
Track not present in AccurateRip database
Copy OK
Track 8
Filename C:\Users\Matt\Music\The Jon Spencer Blues Explosion\Orange (1994)\08 Brenda.wav
Pre-gap length 0:00:00.86
Peak level 94.5 %
Track quality 100.0 %
Test CRC 2A70B1E6
Copy CRC 2A70B1E6
Track not present in AccurateRip database
Copy OK
Track 9
Filename C:\Users\Matt\Music\The Jon Spencer Blues Explosion\Orange (1994)\09 Dissect.wav
Pre-gap length 0:00:00.36
Peak level 94.7 %
Track quality 100.0 %
Test CRC 2636B4F2
Copy CRC 2636B4F2
Track not present in AccurateRip database
Copy OK
Track 10
Filename C:\Users\Matt\Music\The Jon Spencer Blues Explosion\Orange (1994)\10 Blues X Man.wav
Pre-gap length 0:00:02.33
Peak level 95.2 %
Track quality 99.9 %
Test CRC 5DEE8130
Copy CRC 5DEE8130
Track not present in AccurateRip database
Copy OK
Track 11
Filename C:\Users\Matt\Music\The Jon Spencer Blues Explosion\Orange (1994)\11 Full Grown.wav
Peak level 94.8 %
Track quality 100.0 %
Test CRC 0E40E1FE
Copy CRC 0E40E1FE
Track not present in AccurateRip database
Copy OK
Track 12
Filename C:\Users\Matt\Music\The Jon Spencer Blues Explosion\Orange (1994)\12 Flavor.wav
Pre-gap length 0:00:01.64
Peak level 94.5 %
Track quality 100.0 %
Test CRC A042C7B7
Copy CRC A042C7B7
Track not present in AccurateRip database
Copy OK
Track 13
Filename C:\Users\Matt\Music\The Jon Spencer Blues Explosion\Orange (1994)\13 Greyhound.wav
Pre-gap length 0:00:01.10
Peak level 96.0 %
Track quality 100.0 %
Test CRC 395253AD
Copy CRC 395253AD
Track not present in AccurateRip database
Copy OK
Track 14
Filename C:\Users\Matt\Music\The Jon Spencer Blues Explosion\Orange (1994)\14 Bellbottoms (Old Rascal Mix) (Japan Bonus).wav
Pre-gap length 0:00:02.22
Peak level 98.4 %
Track quality 100.0 %
Test CRC 37AA989E
Copy CRC 37AA989E
Track not present in AccurateRip database
Copy OK
Track 15
Filename C:\Users\Matt\Music\The Jon Spencer Blues Explosion\Orange (1994)\15 Flavor (Remix-Part 1 & 2) (Japan Bonus).wav
Pre-gap length 0:00:03.36
Peak level 98.4 %
Track quality 100.0 %
Test CRC E49E804F
Copy CRC E49E804F
Track not present in AccurateRip database
Copy OK
None of the tracks are present in the AccurateRip database
No errors occurred
End of status report

audiochecker

AUDIOCHECKER v2.0 beta (build 457) - by Dester - opdester@freemail.hu
~~~~~~~~~~~~~~~~~~~~~~~~~~~~~~~~~~
-=== DO NOT EDIT THIS FILE! ===-
Path: ...\The Jon Spencer Blues Explosion - 1994 - Orange
01 -=- 01 Bellbottoms.flac -=- CDDA (100%)
02 -=- 02 Ditch.flac -=- CDDA (100%)
03 -=- 03 Dang.flac -=- CDDA (100%)
04 -=- 04 Very Rare.flac -=- CDDA (100%)
05 -=- 05 Sweat.flac -=- CDDA (100%)
06 -=- 06 Cowboy.flac -=- CDDA (100%)
07 -=- 07 Orange.flac -=- CDDA (100%)
08 -=- 08 Brenda.flac -=- CDDA (100%)
09 -=- 09 Dissect.flac -=- CDDA (99%)
10 -=- 10 Blues X Man.flac -=- CDDA (100%)
11 -=- 11 Full Grown.flac -=- CDDA (100%)
12 -=- 12 Flavor.flac -=- CDDA (100%)
13 -=- 13 Greyhound.flac -=- CDDA (100%)
14 -=- 14 Bellbottoms (Old Rascal Mix) (Japan Bonus).flac -=- CDDA (100%)
15 -=- 15 Flavor (Remix-Part 1 & 2) (Japan Bonus).flac -=- CDDA (100%)
Summary 99,93% CDDA
86240996

Cue

REM GENRE Rock
REM DATE 1994
REM DISCID E30E7F0F
REM COMMENT "ExactAudioCopy v0.99pb5"
PERFORMER "The Jon Spencer Blues Explosion"
TITLE "Orange (1994)"
FILE "Range.wav" WAVE
TRACK 01 AUDIO
TITLE "Bellbottoms"
PERFORMER "The Jon Spencer Blues Explosion"
INDEX 01 00:00:00
TRACK 02 AUDIO
TITLE "Ditch"
PERFORMER "The Jon Spencer Blues Explosion"
INDEX 01 05:17:70
TRACK 03 AUDIO
TITLE "Dang"
PERFORMER "The Jon Spencer Blues Explosion"
INDEX 01 07:52:68
TRACK 04 AUDIO
TITLE "Very Rare"
PERFORMER "The Jon Spencer Blues Explosion"
INDEX 00 09:46:60
INDEX 01 09:52:58
TRACK 05 AUDIO
TITLE "Sweat"
PERFORMER "The Jon Spencer Blues Explosion"
INDEX 00 12:57:25
INDEX 01 12:57:73
TRACK 06 AUDIO
TITLE "Cowboy"
PERFORMER "The Jon Spencer Blues Explosion"
INDEX 00 16:00:53
INDEX 01 16:04:05
TRACK 07 AUDIO
TITLE "Orange"
PERFORMER "The Jon Spencer Blues Explosion"
INDEX 00 18:58:63
INDEX 01 19:02:00
TRACK 08 AUDIO
TITLE "Brenda"
PERFORMER "The Jon Spencer Blues Explosion"
INDEX 00 22:00:35
INDEX 01 22:01:25
TRACK 09 AUDIO
TITLE "Dissect"
PERFORMER "The Jon Spencer Blues Explosion"
INDEX 00 24:57:58
INDEX 01 24:58:10
TRACK 10 AUDIO
TITLE "Blues X Man"
PERFORMER "The Jon Spencer Blues Explosion"
INDEX 00 27:35:35
INDEX 01 27:37:60
TRACK 11 AUDIO
TITLE "Full Grown"
PERFORMER "The Jon Spencer Blues Explosion"
INDEX 01 31:10:73
TRACK 12 AUDIO
TITLE "Flavor"
PERFORMER "The Jon Spencer Blues Explosion"
INDEX 00 34:28:65
INDEX 01 34:30:38
TRACK 13 AUDIO
TITLE "Greyhound"
PERFORMER "The Jon Spencer Blues Explosion"
INDEX 00 40:45:50
INDEX 01 40:46:58
TRACK 14 AUDIO
TITLE "Bellbottoms (Old Rascal Mix) (Japan Bonus)"
PERFORMER "The Jon Spencer Blues Explosion"
INDEX 00 44:50:73
INDEX 01 44:53:15
TRACK 15 AUDIO
TITLE "Flavor (Remix-Part 1 & 2) (Japan Bonus)"
PERFORMER "The Jon Spencer Blues Explosion"
INDEX 00 53:11:63
INDEX 01 53:15:15

1996 - Now I Got Worry

Label: Matador, Capitol Records
Catalog#: OLE 193-2, CDP 7243 8 53553 2 5
Продолжительность: 00:45:15
Трэклист:
1 Skunk 2:39
2 Identify 1:08
3 Wail 3:09
4 Fuck Shit Up 3:08
Lead Vocals - Judah Bauer
Written-By - Dub Narcotic*

5 2Kindsa Love 3:02
Percussion - Thermos Malling
6 Love All Of Me 1:58
7 Chicken Dog 3:01
Piano [Clavinet] - Mark Ramos-Nishita
Vocals [Bark/crow/sang] - Rufus Thomas
Written-By - Explosion* , Thomas*

8 Rocketship 3:14
9 Dynamite Lover 2:58
10 Hot Shot 2:09
11 Can't Stop 2:53
Piano - Mark Ramos-Nishita
Written-By - Explosion* , Nishita*

12 Firefly Child 3:24
Organ - Mark Ramos-Nishita
Saxophone - Justin Berry

13 Eyeballin 3:17
14 R.L. Got Soul 4:05
15 Get Over Here 2:09
16 Sticky 2:54

Exact Audio Copy

Exact Audio Copy V0.99 prebeta 4 from 23. January 2008
EAC extraction logfile from 3. May 2009, 11:24
Jon Spencer Blues Explosion / Now I Got Worry
Used drive : TSSTcorpCD/DVDW SH-W162L Adapter: 0 ID: 1
Read mode : Secure
Utilize accurate stream : Yes
Defeat audio cache : Yes
Make use of C2 pointers : No
Read offset correction : 6
Overread into Lead-In and Lead-Out : No
Fill up missing offset samples with silence : Yes
Delete leading and trailing silent blocks : No
Null samples used in CRC calculations : Yes
Used interface : Native Win32 interface for Win NT & 2000
Gap handling : Appended to previous track
Used output format : User Defined Encoder
Selected bitrate : 768 kBit/s
Quality : High
Add ID3 tag : No
Command line compressor : C:\Program Files\Exact Audio Copy\FLAC\FLAC.EXE
Additional command line options : -V -8 -T "artist=%a" -T "title=%t" -T "album=%g" -T "date=%y" -T "tracknumber=%n" -T "genre=%m" %s
TOC of the extracted CD
Track | Start | Length | Start sector | End sector
---------------------------------------------------------
1 | 0:00.00 | 2:39.22 | 0 | 11946
2 | 2:39.22 | 1:08.15 | 11947 | 17061
3 | 3:47.37 | 3:09.10 | 17062 | 31246
4 | 6:56.47 | 3:08.63 | 31247 | 45409
5 | 10:05.35 | 3:02.72 | 45410 | 59131
6 | 13:08.32 | 1:58.15 | 59132 | 67996
7 | 15:06.47 | 3:01.18 | 67997 | 81589
8 | 18:07.65 | 3:14.72 | 81590 | 96211
9 | 21:22.62 | 2:58.33 | 96212 | 109594
10 | 24:21.20 | 2:09.25 | 109595 | 119294
11 | 26:30.45 | 2:53.25 | 119295 | 132294
12 | 29:23.70 | 3:24.25 | 132295 | 147619
13 | 32:48.20 | 3:18.57 | 147620 | 162526
14 | 36:07.02 | 4:04.25 | 162527 | 180851
15 | 40:11.27 | 2:09.25 | 180852 | 190551
16 | 42:20.52 | 2:55.00 | 190552 | 203676
Track 1
Filename D:\EAC Rips\Jon Spencer Blues Explosion - Now I Got Worry [FLAC]\01 Skunk.wav
Pre-gap length 0:00:02.00
Peak level 99.9 %
Track quality 100.0 %
Test CRC 5923FAD8
Copy CRC 5923FAD8
Accurately ripped (confidence 27) [B06903A5]
Copy OK
Track 2
Filename D:\EAC Rips\Jon Spencer Blues Explosion - Now I Got Worry [FLAC]\02 Identify.wav
Pre-gap length 0:00:01.02
Peak level 97.6 %
Track quality 100.0 %
Test CRC 274B69D4
Copy CRC 274B69D4
Accurately ripped (confidence 26) [30E3C4D1]
Copy OK
Track 3
Filename D:\EAC Rips\Jon Spencer Blues Explosion - Now I Got Worry [FLAC]\03 Wail.wav
Peak level 99.9 %
Track quality 100.0 %
Test CRC F201269B
Copy CRC F201269B
Accurately ripped (confidence 27) [9D877822]
Copy OK
Track 4
Filename D:\EAC Rips\Jon Spencer Blues Explosion - Now I Got Worry [FLAC]\04 Fuck Shit Up.wav
Peak level 99.9 %
Track quality 100.0 %
Test CRC 8D95E53C
Copy CRC 8D95E53C
Accurately ripped (confidence 27) [A1AF994B]
Copy OK
Track 5
Filename D:\EAC Rips\Jon Spencer Blues Explosion - Now I Got Worry [FLAC]\05 2Kindsa Love.wav
Pre-gap length 0:00:00.33
Peak level 97.7 %
Track quality 99.9 %
Test CRC 4537B6B6
Copy CRC 4537B6B6
Accurately ripped (confidence 26) [04543AE5]
Copy OK
Track 6
Filename D:\EAC Rips\Jon Spencer Blues Explosion - Now I Got Worry [FLAC]\06 Love All Of Me.wav
Peak level 99.9 %
Track quality 99.9 %
Test CRC 489C1F4F
Copy CRC 489C1F4F
Accurately ripped (confidence 26) [631C4835]
Copy OK
Track 7
Filename D:\EAC Rips\Jon Spencer Blues Explosion - Now I Got Worry [FLAC]\07 Chicken Dog.wav
Peak level 97.6 %
Track quality 100.0 %
Test CRC 42E11650
Copy CRC 42E11650
Accurately ripped (confidence 25) [57F0BC1E]
Copy OK
Track 8
Filename D:\EAC Rips\Jon Spencer Blues Explosion - Now I Got Worry [FLAC]\08 Rocketship.wav
Pre-gap length 0:00:01.53
Peak level 99.9 %
Track quality 100.0 %
Test CRC 0EFBECC3
Copy CRC 0EFBECC3
Accurately ripped (confidence 26) [32E10DE7]
Copy OK
Track 9
Filename D:\EAC Rips\Jon Spencer Blues Explosion - Now I Got Worry [FLAC]\09 Dynamite Lover.wav
Peak level 99.9 %
Track quality 100.0 %
Test CRC 0FC01FD9
Copy CRC 0FC01FD9
Accurately ripped (confidence 25) [CC9FB603]
Copy OK
Track 10
Filename D:\EAC Rips\Jon Spencer Blues Explosion - Now I Got Worry [FLAC]\10 Hot Shot.wav
Peak level 97.7 %
Track quality 100.0 %
Test CRC 47A5166E
Copy CRC 47A5166E
Accurately ripped (confidence 25) [B33539D3]
Copy OK
Track 11
Filename D:\EAC Rips\Jon Spencer Blues Explosion - Now I Got Worry [FLAC]\11 Can't Stop.wav
Peak level 95.4 %
Track quality 99.9 %
Test CRC 6E93EC2F
Copy CRC 6E93EC2F
Accurately ripped (confidence 25) [D0427005]
Copy OK
Track 12
Filename D:\EAC Rips\Jon Spencer Blues Explosion - Now I Got Worry [FLAC]\12 Firefly Child.wav
Peak level 97.7 %
Track quality 100.0 %
Test CRC D6AE4564
Copy CRC D6AE4564
Accurately ripped (confidence 26) [625520F7]
Copy OK
Track 13
Filename D:\EAC Rips\Jon Spencer Blues Explosion - Now I Got Worry [FLAC]\13 Eyeballin.wav
Peak level 99.9 %
Track quality 100.0 %
Test CRC 1D92DFE0
Copy CRC 1D92DFE0
Accurately ripped (confidence 26) [A4334522]
Copy OK
Track 14
Filename D:\EAC Rips\Jon Spencer Blues Explosion - Now I Got Worry [FLAC]\14 R. L. Got Soul.wav
Peak level 97.7 %
Track quality 100.0 %
Test CRC 1BB802C8
Copy CRC 1BB802C8
Accurately ripped (confidence 26) [E03B8054]
Copy OK
Track 15
Filename D:\EAC Rips\Jon Spencer Blues Explosion - Now I Got Worry [FLAC]\15 Get Over Here.wav
Peak level 89.0 %
Track quality 100.0 %
Test CRC C6C74202
Copy CRC C6C74202
Accurately ripped (confidence 26) [BCB2A606]
Copy OK
Track 16
Filename D:\EAC Rips\Jon Spencer Blues Explosion - Now I Got Worry [FLAC]\16 Sticky.wav
Pre-gap length 0:00:05.26
Peak level 99.9 %
Track quality 99.9 %
Test CRC 54E95414
Copy CRC 54E95414
Accurately ripped (confidence 26) [88D344DD]
Copy OK
All tracks accurately ripped
No errors occurred
End of status report

audiochecker

AUDIOCHECKER v2.0 beta (build 457) - by Dester - opdester@freemail.hu
~~~~~~~~~~~~~~~~~~~~~~~~~~~~~~~~~~
-=== DO NOT EDIT THIS FILE! ===-
Path: ...\The Jon Spencer Blues Explosion - 1996 - Now I Got Worry
01 -=- 01 Skunk.flac -=- CDDA (99%)
02 -=- 02 Identify.flac -=- CDDA (100%)
03 -=- 03 Wail.flac -=- CDDA (100%)
04 -=- 04 Fuck Shit Up.flac -=- CDDA (100%)
05 -=- 05 2Kindsa Love.flac -=- CDDA (100%)
06 -=- 06 Love All Of Me.flac -=- CDDA (100%)
07 -=- 07 Chicken Dog.flac -=- CDDA (100%)
08 -=- 08 Rocketship.flac -=- CDDA (100%)
09 -=- 09 Dynamite Lover.flac -=- CDDA (100%)
10 -=- 10 Hot Shot.flac -=- CDDA (100%)
11 -=- 11 Can't Stop.flac -=- CDDA (100%)
12 -=- 12 Firefly Child.flac -=- CDDA (100%)
13 -=- 13 Eyeballin.flac -=- CDDA (100%)
14 -=- 14 R. L. Got Soul.flac -=- CDDA (100%)
15 -=- 15 Get Over Here.flac -=- CDDA (100%)
16 -=- 16 Sticky.flac -=- CDDA (100%)
Summary 99,94% CDDA
159436756

Cue

REM GENRE Rock
REM DATE 1996
REM DISCID DF0A9B10
REM COMMENT "ExactAudioCopy v0.99pb4"
FILE "Jon Spencer Blues Explosion - Now I Got Worry [FLAC]\01 Skunk.wav" WAVE
TRACK 01 AUDIO
INDEX 01 00:00:00
TRACK 02 AUDIO
INDEX 00 02:38:20
FILE "Jon Spencer Blues Explosion - Now I Got Worry [FLAC]\02 Identify.wav" WAVE
INDEX 01 00:00:00
FILE "Jon Spencer Blues Explosion - Now I Got Worry [FLAC]\03 Wail.wav" WAVE
TRACK 03 AUDIO
INDEX 01 00:00:00
FILE "Jon Spencer Blues Explosion - Now I Got Worry [FLAC]\04 Fuck Shit Up.wav" WAVE
TRACK 04 AUDIO
INDEX 01 00:00:00
TRACK 05 AUDIO
INDEX 00 03:08:38
FILE "Jon Spencer Blues Explosion - Now I Got Worry [FLAC]\05 2Kindsa Love.wav" WAVE
INDEX 01 00:00:00
FILE "Jon Spencer Blues Explosion - Now I Got Worry [FLAC]\06 Love All Of Me.wav" WAVE
TRACK 06 AUDIO
INDEX 01 00:00:00
FILE "Jon Spencer Blues Explosion - Now I Got Worry [FLAC]\07 Chicken Dog.wav" WAVE
TRACK 07 AUDIO
INDEX 01 00:00:00
TRACK 08 AUDIO
INDEX 00 02:59:53
FILE "Jon Spencer Blues Explosion - Now I Got Worry [FLAC]\08 Rocketship.wav" WAVE
INDEX 01 00:00:00
FILE "Jon Spencer Blues Explosion - Now I Got Worry [FLAC]\09 Dynamite Lover.wav" WAVE
TRACK 09 AUDIO
INDEX 01 00:00:00
FILE "Jon Spencer Blues Explosion - Now I Got Worry [FLAC]\10 Hot Shot.wav" WAVE
TRACK 10 AUDIO
INDEX 01 00:00:00
FILE "Jon Spencer Blues Explosion - Now I Got Worry [FLAC]\11 Can't Stop.wav" WAVE
TRACK 11 AUDIO
INDEX 01 00:00:00
FILE "Jon Spencer Blues Explosion - Now I Got Worry [FLAC]\12 Firefly Child.wav" WAVE
TRACK 12 AUDIO
INDEX 01 00:00:00
FILE "Jon Spencer Blues Explosion - Now I Got Worry [FLAC]\13 Eyeballin.wav" WAVE
TRACK 13 AUDIO
INDEX 01 00:00:00
FILE "Jon Spencer Blues Explosion - Now I Got Worry [FLAC]\14 R. L. Got Soul.wav" WAVE
TRACK 14 AUDIO
INDEX 01 00:00:00
FILE "Jon Spencer Blues Explosion - Now I Got Worry [FLAC]\15 Get Over Here.wav" WAVE
TRACK 15 AUDIO
INDEX 01 00:00:00
TRACK 16 AUDIO
INDEX 00 02:04:05
FILE "Jon Spencer Blues Explosion - Now I Got Worry [FLAC]\16 Sticky.wav" WAVE
INDEX 01 00:00:00

1998 - Xtra-Acme USA

Label: Matador
Catalog#: OLE 376-2
Продолжительность: 01:14:07
Трэклист:
01. Wait a Minute (Moby's Mix) 3:48
02. Get Down Lover 3:47
03. Confused 3:04
04. Magical Colors (31 Flavors) 4:09
05. Not Yet 4:08
06. Get Old 1:46
07. Bacon 3:32
08. Blue Green Olga (Remix) 4:30
09. Heavy (Remix) 3:13
10. Lap Dance 3:26
11. Leave Me Alone So I Can Rock Again 5:06
12. Soul Trance 4:28
13. Electricity 2:30
14. New Year 2:58
15. Lovin' Machine (Automator) 3:39
16. Chowder 3:16
17. T.A.T.B. (For The Saints & Sinners Remix) 7:29
18. Hell 3:25
19. Calvin (Zebra Ranch) 4:08
20. Xtra 1:37

Exact Audio Copy

Exact Audio Copy V0.99 prebeta 5 from 4. May 2009
EAC extraction logfile from 7. July 2009, 20:30
The Jon Spencer Blues Explosion / Xtra-Acme USA
Used drive : HL-DT-STDVDRAM GMA-4082N Adapter: 1 ID: 0
Read mode : Secure
Utilize accurate stream : Yes
Defeat audio cache : Yes
Make use of C2 pointers : No
Read offset correction : 667
Overread into Lead-In and Lead-Out : No
Fill up missing offset samples with silence : Yes
Delete leading and trailing silent blocks : No
Null samples used in CRC calculations : Yes
Used interface : Native Win32 interface for Win NT & 2000
Gap handling : Appended to previous track
Used output format : User Defined Encoder
Selected bitrate : 1024 kBit/s
Quality : High
Add ID3 tag : No
Command line compressor : C:\Program Files\FLAC\flac.exe
Additional command line options : -V -8 -T "artist=%a" -T "title=%t" -T "album=%g" -T "date=%y" -T "tracknumber=%n" -T "genre=%m" %s
TOC of the extracted CD
Track | Start | Length | Start sector | End sector
---------------------------------------------------------
1 | 0:00.32 | 3:48.53 | 32 | 17184
2 | 3:49.10 | 3:47.27 | 17185 | 34236
3 | 7:36.37 | 3:04.33 | 34237 | 48069
4 | 10:40.70 | 4:09.70 | 48070 | 66814
5 | 14:50.65 | 4:08.55 | 66815 | 85469
6 | 18:59.45 | 1:46.02 | 85470 | 93421
7 | 20:45.47 | 3:32.25 | 93422 | 109346
8 | 24:17.72 | 4:30.25 | 109347 | 129621
9 | 28:48.22 | 3:13.58 | 129622 | 144154
10 | 32:02.05 | 3:26.10 | 144155 | 159614
11 | 35:28.15 | 5:06.55 | 159615 | 182619
12 | 40:34.70 | 4:28.15 | 182620 | 202734
13 | 45:03.10 | 2:30.25 | 202735 | 214009
14 | 47:33.35 | 2:58.67 | 214010 | 227426
15 | 50:32.27 | 3:39.40 | 227427 | 243891
16 | 54:11.67 | 3:16.58 | 243892 | 258649
17 | 57:28.50 | 7:29.57 | 258650 | 292381
18 | 64:58.32 | 3:25.28 | 292382 | 307784
19 | 68:23.60 | 4:08.10 | 307785 | 326394
20 | 72:31.70 | 1:36.07 | 326395 | 333601
Track 1
Filename C:\Ripped Music\The Jon Spencer Blues Explosion\1998 - Xtra-Acme USA\01 - Wait a Minute.wav
Pre-gap length 0:00:02.42
Peak level 100.0 %
Track quality 100.0 %
Test CRC 8DFFE7EF
Copy CRC 8DFFE7EF
Accurately ripped (confidence 12) [F9DC1676]
Copy OK
Track 2
Filename C:\Ripped Music\The Jon Spencer Blues Explosion\1998 - Xtra-Acme USA\02 - Get Down Lover.wav
Pre-gap length 0:00:00.40
Peak level 100.0 %
Track quality 100.0 %
Test CRC 46852887
Copy CRC 46852887
Accurately ripped (confidence 13) [0EEF7DFB]
Copy OK
Track 3
Filename C:\Ripped Music\The Jon Spencer Blues Explosion\1998 - Xtra-Acme USA\03 - Confused.wav
Peak level 99.9 %
Track quality 100.0 %
Test CRC AE6B95CF
Copy CRC AE6B95CF
Accurately ripped (confidence 13) [1B8675C1]
Copy OK
Track 4
Filename C:\Ripped Music\The Jon Spencer Blues Explosion\1998 - Xtra-Acme USA\04 - Magical Colors (31 Flavors).wav
Pre-gap length 0:00:02.53
Peak level 100.0 %
Track quality 100.0 %
Test CRC 1A78F0EC
Copy CRC 1A78F0EC
Accurately ripped (confidence 12) [AB3A07D2]
Copy OK
Track 5
Filename C:\Ripped Music\The Jon Spencer Blues Explosion\1998 - Xtra-Acme USA\05 - Not Yet.wav
Peak level 100.0 %
Track quality 99.9 %
Test CRC 5B7B96A3
Copy CRC 5B7B96A3
Accurately ripped (confidence 13) [D47A517F]
Copy OK
Track 6
Filename C:\Ripped Music\The Jon Spencer Blues Explosion\1998 - Xtra-Acme USA\06 - Get Old.wav
Pre-gap length 0:00:01.44
Peak level 100.0 %
Track quality 100.0 %
Test CRC B502EFC0
Copy CRC B502EFC0
Accurately ripped (confidence 13) [1752B8E9]
Copy OK
Track 7
Filename C:\Ripped Music\The Jon Spencer Blues Explosion\1998 - Xtra-Acme USA\07 - Bacon.wav
Pre-gap length 0:00:02.29
Peak level 100.0 %
Track quality 100.0 %
Test CRC 8663307D
Copy CRC 8663307D
Accurately ripped (confidence 12) [4F3AD5BE]
Copy OK
Track 8
Filename C:\Ripped Music\The Jon Spencer Blues Explosion\1998 - Xtra-Acme USA\08 - Blue Green Olga (Remix).wav
Pre-gap length 0:00:02.29
Peak level 100.0 %
Track quality 100.0 %
Test CRC 69CA6EDD
Copy CRC 69CA6EDD
Accurately ripped (confidence 13) [07B1C3A9]
Copy OK
Track 9
Filename C:\Ripped Music\The Jon Spencer Blues Explosion\1998 - Xtra-Acme USA\09 - Heavy (Remix).wav
Pre-gap length 0:00:02.29
Peak level 100.0 %
Track quality 100.0 %
Test CRC A87B85DC
Copy CRC A87B85DC
Accurately ripped (confidence 13) [16D13D44]
Copy OK
Track 10
Filename C:\Ripped Music\The Jon Spencer Blues Explosion\1998 - Xtra-Acme USA\10 - Lap Dance.wav
Pre-gap length 0:00:03.57
Peak level 99.9 %
Track quality 100.0 %
Test CRC 4B057442
Copy CRC 4B057442
Accurately ripped (confidence 13) [B6EBBA4B]
Copy OK
Track 11
Filename C:\Ripped Music\The Jon Spencer Blues Explosion\1998 - Xtra-Acme USA\11 - Leave Me Alone So I Can Rock Again.wav
Pre-gap length 0:00:01.93
Peak level 99.9 %
Track quality 100.0 %
Test CRC 37777E3B
Copy CRC 37777E3B
Accurately ripped (confidence 13) [774978BF]
Copy OK
Track 12
Filename C:\Ripped Music\The Jon Spencer Blues Explosion\1998 - Xtra-Acme USA\12 - Soul Trance.wav
Pre-gap length 0:00:03.13
Peak level 100.0 %
Track quality 100.0 %
Test CRC 025AFBC6
Copy CRC 025AFBC6
Accurately ripped (confidence 13) [619ECBCF]
Copy OK
Track 13
Filename C:\Ripped Music\The Jon Spencer Blues Explosion\1998 - Xtra-Acme USA\13 - Electricity.wav
Pre-gap length 0:00:00.10
Peak level 100.0 %
Track quality 100.0 %
Test CRC EE011D91
Copy CRC EE011D91
Accurately ripped (confidence 13) [0277D898]
Copy OK
Track 14
Filename C:\Ripped Music\The Jon Spencer Blues Explosion\1998 - Xtra-Acme USA\14 - New Year.wav
Peak level 100.0 %
Track quality 100.0 %
Test CRC 3B6F507B
Copy CRC 3B6F507B
Accurately ripped (confidence 13) [1191FDD0]
Copy OK
Track 15
Filename C:\Ripped Music\The Jon Spencer Blues Explosion\1998 - Xtra-Acme USA\15 - Lovin' Machine (Automator).wav
Pre-gap length 0:00:00.16
Peak level 100.0 %
Track quality 100.0 %
Test CRC 1BD2E2AA
Copy CRC 1BD2E2AA
Accurately ripped (confidence 13) [79C8BB82]
Copy OK
Track 16
Filename C:\Ripped Music\The Jon Spencer Blues Explosion\1998 - Xtra-Acme USA\16 - Chowder.wav
Pre-gap length 0:00:02.69
Peak level 100.0 %
Track quality 100.0 %
Test CRC 18159E92
Copy CRC 18159E92
Accurately ripped (confidence 13) [207ACEE3]
Copy OK
Track 17
Filename C:\Ripped Music\The Jon Spencer Blues Explosion\1998 - Xtra-Acme USA\17 - T.A.T.B. (For The Saints & Sinners Remix).wav
Pre-gap length 0:00:02.33
Peak level 100.0 %
Track quality 100.0 %
Test CRC 849CF106
Copy CRC 849CF106
Accurately ripped (confidence 13) [26B3D795]
Copy OK
Track 18
Filename C:\Ripped Music\The Jon Spencer Blues Explosion\1998 - Xtra-Acme USA\18 - Hell.wav
Pre-gap length 0:00:04.69
Peak level 99.9 %
Track quality 100.0 %
Test CRC 96A49580
Copy CRC 96A49580
Accurately ripped (confidence 12) [EB413F7C]
Copy OK
Track 19
Filename C:\Ripped Music\The Jon Spencer Blues Explosion\1998 - Xtra-Acme USA\19 - Calvin (Zebra Ranch).wav
Pre-gap length 0:00:00.97
Peak level 100.0 %
Track quality 100.0 %
Test CRC 6942B880
Copy CRC 6942B880
Accurately ripped (confidence 13) [E389D984]
Copy OK
Track 20
Filename C:\Ripped Music\The Jon Spencer Blues Explosion\1998 - Xtra-Acme USA\20 - Xtra.wav
Pre-gap length 0:00:04.53
Peak level 70.7 %
Track quality 100.0 %
Test CRC BA064C2E
Copy CRC BA064C2E
Accurately ripped (confidence 13) [C56E343A]
Copy OK
All tracks accurately ripped
No errors occurred
End of status report

audiochecker

AUDIOCHECKER v2.0 beta (build 457) - by Dester - opdester@freemail.hu
~~~~~~~~~~~~~~~~~~~~~~~~~~~~~~~~~~
-=== DO NOT EDIT THIS FILE! ===-
Path: ...\The Jon Spencer Blues Explosion - 1998 - Xtra-Acme USA
01 -=- 01 - Wait a Minute.flac -=- CDDA (100%)
02 -=- 02 - Get Down Lover.flac -=- CDDA (100%)
03 -=- 03 - Confused.flac -=- CDDA (100%)
04 -=- 04 - Magical Colors (31 Flavors).flac -=- CDDA (99%)
05 -=- 05 - Not Yet.flac -=- CDDA (100%)
06 -=- 06 - Get Old.flac -=- CDDA (100%)
07 -=- 07 - Bacon.flac -=- CDDA (100%)
08 -=- 08 - Blue Green Olga (Remix).flac -=- CDDA (100%)
09 -=- 09 - Heavy (Remix).flac -=- CDDA (100%)
10 -=- 10 - Lap Dance.flac -=- CDDA (100%)
11 -=- 11 - Leave Me Alone So I Can Rock Again.flac -=- CDDA (100%)
12 -=- 12 - Soul Trance.flac -=- CDDA (100%)
13 -=- 13 - Electricity.flac -=- CDDA (100%)
14 -=- 14 - New Year.flac -=- CDDA (100%)
15 -=- 15 - Lovin' Machine (Automator).flac -=- CDDA (99%)
16 -=- 16 - Chowder.flac -=- CDDA (100%)
17 -=- 17 - T.A.T.B. (For The Saints & Sinners Remix).flac -=- CDDA (100%)
18 -=- 18 - Hell.flac -=- CDDA (100%)
19 -=- 19 - Calvin (Zebra Ranch).flac -=- CDDA (99%)
20 -=- 20 - Xtra.flac -=- CDDA (100%)
Summary 99,85% CDDA
69759492

Cue

REM GENRE Rock
REM DATE 1998
REM DISCID FA116014
REM COMMENT "ExactAudioCopy v0.99pb5"
FILE "01 - Wait a Minute.wav" WAVE
TRACK 01 AUDIO
PREGAP 00:00:32
INDEX 01 00:00:00
TRACK 02 AUDIO
INDEX 00 03:48:23
FILE "02 - Get Down Lover.wav" WAVE
INDEX 01 00:00:00
FILE "03 - Confused.wav" WAVE
TRACK 03 AUDIO
INDEX 01 00:00:00
TRACK 04 AUDIO
INDEX 00 03:01:68
FILE "04 - Magical Colors (31 Flavors).wav" WAVE
INDEX 01 00:00:00
FILE "05 - Not Yet.wav" WAVE
TRACK 05 AUDIO
INDEX 01 00:00:00
TRACK 06 AUDIO
INDEX 00 04:07:22
FILE "06 - Get Old.wav" WAVE
INDEX 01 00:00:00
TRACK 07 AUDIO
INDEX 00 01:43:55
FILE "07 - Bacon.wav" WAVE
INDEX 01 00:00:00
TRACK 08 AUDIO
INDEX 00 03:30:03
FILE "08 - Blue Green Olga (Remix).wav" WAVE
INDEX 01 00:00:00
TRACK 09 AUDIO
INDEX 00 04:28:03
FILE "09 - Heavy (Remix).wav" WAVE
INDEX 01 00:00:00
TRACK 10 AUDIO
INDEX 00 03:10:15
FILE "10 - Lap Dance.wav" WAVE
INDEX 01 00:00:00
TRACK 11 AUDIO
INDEX 00 03:24:15
FILE "11 - Leave Me Alone So I Can Rock Again.wav" WAVE
INDEX 01 00:00:00
TRACK 12 AUDIO
INDEX 00 05:03:45
FILE "12 - Soul Trance.wav" WAVE
INDEX 01 00:00:00
TRACK 13 AUDIO
INDEX 00 04:28:07
FILE "13 - Electricity.wav" WAVE
INDEX 01 00:00:00
FILE "14 - New Year.wav" WAVE
TRACK 14 AUDIO
INDEX 01 00:00:00
TRACK 15 AUDIO
INDEX 00 02:58:55
FILE "15 - Lovin' Machine (Automator).wav" WAVE
INDEX 01 00:00:00
TRACK 16 AUDIO
INDEX 00 03:36:63
FILE "16 - Chowder.wav" WAVE
INDEX 01 00:00:00
TRACK 17 AUDIO
INDEX 00 03:14:33
FILE "17 - T.A.T.B. (For The Saints & Sinners Remix).wav" WAVE
INDEX 01 00:00:00
TRACK 18 AUDIO
INDEX 00 07:25:05
FILE "18 - Hell.wav" WAVE
INDEX 01 00:00:00
TRACK 19 AUDIO
INDEX 00 03:24:30
FILE "19 - Calvin (Zebra Ranch).wav" WAVE
INDEX 01 00:00:00
TRACK 20 AUDIO
INDEX 00 04:03:45
FILE "20 - Xtra.wav" WAVE
INDEX 01 00:00:00

1999 - ACME

Label: Capitol Records, Matador
Catalog#: CDP 7243 4 95566 2 1, OLE 322-2
Продолжительность: 00:45:32
Трэклист:
01. Calvin
02. Magical Colors
03. Do You Wanna Get Heavy?
04. High Gear
05. Talk About The Blues
06. I Wanna Make It All Right
07. Lovin? Machine
08. Bernie
09. Blue Green Olga
10. Give Me A Chance
11. Desperate
12. Torture
13. Attack
Credits
Engineer - Calvin Johnson (tracks: 1, 5, 8) , Steve Albini (tracks: 2, 4, 6, 7, 10, 11, 13.1) ,
Suz Dyer* (tracks: 3, 5, 8, 9, 12)
Mastered By - Andy VanDette , Howie Weinberg
Mixed By - Dan The Automator (tracks: 3, 5, 7, 9, 11, 12, 13.1) , Greg Talenfeld (tracks: 2, 10, 11)
Scratches - Dan The Automator (tracks: 3, 5, 9, 13.1)
Notes
Studios: Electrical, RPM, Greene Street, Waterworks, Dub Narcotic, Big House.
Mastering: Howie Weinberg and Andy VanDette at Masterdisk.
All songs Spencer/Explosion except Blue Green Olga by Cunniff/Explosion.

Exact Audio Copy

Exact Audio Copy V0.99 prebeta 4 from 23. January 2008
EAC extraction logfile from 17. January 2009, 17:16
The Jon Spencer Blues Explosion / Acme
Used drive : _NEC DVD_RW ND-3540A Adapter: 0 ID: 0
Read mode : Secure
Utilize accurate stream : Yes
Defeat audio cache : Yes
Make use of C2 pointers : No
Read offset correction : 48
Overread into Lead-In and Lead-Out : No
Fill up missing offset samples with silence : Yes
Delete leading and trailing silent blocks : No
Null samples used in CRC calculations : Yes
Used interface : Native Win32 interface for Win NT & 2000
Gap handling : Appended to previous track
Used output format : User Defined Encoder
Selected bitrate : 128 kBit/s
Quality : High
Add ID3 tag : No
Command line compressor : C:\Program Files\Exact Audio Copy\Flac\flac.exe
Additional command line options : -V -8 -T "artist=%a" -T "title=%t" -T "album=%g" -T "date=%y" -T "tracknumber=%n" -T "genre=%m" %s
TOC of the extracted CD
Track | Start | Length | Start sector | End sector
---------------------------------------------------------
1 | 0:00.00 | 3:02.33 | 0 | 13682
2 | 3:02.33 | 4:10.17 | 13683 | 32449
3 | 7:12.50 | 4:08.30 | 32450 | 51079
4 | 11:21.05 | 2:07.05 | 51080 | 60609
5 | 13:28.10 | 3:58.33 | 60610 | 78492
6 | 17:26.43 | 3:44.62 | 78493 | 95354
7 | 21:11.30 | 3:45.65 | 95355 | 112294
8 | 24:57.20 | 3:01.25 | 112295 | 125894
9 | 27:58.45 | 3:40.08 | 125895 | 142402
10 | 31:38.53 | 3:16.30 | 142403 | 157132
11 | 34:55.08 | 3:18.52 | 157133 | 172034
12 | 38:13.60 | 4:08.25 | 172035 | 190659
13 | 42:22.10 | 3:10.58 | 190660 | 204967
Track 1
Filename D:\Audio\Outbox\The Jon Spencer Blues Explosion - Acme\01 - Calvin.wav
Pre-gap length 0:00:02.00
Peak level 100.0 %
Track quality 100.0 %
Test CRC 989B5730
Copy CRC 989B5730
Accurately ripped (confidence 2) [84C2509C]
Copy OK
Track 2
Filename D:\Audio\Outbox\The Jon Spencer Blues Explosion - Acme\02 - Magical Colors.wav
Peak level 99.9 %
Track quality 100.0 %
Test CRC EAF86A70
Copy CRC EAF86A70
Accurately ripped (confidence 2) [36A47A1B]
Copy OK
Track 3
Filename D:\Audio\Outbox\The Jon Spencer Blues Explosion - Acme\03 - Do You Wanna Get Heavy .wav
Pre-gap length 0:00:01.49
Peak level 99.9 %
Track quality 99.9 %
Test CRC 450A4640
Copy CRC 450A4640
Accurately ripped (confidence 2) [E513875F]
Copy OK
Track 4
Filename D:\Audio\Outbox\The Jon Spencer Blues Explosion - Acme\04 - High Gear.wav
Pre-gap length 0:00:01.46
Peak level 100.0 %
Track quality 100.0 %
Test CRC A29C7EA3
Copy CRC A29C7EA3
Accurately ripped (confidence 2) [785D8F77]
Copy OK
Track 5
Filename D:\Audio\Outbox\The Jon Spencer Blues Explosion - Acme\05 - Talk About the Blues.wav
Peak level 100.0 %
Track quality 100.0 %
Test CRC D10B8333
Copy CRC D10B8333
Accurately ripped (confidence 2) [3801E68D]
Copy OK
Track 6
Filename D:\Audio\Outbox\The Jon Spencer Blues Explosion - Acme\06 - I Wanna Make It All Right.wav
Peak level 99.9 %
Track quality 100.0 %
Test CRC 148DD7DC
Copy CRC 148DD7DC
Accurately ripped (confidence 2) [48A1F58F]
Copy OK
Track 7
Filename D:\Audio\Outbox\The Jon Spencer Blues Explosion - Acme\07 - Lovin' Machine.wav
Peak level 100.0 %
Track quality 100.0 %
Test CRC 0011F986
Copy CRC 0011F986
Accurately ripped (confidence 2) [6D4FF283]
Copy OK
Track 8
Filename D:\Audio\Outbox\The Jon Spencer Blues Explosion - Acme\08 - Bernie.wav
Pre-gap length 0:00:01.66
Peak level 100.0 %
Track quality 100.0 %
Test CRC FFF09116
Copy CRC FFF09116
Accurately ripped (confidence 2) [531BE5D3]
Copy OK
Track 9
Filename D:\Audio\Outbox\The Jon Spencer Blues Explosion - Acme\09 - Blue Green Olga.wav
Pre-gap length 0:00:01.02
Peak level 99.9 %
Track quality 100.0 %
Test CRC 9C6E8912
Copy CRC 9C6E8912
Accurately ripped (confidence 2) [F94B9FAC]
Copy OK
Track 10
Filename D:\Audio\Outbox\The Jon Spencer Blues Explosion - Acme\10 - Give Me a Chance.wav
Pre-gap length 0:00:01.86
Peak level 99.9 %
Track quality 100.0 %
Test CRC 00D54DC8
Copy CRC 00D54DC8
Accurately ripped (confidence 2) [4FBAD8A5]
Copy OK
Track 11
Filename D:\Audio\Outbox\The Jon Spencer Blues Explosion - Acme\11 - Desperate.wav
Peak level 100.0 %
Track quality 100.0 %
Test CRC B338C34C
Copy CRC B338C34C
Accurately ripped (confidence 2) [9CB93E90]
Copy OK
Track 12
Filename D:\Audio\Outbox\The Jon Spencer Blues Explosion - Acme\12 - Torture.wav
Pre-gap length 0:00:03.38
Peak level 100.0 %
Track quality 100.0 %
Test CRC C49C3944
Copy CRC C49C3944
Accurately ripped (confidence 2) [5F3E0FCD]
Copy OK
Track 13
Filename D:\Audio\Outbox\The Jon Spencer Blues Explosion - Acme\13 - Attack.wav
Peak level 100.0 %
Track quality 100.0 %
Test CRC E3A4EDD7
Copy CRC E3A4EDD7
Accurately ripped (confidence 2) [DFEA55CA]
Copy OK
All tracks accurately ripped
No errors occurred
End of status report

audiochecker

AUDIOCHECKER v2.0 beta (build 457) - by Dester - opdester@freemail.hu
~~~~~~~~~~~~~~~~~~~~~~~~~~~~~~~~~~
-=== DO NOT EDIT THIS FILE! ===-
Path: ...\The Jon Spencer Blues Explosion - Acme [FLAC]
01 -=- 01 - Calvin.flac -=- CDDA (100%)
02 -=- 02 - Magical Colors.flac -=- CDDA (100%)
03 -=- 03 - Do You Wanna Get Heavy .flac -=- CDDA (100%)
04 -=- 04 - High Gear.flac -=- CDDA (100%)
05 -=- 05 - Talk About the Blues.flac -=- CDDA (100%)
06 -=- 06 - I Wanna Make It All Right.flac -=- CDDA (99%)
07 -=- 07 - Lovin' Machine.flac -=- CDDA (100%)
08 -=- 08 - Bernie.flac -=- CDDA (100%)
09 -=- 09 - Blue Green Olga.flac -=- CDDA (100%)
10 -=- 10 - Give Me a Chance.flac -=- CDDA (100%)
11 -=- 11 - Desperate.flac -=- CDDA (100%)
12 -=- 12 - Torture.flac -=- CDDA (100%)
13 -=- 13 - Attack.flac -=- CDDA (100%)
Summary 99,92% CDDA
99569444

Cue

REM GENRE Rock
REM DATE 1998
REM DISCID B10AAC0D
REM COMMENT "ExactAudioCopy v0.99pb4"
FILE "01 - Calvin.wav" WAVE
TRACK 01 AUDIO
INDEX 01 00:00:00
FILE "02 - Magical Colors.wav" WAVE
TRACK 02 AUDIO
INDEX 01 00:00:00
TRACK 03 AUDIO
INDEX 00 04:08:55
FILE "03 - Do You Wanna Get Heavy .wav" WAVE
INDEX 01 00:00:00
TRACK 04 AUDIO
INDEX 00 04:06:70
FILE "04 - High Gear.wav" WAVE
INDEX 01 00:00:00
FILE "05 - Talk About the Blues.wav" WAVE
TRACK 05 AUDIO
INDEX 01 00:00:00
FILE "06 - I Wanna Make It All Right.wav" WAVE
TRACK 06 AUDIO
INDEX 01 00:00:00
FILE "07 - Lovin' Machine.wav" WAVE
TRACK 07 AUDIO
INDEX 01 00:00:00
TRACK 08 AUDIO
INDEX 00 03:44:15
FILE "08 - Bernie.wav" WAVE
INDEX 01 00:00:00
TRACK 09 AUDIO
INDEX 00 03:00:23
FILE "09 - Blue Green Olga.wav" WAVE
INDEX 01 00:00:00
TRACK 10 AUDIO
INDEX 00 03:38:18
FILE "10 - Give Me a Chance.wav" WAVE
INDEX 01 00:00:00
FILE "11 - Desperate.wav" WAVE
TRACK 11 AUDIO
INDEX 01 00:00:00
TRACK 12 AUDIO
INDEX 00 03:15:23
FILE "12 - Torture.wav" WAVE
INDEX 01 00:00:00
FILE "13 - Attack.wav" WAVE
TRACK 13 AUDIO
INDEX 01 00:00:00

1999 - Acme Plus

Label: Mute Records Ltd.
Catalog#: CDSTUMM184
Продолжительность: 01:13:53
Трэклист:
1 Wait A Minute 3:48
Clavinet, Saw - Jeremy Jacobson
Mixed By, Percussion, Bass - Moby
Recorded By - Steve Albini

2 Get Down Lover 3:47
Mixed By - Nick Sansano
Recorded By - Steve Albini
Saxophone - Jerry Vivino
Trumpet - Mark Pender

3 Confused 3:03
Mixed By - Jim Dickinson
Recorded By - Steve Albini

4 Magical Colors (31 Flavors) 4:09
Mixed By - Greg Talenfeld
Recorded By - Steve Albini

5 Not Yet 4:08
Mixed By - Jamie Staub
Piano - Joey Moskowitz
Recorded By - Suz Dyer*

6 Get Old 1:46
Recorded By, Mixed By - Calvin Johnson
7 Bacon 3:32
Arranged By [Strings] - Kurt Hoffman
Cello - Garo Yellin
Mixed By - Chris Shaw , Nick Sansano
Recorded By - Suz Dyer*
Violin - Krysztof Witek* , Ralph Farris

8 Blue Green Olga (Remix) 4:30
Backing Vocals - Jill Cunniff
Organ - Joel Diamond
Recorded By - Suz Dyer*
Remix - Jack Dangers , Jim Waters , Scott Benzel

9 Heavy (Remix) 3:13
Backing Vocals - Dexter Conyers , Jason Powell , Jerome "Rome" Cohen* , Lee "Scout" Ford*
Guitar, Piano, Bass - Gabby Abulruch
Mixed By - Jamie Staub , Stimulated Dummies
Recorded By - Suz Dyer*
Remix - Dante Ross , John Gamble

10 Lap Dance 3:25
Mixed By - Greg Talenfeld
Recorded By - Steve Albini
Vocals - Andre Williams (2)

11 Right Place, Wrong Time 3:40
Mixed By - Dan The Automator
Other [Dinner Reservations] - Marty Diamond
Recorded By - Suz Dyer*

12 Leave Me Alone So I Can Rock Again 5:06
Harmonica - Talenfeld*
Mixed By, Recorded By - Greg Talenfeld
Recorded By - Steve Albini

13 Soul Trance 4:28
Human Beatbox - Filet o' Fresh
Mixed By, Recorded By - Scott Harding
Recorded By - Greg Talenfeld , Steve Albini

14 Electricity 2:30
Mixed By - Nick Sansano
Recorded By - Steve Albini

15 New Year 3:00
Mixed By - Greg Talenfeld
Recorded By - Steve Albini

16 Chowder 3:16
Mixed By - Nick Sansano
Piano - Money Mark
Recorded By - Suz Dyer*

17 T.A.T.B. (For The Saints And Sinners Remix) 7:29
Recorded By - Calvin Johnson , Greg Talenfeld , Suz Dyer*
Remix - Darren Morris , David Holmes , Phil Mossman , Tim Goldsworthy

18 Hell 3:27
Mixed By - Jim Dickinson
Recorded By - Steve Albini
Sitar - Luther Dickinson
Washboard - Cody Dickinson

19 I Wanna Make It All Right (Zebra Ranch) 3:49
Mixed By - Jim Dickinson
Recorded By - Steve Albini

20 Untitled 1:36
Credits
Artwork By [Design] - David Warner
Mastered By - Andy VanDette , Howie Weinberg
Performer [Blues Explosion] - Jon Spencer , Judah Bauer , Russell Simins
Photography - Hiroshi Nirai , Joe Dilworth
Notes
Track 20 is an unlisted track, made to sound like a radio commercial spot.

Exact Audio Copy

Exact Audio Copy V0.99 prebeta 3 from 28. July 2007
EAC extraction logfile from 8. May 2009, 0:31
The Jon Spencer Blues Explosion / Acme - Plus
Used drive : TSSTcorpCDDVDW SH-S203N Adapter: 3 ID: 0
Read mode : Secure
Utilize accurate stream : Yes
Defeat audio cache : Yes
Make use of C2 pointers : No
Read offset correction : 6
Overread into Lead-In and Lead-Out : No
Fill up missing offset samples with silence : Yes
Delete leading and trailing silent blocks : No
Null samples used in CRC calculations : Yes
Used interface : Native Win32 interface for Win NT & 2000
Gap handling : Appended to previous track
Used output format : User Defined Encoder
Selected bitrate : 320 kBit/s
Quality : High
Add ID3 tag : No
Command line compressor : C:\Program Files (x86)\FLAC\flac.exe
Additional command line options : -V -8 -T "artist=%a" -T "title=%t" -T "album=%g" -T "date=%y" -T "tracknumber=%n" -T "genre=%m" %s
TOC of the extracted CD
Track | Start | Length | Start sector | End sector
---------------------------------------------------------
1 | 0:00.00 | 3:48.52 | 0 | 17151
2 | 3:48.52 | 3:47.18 | 17152 | 34194
3 | 7:35.70 | 3:03.57 | 34195 | 47976
4 | 10:39.52 | 4:09.73 | 47977 | 66724
5 | 14:49.50 | 4:08.52 | 66725 | 85376
6 | 18:58.27 | 1:46.05 | 85377 | 93331
7 | 20:44.32 | 3:32.23 | 93332 | 109254
8 | 24:16.55 | 4:30.25 | 109255 | 129529
9 | 28:47.05 | 3:13.57 | 129530 | 144061
10 | 32:00.62 | 3:25.65 | 144062 | 159501
11 | 35:26.52 | 3:40.43 | 159502 | 176044
12 | 39:07.20 | 5:06.55 | 176045 | 199049
13 | 44:14.00 | 4:28.15 | 199050 | 219164
14 | 48:42.15 | 2:30.15 | 219165 | 230429
15 | 51:12.30 | 3:00.72 | 230430 | 244001
16 | 54:13.27 | 3:16.58 | 244002 | 258759
17 | 57:30.10 | 7:29.55 | 258760 | 292489
18 | 64:59.65 | 3:27.27 | 292490 | 308041
19 | 68:27.17 | 3:49.53 | 308042 | 325269
20 | 72:16.70 | 1:36.20 | 325270 | 332489
Track 1
Filename ...\Music\RIPS\Jon Spencer Blues Explosion - Acme Plus (Flac)\The Jon Spencer Blues Explosion - Acme - Plus - 01 - Wait A Minute.wav
Pre-gap length 0:00:02.00
Peak level 100.0 %
Track quality 100.0 %
Test CRC 2DA16FAE
Copy CRC 2DA16FAE
Accurately ripped (confidence 4) [A514B217]
Copy OK
Track 2
Filename ...\Music\RIPS\Jon Spencer Blues Explosion - Acme Plus (Flac)\The Jon Spencer Blues Explosion - Acme - Plus - 02 - Get Down Lover.wav
Peak level 100.0 %
Track quality 100.0 %
Test CRC D5E7993A
Copy CRC D5E7993A
Accurately ripped (confidence 4) [117F34D5]
Copy OK
Track 3
Filename ...\Music\RIPS\Jon Spencer Blues Explosion - Acme Plus (Flac)\The Jon Spencer Blues Explosion - Acme - Plus - 03 - Confused.wav
Peak level 99.9 %
Track quality 100.0 %
Test CRC D15201AA
Copy CRC D15201AA
Accurately ripped (confidence 4) [019E63CB]
Copy OK
Track 4
Filename ...\Music\RIPS\Jon Spencer Blues Explosion - Acme Plus (Flac)\The Jon Spencer Blues Explosion - Acme - Plus - 04 - Magical Colors (31 Flavors).wav
Pre-gap length 0:00:01.42
Peak level 100.0 %
Track quality 100.0 %
Test CRC 54B32937
Copy CRC 54B32937
Accurately ripped (confidence 4) [95BAFD98]
Copy OK
Track 5
Filename ...\Music\RIPS\Jon Spencer Blues Explosion - Acme Plus (Flac)\The Jon Spencer Blues Explosion - Acme - Plus - 05 - Not Yet.wav
Peak level 100.0 %
Track quality 99.9 %
Test CRC 8AD1F730
Copy CRC 8AD1F730
Accurately ripped (confidence 4) [6B9E4133]
Copy OK
Track 6
Filename ...\Music\RIPS\Jon Spencer Blues Explosion - Acme Plus (Flac)\The Jon Spencer Blues Explosion - Acme - Plus - 06 - Get Old.wav
Pre-gap length 0:00:01.17
Peak level 100.0 %
Track quality 100.0 %
Test CRC FE64A2CA
Copy CRC FE64A2CA
Accurately ripped (confidence 4) [1D492F41]
Copy OK
Track 7
Filename ...\Music\RIPS\Jon Spencer Blues Explosion - Acme Plus (Flac)\The Jon Spencer Blues Explosion - Acme - Plus - 07 - Bacon.wav
Pre-gap length 0:00:02.12
Peak level 100.0 %
Track quality 100.0 %
Test CRC 15A3EAAE
Copy CRC 15A3EAAE
Accurately ripped (confidence 4) [1C46F6BD]
Copy OK
Track 8
Filename ...\Music\RIPS\Jon Spencer Blues Explosion - Acme Plus (Flac)\The Jon Spencer Blues Explosion - Acme - Plus - 08 - Blue Green Olga (Remix).wav
Pre-gap length 0:00:02.08
Peak level 100.0 %
Track quality 100.0 %
Test CRC 1B0CA55C
Copy CRC 1B0CA55C
Accurately ripped (confidence 4) [50C17FF3]
Copy OK
Track 9
Filename ...\Music\RIPS\Jon Spencer Blues Explosion - Acme Plus (Flac)\The Jon Spencer Blues Explosion - Acme - Plus - 09 - Heavy (Remix).wav
Pre-gap length 0:00:02.10
Peak level 100.0 %
Track quality 100.0 %
Test CRC 102B402D
Copy CRC 102B402D
Accurately ripped (confidence 4) [09C45CE7]
Copy OK
Track 10
Filename ...\Music\RIPS\Jon Spencer Blues Explosion - Acme Plus (Flac)\The Jon Spencer Blues Explosion - Acme - Plus - 10 - Lap Dance.wav
Pre-gap length 0:00:03.30
Peak level 99.9 %
Track quality 99.9 %
Test CRC 5615BE0D
Copy CRC 5615BE0D
Accurately ripped (confidence 4) [88F63FA9]
Copy OK
Track 11
Filename ...\Music\RIPS\Jon Spencer Blues Explosion - Acme Plus (Flac)\The Jon Spencer Blues Explosion - Acme - Plus - 11 - Right Place, Wrong Time.wav
Pre-gap length 0:00:01.37
Peak level 99.9 %
Track quality 100.0 %
Test CRC 345491C8
Copy CRC 345491C8
Accurately ripped (confidence 4) [0D9F2091]
Copy OK
Track 12
Filename ...\Music\RIPS\Jon Spencer Blues Explosion - Acme Plus (Flac)\The Jon Spencer Blues Explosion - Acme - Plus - 12 - Leave Me Alone So I Can Rock Again.wav
Peak level 99.9 %
Track quality 100.0 %
Test CRC 025D8D3B
Copy CRC 025D8D3B
Accurately ripped (confidence 4) [86DC9496]
Copy OK
Track 13
Filename ...\Music\RIPS\Jon Spencer Blues Explosion - Acme Plus (Flac)\The Jon Spencer Blues Explosion - Acme - Plus - 13 - Soul Trance.wav
Pre-gap length 0:00:02.73
Peak level 100.0 %
Track quality 100.0 %
Test CRC 6B6F5788
Copy CRC 6B6F5788
Accurately ripped (confidence 4) [5E34E7B8]
Copy OK
Track 14
Filename ...\Music\RIPS\Jon Spencer Blues Explosion - Acme Plus (Flac)\The Jon Spencer Blues Explosion - Acme - Plus - 14 - Electricity.wav
Peak level 100.0 %
Track quality 100.0 %
Test CRC 9ABED477
Copy CRC 9ABED477
Accurately ripped (confidence 4) [41A83EF8]
Copy OK
Track 15
Filename ...\Music\RIPS\Jon Spencer Blues Explosion - Acme Plus (Flac)\The Jon Spencer Blues Explosion - Acme - Plus - 15 - New Year.wav
Peak level 100.0 %
Track quality 99.9 %
Test CRC 1A92D1D0
Copy CRC 1A92D1D0
Accurately ripped (confidence 4) [7AA43CFA]
Copy OK
Track 16
Filename ...\Music\RIPS\Jon Spencer Blues Explosion - Acme Plus (Flac)\The Jon Spencer Blues Explosion - Acme - Plus - 16 - Chowder.wav
Pre-gap length 0:00:01.72
Peak level 100.0 %
Track quality 100.0 %
Test CRC AC5A9764
Copy CRC AC5A9764
Accurately ripped (confidence 4) [E8DDE66C]
Copy OK
Track 17
Filename ...\Music\RIPS\Jon Spencer Blues Explosion - Acme Plus (Flac)\The Jon Spencer Blues Explosion - Acme - Plus - 17 - T.A.T.B. (For The Saints And Sinners Remix).wav
Pre-gap length 0:00:02.13
Peak level 100.0 %
Track quality 100.0 %
Test CRC 7699E27C
Copy CRC 7699E27C
Accurately ripped (confidence 4) [6E3689D0]
Copy OK
Track 18
Filename ...\Music\RIPS\Jon Spencer Blues Explosion - Acme Plus (Flac)\The Jon Spencer Blues Explosion - Acme - Plus - 18 - Hell.wav
Pre-gap length 0:00:04.38
Peak level 99.9 %
Track quality 100.0 %
Test CRC 3D9A2CC8
Copy CRC 3D9A2CC8
Accurately ripped (confidence 4) [2F1FD74A]
Copy OK
Track 19
Filename ...\Music\RIPS\Jon Spencer Blues Explosion - Acme Plus (Flac)\The Jon Spencer Blues Explosion - Acme - Plus - 19 - I Wanna Make It All Right (Zebra Ranch).wav
Pre-gap length 0:00:02.60
Peak level 100.0 %
Track quality 100.0 %
Test CRC 36A4B57C
Copy CRC 36A4B57C
Accurately ripped (confidence 4) [DDAC2179]
Copy OK
Track 20
Filename ...\Music\RIPS\Jon Spencer Blues Explosion - Acme Plus (Flac)\The Jon Spencer Blues Explosion - Acme - Plus - 20 - Radio AD.wav
Pre-gap length 0:00:04.25
Peak level 70.8 %
Track quality 100.0 %
Test CRC 289496FE
Copy CRC 289496FE
Accurately ripped (confidence 4) [F449A441]
Copy OK
All tracks accurately ripped
No errors occurred
End of status report

audiochecker

AUDIOCHECKER v2.0 beta (build 457) - by Dester - opdester@freemail.hu
~~~~~~~~~~~~~~~~~~~~~~~~~~~~~~~~~~
-=== DO NOT EDIT THIS FILE! ===-
Path: ...\The Jon Spencer Blues Explosion - 1999 - Acme Plus
01 -=- The Jon Spencer Blues Explosion - Acme - Plus - 01 - Wait A Minute.flac -=- CDDA (99%)
02 -=- The Jon Spencer Blues Explosion - Acme - Plus - 02 - Get Down Lover.flac -=- CDDA (100%)
03 -=- The Jon Spencer Blues Explosion - Acme - Plus - 03 - Confused.flac -=- CDDA (100%)
04 -=- The Jon Spencer Blues Explosion - Acme - Plus - 04 - Magical Colors (31 Flavors).flac -=- CDDA (100%)
05 -=- The Jon Spencer Blues Explosion - Acme - Plus - 05 - Not Yet.flac -=- CDDA (100%)
06 -=- The Jon Spencer Blues Explosion - Acme - Plus - 06 - Get Old.flac -=- CDDA (100%)
07 -=- The Jon Spencer Blues Explosion - Acme - Plus - 07 - Bacon.flac -=- CDDA (99%)
08 -=- The Jon Spencer Blues Explosion - Acme - Plus - 08 - Blue Green Olga (Remix).flac -=- CDDA (100%)
09 -=- The Jon Spencer Blues Explosion - Acme - Plus - 09 - Heavy (Remix).flac -=- CDDA (100%)
10 -=- The Jon Spencer Blues Explosion - Acme - Plus - 10 - Lap Dance.flac -=- CDDA (100%)
11 -=- The Jon Spencer Blues Explosion - Acme - Plus - 11 - Right Place, Wrong Time.flac -=- CDDA (100%)
12 -=- The Jon Spencer Blues Explosion - Acme - Plus - 12 - Leave Me Alone So I Can Rock Again.flac -=- CDDA (100%)
13 -=- The Jon Spencer Blues Explosion - Acme - Plus - 13 - Soul Trance.flac -=- CDDA (100%)
14 -=- The Jon Spencer Blues Explosion - Acme - Plus - 14 - Electricity.flac -=- CDDA (100%)
15 -=- The Jon Spencer Blues Explosion - Acme - Plus - 15 - New Year.flac -=- CDDA (100%)
16 -=- The Jon Spencer Blues Explosion - Acme - Plus - 16 - Chowder.flac -=- CDDA (100%)
17 -=- The Jon Spencer Blues Explosion - Acme - Plus - 17 - T.A.T.B. (For The Saints And Sinners Remix).flac -=- CDDA (100%)
18 -=- The Jon Spencer Blues Explosion - Acme - Plus - 18 - Hell.flac -=- CDDA (99%)
19 -=- The Jon Spencer Blues Explosion - Acme - Plus - 19 - I Wanna Make It All Right (Zebra Ranch).flac -=- CDDA (100%)
20 -=- The Jon Spencer Blues Explosion - Acme - Plus - 20 - Radio AD.flac -=- CDDA (100%)
Summary 99,85% CDDA
259988628

Cue

REM GENRE Blues
REM DATE 1999
REM DISCID 16115114
REM COMMENT "ExactAudioCopy v0.99pb3"
PERFORMER "The Jon Spencer Blues Explosion"
TITLE "Acme - Plus"
FILE "The Jon Spencer Blues Explosion - Acme - Plus - 01 - Wait A Minute.wav" WAVE
TRACK 01 AUDIO
TITLE "Wait A Minute"
PERFORMER "The Jon Spencer Blues Explosion"
INDEX 01 00:00:00
FILE "The Jon Spencer Blues Explosion - Acme - Plus - 02 - Get Down Lover.wav" WAVE
TRACK 02 AUDIO
TITLE "Get Down Lover"
PERFORMER "The Jon Spencer Blues Explosion"
INDEX 01 00:00:00
FILE "The Jon Spencer Blues Explosion - Acme - Plus - 03 - Confused.wav" WAVE
TRACK 03 AUDIO
TITLE "Confused"
PERFORMER "The Jon Spencer Blues Explosion"
INDEX 01 00:00:00
TRACK 04 AUDIO
TITLE "Magical Colors (31 Flavors)"
PERFORMER "The Jon Spencer Blues Explosion"
INDEX 00 03:02:15
FILE "The Jon Spencer Blues Explosion - Acme - Plus - 04 - Magical Colors (31 Flavors).wav" WAVE
INDEX 01 00:00:00
FILE "The Jon Spencer Blues Explosion - Acme - Plus - 05 - Not Yet.wav" WAVE
TRACK 05 AUDIO
TITLE "Not Yet"
PERFORMER "The Jon Spencer Blues Explosion"
INDEX 01 00:00:00
TRACK 06 AUDIO
TITLE "Get Old"
PERFORMER "The Jon Spencer Blues Explosion"
INDEX 00 04:07:35
FILE "The Jon Spencer Blues Explosion - Acme - Plus - 06 - Get Old.wav" WAVE
INDEX 01 00:00:00
TRACK 07 AUDIO
TITLE "Bacon"
PERFORMER "The Jon Spencer Blues Explosion"
INDEX 00 01:43:68
FILE "The Jon Spencer Blues Explosion - Acme - Plus - 07 - Bacon.wav" WAVE
INDEX 01 00:00:00
TRACK 08 AUDIO
TITLE "Blue Green Olga (Remix)"
PERFORMER "The Jon Spencer Blues Explosion"
INDEX 00 03:30:15
FILE "The Jon Spencer Blues Explosion - Acme - Plus - 08 - Blue Green Olga (Remix).wav" WAVE
INDEX 01 00:00:00
TRACK 09 AUDIO
TITLE "Heavy (Remix)"
PERFORMER "The Jon Spencer Blues Explosion"
INDEX 00 04:28:15
FILE "The Jon Spencer Blues Explosion - Acme - Plus - 09 - Heavy (Remix).wav" WAVE
INDEX 01 00:00:00
TRACK 10 AUDIO
TITLE "Lap Dance"
PERFORMER "The Jon Spencer Blues Explosion"
INDEX 00 03:10:27
FILE "The Jon Spencer Blues Explosion - Acme - Plus - 10 - Lap Dance.wav" WAVE
INDEX 01 00:00:00
TRACK 11 AUDIO
TITLE "Right Place, Wrong Time"
PERFORMER "The Jon Spencer Blues Explosion"
INDEX 00 03:24:28
FILE "The Jon Spencer Blues Explosion - Acme - Plus - 11 - Right Place, Wrong Time.wav" WAVE
INDEX 01 00:00:00
FILE "The Jon Spencer Blues Explosion - Acme - Plus - 12 - Leave Me Alone So I Can Rock Again.wav" WAVE
TRACK 12 AUDIO
TITLE "Leave Me Alone So I Can Rock Again"
PERFORMER "The Jon Spencer Blues Explosion"
INDEX 01 00:00:00
TRACK 13 AUDIO
TITLE "Soul Trance"
PERFORMER "The Jon Spencer Blues Explosion"
INDEX 00 05:03:57
FILE "The Jon Spencer Blues Explosion - Acme - Plus - 13 - Soul Trance.wav" WAVE
INDEX 01 00:00:00
FILE "The Jon Spencer Blues Explosion - Acme - Plus - 14 - Electricity.wav" WAVE
TRACK 14 AUDIO
TITLE "Electricity"
PERFORMER "The Jon Spencer Blues Explosion"
INDEX 01 00:00:00
FILE "The Jon Spencer Blues Explosion - Acme - Plus - 15 - New Year.wav" WAVE
TRACK 15 AUDIO
TITLE "New Year"
PERFORMER "The Jon Spencer Blues Explosion"
INDEX 01 00:00:00
TRACK 16 AUDIO
TITLE "Chowder"
PERFORMER "The Jon Spencer Blues Explosion"
INDEX 00 02:59:00
FILE "The Jon Spencer Blues Explosion - Acme - Plus - 16 - Chowder.wav" WAVE
INDEX 01 00:00:00
TRACK 17 AUDIO
TITLE "T.A.T.B. (For The Saints And Sinners Remix)"
PERFORMER "The Jon Spencer Blues Explosion"
INDEX 00 03:14:45
FILE "The Jon Spencer Blues Explosion - Acme - Plus - 17 - T.A.T.B. (For The Saints And Sinners Remix).wav" WAVE
INDEX 01 00:00:00
TRACK 18 AUDIO
TITLE "Hell"
PERFORMER "The Jon Spencer Blues Explosion"
INDEX 00 07:25:17
FILE "The Jon Spencer Blues Explosion - Acme - Plus - 18 - Hell.wav" WAVE
INDEX 01 00:00:00
TRACK 19 AUDIO
TITLE "I Wanna Make It All Right (Zebra Ranch)"
PERFORMER "The Jon Spencer Blues Explosion"
INDEX 00 03:24:42
FILE "The Jon Spencer Blues Explosion - Acme - Plus - 19 - I Wanna Make It All Right (Zebra Ranch).wav" WAVE
INDEX 01 00:00:00
TRACK 20 AUDIO
TITLE "Radio AD"
PERFORMER "The Jon Spencer Blues Explosion"
INDEX 00 03:45:28
FILE "The Jon Spencer Blues Explosion - Acme - Plus - 20 - Radio AD.wav" WAVE
INDEX 01 00:00:00

2002 - Plastic Fang

Label: Matador
Catalog#: OLE 542-2
Продолжительность: 00:48:25
Трэклист:
01. Sweet n Sour - 3:15
02. She Said - 4:17
03. Money Rock 'n' Roll - 3:01
04. Killer Wolf - 4:34
05. The Midnight Creep - 3:47
06. Hold On - 4:54
07. Down in the Beast - 4:26
08. Shakin' Rock 'n' Roll Tonight - 2:52
09. Over and Over - 3:50
10. Mother Nature - 4:30
11. Mean Heart - 4:26
12. Point of View - 4:28
Credits
Drums, Percussion - Russell Simins
Guitar, Backing Vocals, Percussion [Claps] - Judah Bauer
Producer, Bass, Guitar, Drums, Piano, Backing Vocals, Percussion, Organ - Steve Jordan
Vocals, Guitar, Theremin, Other [Stylophone], Percussion [Claps], Piano - Jon Spencer

Exact Audio Copy

Exact Audio Copy V0.99 prebeta 4 from 23. January 2008
EAC extraction logfile from 28. July 2009, 3:58
Jon Spencer Blues Explosion / Plastic Fang
Used drive : SlimtypeDVD A DS8A1H Adapter: 1 ID: 0
Read mode : Secure
Utilize accurate stream : Yes
Defeat audio cache : Yes
Make use of C2 pointers : No
Read offset correction : 594
Overread into Lead-In and Lead-Out : No
Fill up missing offset samples with silence : Yes
Delete leading and trailing silent blocks : No
Null samples used in CRC calculations : No
Used interface : Native Win32 interface for Win NT & 2000
Gap handling : Appended to previous track
Used output format : User Defined Encoder
Selected bitrate : 128 kBit/s
Quality : High
Add ID3 tag : No
Command line compressor : C:\Program Files\Exact Audio Copy\Flac\flac.exe
Additional command line options : -V -8 -T "artist=%a" -T "title=%t" -T "album=%g" -T "date=%y" -T "tracknumber=%n" -T "genre=%m" %s
TOC of the extracted CD
Track | Start | Length | Start sector | End sector
---------------------------------------------------------
1 | 0:00.32 | 3:15.30 | 32 | 14686
2 | 3:15.62 | 4:17.48 | 14687 | 34009
3 | 7:33.35 | 3:01.67 | 34010 | 47651
4 | 10:35.27 | 4:34.28 | 47652 | 68229
5 | 15:09.55 | 3:47.27 | 68230 | 85281
6 | 18:57.07 | 4:54.05 | 85282 | 107336
7 | 23:51.12 | 4:26.30 | 107337 | 127316
8 | 28:17.42 | 2:52.63 | 127317 | 140279
9 | 31:10.30 | 3:50.35 | 140280 | 157564
10 | 35:00.65 | 4:30.10 | 157565 | 177824
11 | 39:31.00 | 4:26.05 | 177825 | 197779
12 | 43:57.05 | 4:28.45 | 197780 | 217924
Track 1
Filename C:\Users\Josh\Desktop\Blues Explosion - PLastic Fang\01 - Sweet N Sour.wav
Pre-gap length 0:00:02.32
Peak level 99.8 %
Track quality 100.0 %
Test CRC 85CA7470
Copy CRC 85CA7470
Accurately ripped (confidence 17) [8F7E87D4]
Copy OK
Track 2
Filename C:\Users\Josh\Desktop\Blues Explosion - PLastic Fang\02 - She Said.wav
Peak level 100.0 %
Track quality 100.0 %
Test CRC 6F03E600
Copy CRC 6F03E600
Accurately ripped (confidence 17) [D4C9891C]
Copy OK
Track 3
Filename C:\Users\Josh\Desktop\Blues Explosion - PLastic Fang\03 - Money Rock'n'Roll.wav
Peak level 99.8 %
Track quality 100.0 %
Test CRC 07FB17F5
Copy CRC 07FB17F5
Accurately ripped (confidence 17) [1D79DACE]
Copy OK
Track 4
Filename C:\Users\Josh\Desktop\Blues Explosion - PLastic Fang\04 - Killer Wolf.wav
Peak level 99.8 %
Track quality 100.0 %
Test CRC 74780E42
Copy CRC 74780E42
Accurately ripped (confidence 16) [F377BE64]
Copy OK
Track 5
Filename C:\Users\Josh\Desktop\Blues Explosion - PLastic Fang\05 - The Midnight Creep.wav
Peak level 99.8 %
Track quality 100.0 %
Test CRC 37A4A0F8
Copy CRC 37A4A0F8
Accurately ripped (confidence 17) [AC327D0B]
Copy OK
Track 6
Filename C:\Users\Josh\Desktop\Blues Explosion - PLastic Fang\06 - Hold On.wav
Peak level 99.8 %
Track quality 100.0 %
Test CRC 83DBD292
Copy CRC 83DBD292
Accurately ripped (confidence 17) [2425471B]
Copy OK
Track 7
Filename C:\Users\Josh\Desktop\Blues Explosion - PLastic Fang\07 - Down In The Beast.wav
Peak level 99.8 %
Track quality 100.0 %
Test CRC AACB8FD2
Copy CRC AACB8FD2
Accurately ripped (confidence 17) [0B5197ED]
Copy OK
Track 8
Filename C:\Users\Josh\Desktop\Blues Explosion - PLastic Fang\08 - Shakin' Rock'n'Roll Tonight.wav
Pre-gap length 0:00:01.45
Peak level 99.8 %
Track quality 100.0 %
Test CRC 330E1537
Copy CRC 330E1537
Accurately ripped (confidence 17) [C28A7356]
Copy OK
Track 9
Filename C:\Users\Josh\Desktop\Blues Explosion - PLastic Fang\09 - Over And Over.wav
Peak level 99.8 %
Track quality 99.9 %
Test CRC 2B0173CD
Copy CRC 2B0173CD
Accurately ripped (confidence 17) [CDA65FC6]
Copy OK
Track 10
Filename C:\Users\Josh\Desktop\Blues Explosion - PLastic Fang\10 - Mother Nature.wav
Peak level 99.8 %
Track quality 100.0 %
Test CRC 550D3557
Copy CRC 550D3557
Accurately ripped (confidence 17) [FD3B7E4D]
Copy OK
Track 11
Filename C:\Users\Josh\Desktop\Blues Explosion - PLastic Fang\11 - Mean Heart.wav
Peak level 99.8 %
Track quality 100.0 %
Test CRC B8AACF59
Copy CRC B8AACF59
Accurately ripped (confidence 17) [CCE4B8DA]
Copy OK
Track 12
Filename C:\Users\Josh\Desktop\Blues Explosion - PLastic Fang\12 - Point Of View.wav
Peak level 99.8 %
Track quality 100.0 %
Test CRC 7E7AA97F
Copy CRC 7E7AA97F
Accurately ripped (confidence 16) [3D45CF22]
Copy OK
All tracks accurately ripped
No errors occurred
End of status report

audiochecker

AUDIOCHECKER v2.0 beta (build 457) - by Dester - opdester@freemail.hu
~~~~~~~~~~~~~~~~~~~~~~~~~~~~~~~~~~
-=== DO NOT EDIT THIS FILE! ===-
Path: ...\The Jon Spencer Blues Explosion - 2002 - Plastic Fang
01 -=- 01 - Sweet N Sour.flac -=- CDDA (100%)
02 -=- 02 - She Said.flac -=- CDDA (100%)
03 -=- 03 - Money Rock'n'Roll.flac -=- CDDA (100%)
04 -=- 04 - Killer Wolf.flac -=- CDDA (100%)
05 -=- 05 - The Midnight Creep.flac -=- CDDA (100%)
06 -=- 06 - Hold On.flac -=- CDDA (99%)
07 -=- 07 - Down In The Beast.flac -=- CDDA (99%)
08 -=- 08 - Shakin' Rock'n'Roll Tonight.flac -=- CDDA (99%)
09 -=- 09 - Over And Over.flac -=- CDDA (100%)
10 -=- 10 - Mother Nature.flac -=- CDDA (100%)
11 -=- 11 - Mean Heart.flac -=- CDDA (100%)
12 -=- 12 - Point Of View.flac -=- CDDA (100%)
Summary 99,75% CDDA
120948212

Cue

REM GENRE misc
REM DATE 2002
REM DISCID A80B590C
REM COMMENT "ExactAudioCopy v0.99pb4"
PERFORMER "Jon Spencer Blues Explosion"
TITLE "Plastic Fang"
FILE "01 - Sweet N Sour.wav" WAVE
TRACK 01 AUDIO
TITLE "Sweet N Sour"
PERFORMER "Jon Spencer Blues Explosion"
PREGAP 00:00:32
INDEX 01 00:00:00
FILE "02 - She Said.wav" WAVE
TRACK 02 AUDIO
TITLE "She Said"
PERFORMER "Jon Spencer Blues Explosion"
INDEX 01 00:00:00
FILE "03 - Money Rock'n'Roll.wav" WAVE
TRACK 03 AUDIO
TITLE "Money Rock'n'Roll"
PERFORMER "Jon Spencer Blues Explosion"
INDEX 01 00:00:00
FILE "04 - Killer Wolf.wav" WAVE
TRACK 04 AUDIO
TITLE "Killer Wolf"
PERFORMER "Jon Spencer Blues Explosion"
INDEX 01 00:00:00
FILE "05 - The Midnight Creep.wav" WAVE
TRACK 05 AUDIO
TITLE "The Midnight Creep"
PERFORMER "Jon Spencer Blues Explosion"
INDEX 01 00:00:00
FILE "06 - Hold On.wav" WAVE
TRACK 06 AUDIO
TITLE "Hold On"
PERFORMER "Jon Spencer Blues Explosion"
INDEX 01 00:00:00
FILE "07 - Down In The Beast.wav" WAVE
TRACK 07 AUDIO
TITLE "Down In The Beast"
PERFORMER "Jon Spencer Blues Explosion"
INDEX 01 00:00:00
TRACK 08 AUDIO
TITLE "Shakin' Rock'n'Roll Tonight"
PERFORMER "Jon Spencer Blues Explosion"
INDEX 00 04:24:60
FILE "08 - Shakin' Rock'n'Roll Tonight.wav" WAVE
INDEX 01 00:00:00
FILE "09 - Over And Over.wav" WAVE
TRACK 09 AUDIO
TITLE "Over And Over"
PERFORMER "Jon Spencer Blues Explosion"
INDEX 01 00:00:00
FILE "10 - Mother Nature.wav" WAVE
TRACK 10 AUDIO
TITLE "Mother Nature"
PERFORMER "Jon Spencer Blues Explosion"
INDEX 01 00:00:00
FILE "11 - Mean Heart.wav" WAVE
TRACK 11 AUDIO
TITLE "Mean Heart"
PERFORMER "Jon Spencer Blues Explosion"
INDEX 01 00:00:00
FILE "12 - Point Of View.wav" WAVE
TRACK 12 AUDIO
TITLE "Point Of View"
PERFORMER "Jon Spencer Blues Explosion"
INDEX 01 00:00:00

2004 - Damage

Продолжительность: 00:46:06
Трэклист:
01 - Damage
02 - Burn It Off
03 - Spoiled
04 - Crunchy
05 - Hot Gossip
06 - Mars, Arizona
07 - You Been My Baby
08 - Rivals
09 - Help These Blues
10 - Fed Up And Low Down
11 - Rattling
12 - Blowing My Mind
13 - Track 13 - Damage
14 - Track 14 - Damage

Exact Audio Copy

Exact Audio Copy V0.99 prebeta 4 from 23. January 2008
EAC extraction logfile from 19. February 2008, 17:08
The Jon Spencer Blues Explosion / Damage
Used drive : SONY DVD RW DRU-710A Adapter: 0 ID: 0
Read mode : Secure
Utilize accurate stream : Yes
Defeat audio cache : Yes
Make use of C2 pointers : No
Read offset correction : 12
Overread into Lead-In and Lead-Out : No
Fill up missing offset samples with silence : Yes
Delete leading and trailing silent blocks : No
Null samples used in CRC calculations : Yes
Used interface : Installed external ASPI interface
Gap handling : Appended to previous track
Used output format : User Defined Encoder
Selected bitrate : 192 kBit/s
Quality : High
Add ID3 tag : No
Command line compressor : d:\Exact Audio Copy\flac\flac.exe
Additional command line options : -8 -A tukey(0.25) -A gauss(0.1875) -b 4096 -V -T "artist=%a" -T "title=%t" -T "album=%g" -T "date=%y" -T "tracknumber=%n" -T "genre=%m" %s --sector-align
TOC of the extracted CD
Track | Start | Length | Start sector | End sector
---------------------------------------------------------
1 | 0:00.00 | 2:25.65 | 0 | 10939
2 | 2:25.65 | 2:56.30 | 10940 | 24169
3 | 5:22.20 | 3:33.70 | 24170 | 40214
4 | 8:56.15 | 3:40.05 | 40215 | 56719
5 | 12:36.20 | 3:31.55 | 56720 | 72599
6 | 16:08.00 | 2:25.40 | 72600 | 83514
7 | 18:33.40 | 3:22.65 | 83515 | 98729
8 | 21:56.30 | 1:55.62 | 98730 | 107416
9 | 23:52.17 | 3:50.55 | 107417 | 124721
10 | 27:42.72 | 4:06.28 | 124722 | 143199
11 | 31:49.25 | 4:17.70 | 143200 | 162544
12 | 36:07.20 | 3:46.35 | 162545 | 179529
13 | 39:53.55 | 3:06.15 | 179530 | 193494
14 | 42:59.70 | 3:06.23 | 193495 | 207467
Track 1
Filename G:\CD's\Jon Spencer Blues Explosion Flac\Damage\01 - The Jon Spencer Blues Explosion - Damage.wav
Pre-gap length 0:00:02.00
Peak level 98.8 %
Track quality 100.0 %
Test CRC FE5548BE
Copy CRC FE5548BE
Track not present in AccurateRip database
Copy OK
Track 2
Filename G:\CD's\Jon Spencer Blues Explosion Flac\Damage\02 - The Jon Spencer Blues Explosion - Burn It Off.wav
Peak level 98.8 %
Track quality 100.0 %
Test CRC E0BC9F71
Copy CRC E0BC9F71
Track not present in AccurateRip database
Copy OK
Track 3
Filename G:\CD's\Jon Spencer Blues Explosion Flac\Damage\03 - The Jon Spencer Blues Explosion - Spoiled.wav
Pre-gap length 0:00:02.00
Peak level 98.8 %
Track quality 100.0 %
Test CRC 2AD85706
Copy CRC 2AD85706
Track not present in AccurateRip database
Copy OK
Track 4
Filename G:\CD's\Jon Spencer Blues Explosion Flac\Damage\04 - The Jon Spencer Blues Explosion - Crunchy.wav
Peak level 98.8 %
Track quality 100.0 %
Test CRC E5B2D368
Copy CRC E5B2D368
Track not present in AccurateRip database
Copy OK
Track 5
Filename G:\CD's\Jon Spencer Blues Explosion Flac\Damage\05 - The Jon Spencer Blues Explosion - Hot Gossip.wav
Pre-gap length 0:00:02.04
Peak level 98.8 %
Track quality 100.0 %
Test CRC 033BDBFE
Copy CRC 033BDBFE
Track not present in AccurateRip database
Copy OK
Track 6
Filename G:\CD's\Jon Spencer Blues Explosion Flac\Damage\06 - The Jon Spencer Blues Explosion - Mars, Arizona.wav
Peak level 98.8 %
Track quality 100.0 %
Test CRC 47CC992F
Copy CRC 47CC992F
Track not present in AccurateRip database
Copy OK
Track 7
Filename G:\CD's\Jon Spencer Blues Explosion Flac\Damage\07 - The Jon Spencer Blues Explosion - You Been My Baby.wav
Peak level 98.8 %
Track quality 99.9 %
Test CRC B357D09B
Copy CRC B357D09B
Track not present in AccurateRip database
Copy OK
Track 8
Filename G:\CD's\Jon Spencer Blues Explosion Flac\Damage\08 - The Jon Spencer Blues Explosion - Rivals.wav
Peak level 98.8 %
Track quality 100.0 %
Test CRC D5B80F2C
Copy CRC D5B80F2C
Track not present in AccurateRip database
Copy OK
Track 9
Filename G:\CD's\Jon Spencer Blues Explosion Flac\Damage\09 - The Jon Spencer Blues Explosion - Help These Blues.wav
Peak level 98.8 %
Track quality 100.0 %
Test CRC 4C945475
Copy CRC 4C945475
Track not present in AccurateRip database
Copy OK
Track 10
Filename G:\CD's\Jon Spencer Blues Explosion Flac\Damage\10 - The Jon Spencer Blues Explosion - Fed Up And Down Low.wav
Pre-gap length 0:00:01.22
Peak level 98.8 %
Track quality 99.9 %
Test CRC 43977EF5
Copy CRC 43977EF5
Track not present in AccurateRip database
Copy OK
Track 11
Filename G:\CD's\Jon Spencer Blues Explosion Flac\Damage\11 - The Jon Spencer Blues Explosion - Rattling.wav
Peak level 98.8 %
Track quality 100.0 %
Test CRC 7E47FD3C
Copy CRC 7E47FD3C
Track not present in AccurateRip database
Copy OK
Track 12
Filename G:\CD's\Jon Spencer Blues Explosion Flac\Damage\12 - The Jon Spencer Blues Explosion - Blowing My Mind.wav
Peak level 98.8 %
Track quality 99.9 %
Test CRC 2976E13F
Copy CRC 2976E13F
Track not present in AccurateRip database
Copy OK
Track 13
Filename G:\CD's\Jon Spencer Blues Explosion Flac\Damage\13 - The Jon Spencer Blues Explosion - Track 13 - Damage.wav
Peak level 98.8 %
Track quality 100.0 %
Test CRC C7E59EBC
Copy CRC C7E59EBC
Track not present in AccurateRip database
Copy OK
Track 14
Filename G:\CD's\Jon Spencer Blues Explosion Flac\Damage\14 - The Jon Spencer Blues Explosion - Track 14 - Damage.wav
Peak level 98.8 %
Track quality 99.9 %
Test CRC 0C6A652C
Copy CRC 0C6A652C
Track not present in AccurateRip database
Copy OK
None of the tracks are present in the AccurateRip database
No errors occurred
End of status report

audiochecker

AUDIOCHECKER v2.0 beta (build 457) - by Dester - opdester@freemail.hu
~~~~~~~~~~~~~~~~~~~~~~~~~~~~~~~~~~
-=== DO NOT EDIT THIS FILE! ===-
Path: ...\The Jon Spencer Blues Explosion - 2004 - Damage
01 -=- 01 - The Jon Spencer Blues Explosion - Damage.flac -=- CDDA (100%)
02 -=- 02 - The Jon Spencer Blues Explosion - Burn It Off.flac -=- CDDA (100%)
03 -=- 03 - The Jon Spencer Blues Explosion - Spoiled.flac -=- CDDA (100%)
04 -=- 04 - The Jon Spencer Blues Explosion - Crunchy.flac -=- CDDA (100%)
05 -=- 05 - The Jon Spencer Blues Explosion - Hot Gossip.flac -=- CDDA (100%)
06 -=- 06 - The Jon Spencer Blues Explosion - Mars, Arizona.flac -=- CDDA (100%)
07 -=- 07 - The Jon Spencer Blues Explosion - You Been My Baby.flac -=- CDDA (100%)
08 -=- 08 - The Jon Spencer Blues Explosion - Rivals.flac -=- CDDA (100%)
09 -=- 09 - The Jon Spencer Blues Explosion - Help These Blues.flac -=- CDDA (100%)
10 -=- 10 - The Jon Spencer Blues Explosion - Fed Up And Down Low.flac -=- CDDA (100%)
11 -=- 11 - The Jon Spencer Blues Explosion - Rattling.flac -=- CDDA (100%)
12 -=- 12 - The Jon Spencer Blues Explosion - Blowing My Mind.flac -=- CDDA (100%)
13 -=- 13 - The Jon Spencer Blues Explosion - Track 13 - Damage.flac -=- CDDA (100%)
14 -=- 14 - The Jon Spencer Blues Explosion - Track 14 - Damage.flac -=- CDDA (100%)
Summary 100,00% CDDA
165261892

Cue

REM GENRE Alternative
REM DATE 2004
REM DISCID BE0ACE0E
REM COMMENT "ExactAudioCopy v0.99pb4"
PERFORMER "The Jon Spencer Blues Explosion"
TITLE "Damage"
FILE "01 - The Jon Spencer Blues Explosion - Damage.wav" WAVE
TRACK 01 AUDIO
TITLE "Damage"
PERFORMER "The Jon Spencer Blues Explosion"
INDEX 01 00:00:00
FILE "02 - The Jon Spencer Blues Explosion - Burn It Off.wav" WAVE
TRACK 02 AUDIO
TITLE "Burn It Off"
PERFORMER "The Jon Spencer Blues Explosion"
INDEX 01 00:00:00
TRACK 03 AUDIO
TITLE "Spoiled"
PERFORMER "The Jon Spencer Blues Explosion"
INDEX 00 02:54:30
FILE "03 - The Jon Spencer Blues Explosion - Spoiled.wav" WAVE
INDEX 01 00:00:00
FILE "04 - The Jon Spencer Blues Explosion - Crunchy.wav" WAVE
TRACK 04 AUDIO
TITLE "Crunchy"
PERFORMER "The Jon Spencer Blues Explosion"
INDEX 01 00:00:00
TRACK 05 AUDIO
TITLE "Hot Gossip"
PERFORMER "The Jon Spencer Blues Explosion"
INDEX 00 03:38:02
FILE "05 - The Jon Spencer Blues Explosion - Hot Gossip.wav" WAVE
INDEX 01 00:00:00
FILE "06 - The Jon Spencer Blues Explosion - Mars, Arizona.wav" WAVE
TRACK 06 AUDIO
TITLE "Mars, Arizona"
PERFORMER "The Jon Spencer Blues Explosion"
INDEX 01 00:00:00
FILE "07 - The Jon Spencer Blues Explosion - You Been My Baby.wav" WAVE
TRACK 07 AUDIO
TITLE "You Been My Baby"
PERFORMER "The Jon Spencer Blues Explosion"
INDEX 01 00:00:00
FILE "08 - The Jon Spencer Blues Explosion - Rivals.wav" WAVE
TRACK 08 AUDIO
TITLE "Rivals"
PERFORMER "The Jon Spencer Blues Explosion"
INDEX 01 00:00:00
FILE "09 - The Jon Spencer Blues Explosion - Help These Blues.wav" WAVE
TRACK 09 AUDIO
TITLE "Help These Blues"
PERFORMER "The Jon Spencer Blues Explosion"
INDEX 01 00:00:00
TRACK 10 AUDIO
TITLE "Fed Up And Down Low"
PERFORMER "The Jon Spencer Blues Explosion"
INDEX 00 03:49:38
FILE "10 - The Jon Spencer Blues Explosion - Fed Up And Down Low.wav" WAVE
INDEX 01 00:00:00
FILE "11 - The Jon Spencer Blues Explosion - Rattling.wav" WAVE
TRACK 11 AUDIO
TITLE "Rattling"
PERFORMER "The Jon Spencer Blues Explosion"
INDEX 01 00:00:00
FILE "12 - The Jon Spencer Blues Explosion - Blowing My Mind.wav" WAVE
TRACK 12 AUDIO
TITLE "Blowing My Mind"
PERFORMER "The Jon Spencer Blues Explosion"
INDEX 01 00:00:00
FILE "13 - The Jon Spencer Blues Explosion - Track 13 - Damage.wav" WAVE
TRACK 13 AUDIO
TITLE "Track 13 - Damage"
PERFORMER "The Jon Spencer Blues Explosion"
INDEX 01 00:00:00
FILE "14 - The Jon Spencer Blues Explosion - Track 14 - Damage.wav" WAVE
TRACK 14 AUDIO
TITLE "Track 14 - Damage"
PERFORMER "The Jon Spencer Blues Explosion"
INDEX 01 00:00:00

2012 - Meat + Bone

Label: Boombox
Catalog#: n/a
Продолжительность: 00:39:41
Трэклист:
01. Black Mold (3:17)
02. Bag of Bones (3:54)
03. Boot Cut (3:46)
04. Get Your Pants Off (2:43)
05. Ice Cream Killer (3:18)
06. Strange Baby (3:06)
07. Bottle Baby (3:06)
08. Danger (2:43)
09. Black Thoughts (3:22)
10. Unclear (2:02)
11. Bear Trap (4:16)
12. Zimgar (4:09)

Лог создания рипа

Exact Audio Copy V1.0 beta 3 from 29. August 2011
EAC extraction logfile from 18. September 2012, 17:45
The Jon Spencer Blues Explosion / Meat and Bone
Used drive : Optiarc DVD RW AD-7201S Adapter: 4 ID: 0
Read mode : SecureUtilize accurate stream : YesDefeat audio cache : YesMake use of C2 pointers : No
Read offset correction : 48Overread into Lead-In and Lead-Out : NoFill up missing offset samples with silence : YesDelete leading and trailing silent blocks : NoNull samples used in CRC calculations : YesUsed interface : Native Win32 interface for Win NT & 2000Gap handling : Appended to previous track
Used output format : User Defined EncoderSelected bitrate : 128 kBit/sQuality : HighAdd ID3 tag : NoCommand line compressor : C:\Program Files (x86)\FLAC\flac.exeAdditional command line options : -8 -V -T "ARTIST=%artist%" -T "TITLE=%title%" -T "ALBUM=%albumtitle%" -T "DATE=%year%" -T "TRACKNUMBER=%tracknr%" -T "GENRE=%genre%" -T "PERFORMER=%albuminterpret%" -T "COMPOSER=%composer%" %haslyrics%--tag-from-file=LYRICS="%lyricsfile%"%haslyrics% -T "ALBUMARTIST=%albumartist%" -T "ALBUM ARTIST=%albumartist%" -T "DISCNUMBER=%cdnumber%" -T "TOTALDISCS=%totalcds%" -T "TOTALTRACKS=%numtracks%" -T "COMMENT=%comment%" %source% -o %dest%
TOC of the extracted CD
Track | Start | Length | Start sector | End sector --------------------------------------------------------- 1 | 0:00.00 | 3:16.41 | 0 | 14740 2 | 3:16.41 | 3:54.05 | 14741 | 32295 3 | 7:10.46 | 3:45.55 | 32296 | 49225 4 | 10:56.26 | 2:43.34 | 49226 | 61484 5 | 13:39.60 | 3:18.06 | 61485 | 76340 6 | 16:57.66 | 3:05.58 | 76341 | 90273 7 | 20:03.49 | 3:05.70 | 90274 | 104218 8 | 23:09.44 | 2:43.15 | 104219 | 116458 9 | 25:52.59 | 3:22.07 | 116459 | 131615 10 | 29:14.66 | 2:02.05 | 131616 | 140770 11 | 31:16.71 | 4:16.22 | 140771 | 159992 12 | 35:33.18 | 4:08.08 | 159993 | 178600
Track 1
Filename E:\Temp\2012 - Meat and Bone\01 - Black Mold.wav
Pre-gap length 0:00:02.00
Peak level 100.0 % Extraction speed 1.9 X Track quality 99.9 % Test CRC 845FAC05 Copy CRC 845FAC05 Track not present in AccurateRip database Copy OK
Track 2
Filename E:\Temp\2012 - Meat and Bone\02 - Bag of Bones.wav
Pre-gap length 0:00:02.29
Peak level 99.9 % Extraction speed 2.2 X Track quality 99.9 % Test CRC C8093C88 Copy CRC C8093C88 Track not present in AccurateRip database Copy OK
Track 3
Filename E:\Temp\2012 - Meat and Bone\03 - Boot Cut.wav
Peak level 100.0 % Extraction speed 2.4 X Track quality 99.9 % Test CRC 9D373C97 Copy CRC 9D373C97 Track not present in AccurateRip database Copy OK
Track 4
Filename E:\Temp\2012 - Meat and Bone\04 - Get Your Pants Off.wav
Pre-gap length 0:00:00.67
Peak level 100.0 % Extraction speed 2.8 X Track quality 100.0 % Test CRC E98CD860 Copy CRC E98CD860 Track not present in AccurateRip database Copy OK
Track 5
Filename E:\Temp\2012 - Meat and Bone\05 - Ice Cream Killer.wav
Pre-gap length 0:00:00.22
Peak level 100.0 % Extraction speed 3.0 X Track quality 100.0 % Test CRC 37F2FC31 Copy CRC 37F2FC31 Track not present in AccurateRip database Copy OK
Track 6
Filename E:\Temp\2012 - Meat and Bone\06 - Strange Baby.wav
Pre-gap length 0:00:02.36
Peak level 99.5 % Extraction speed 3.2 X Track quality 100.0 % Test CRC 343C3D54 Copy CRC 343C3D54 Track not present in AccurateRip database Copy OK
Track 7
Filename E:\Temp\2012 - Meat and Bone\07 - Bottle Baby.wav
Pre-gap length 0:00:01.03
Peak level 100.0 % Extraction speed 2.8 X Track quality 99.9 % Test CRC 6ABBC25B Copy CRC 6ABBC25B Track not present in AccurateRip database Copy OK
Track 8
Filename E:\Temp\2012 - Meat and Bone\08 - Danger.wav
Peak level 99.8 % Extraction speed 3.3 X Track quality 100.0 % Test CRC 86E1E4E1 Copy CRC 86E1E4E1 Track not present in AccurateRip database Copy OK
Track 9
Filename E:\Temp\2012 - Meat and Bone\09 - Black Thoughts.wav
Pre-gap length 0:00:01.29
Peak level 99.5 % Extraction speed 3.6 X Track quality 100.0 % Test CRC B3A0C9B7 Copy CRC B3A0C9B7 Track not present in AccurateRip database Copy OK
Track 10
Filename E:\Temp\2012 - Meat and Bone\10 - Unclear.wav
Pre-gap length 0:00:02.33
Peak level 100.0 % Extraction speed 3.3 X Track quality 100.0 % Test CRC 96439BF6 Copy CRC 96439BF6 Track not present in AccurateRip database Copy OK
Track 11
Filename E:\Temp\2012 - Meat and Bone\11 - Bear Trap.wav
Pre-gap length 0:00:01.37
Peak level 100.0 % Extraction speed 3.5 X Track quality 99.9 % Test CRC DF4B75B2 Copy CRC DF4B75B2 Track not present in AccurateRip database Copy OK
Track 12
Filename E:\Temp\2012 - Meat and Bone\12 - Zimgar.wav
Pre-gap length 0:00:01.64
Peak level 100.0 % Extraction speed 4.1 X Track quality 100.0 % Test CRC 98D50DB5 Copy CRC 98D50DB5 Track not present in AccurateRip database Copy OK
None of the tracks are present in the AccurateRip database
No errors occurred
End of status report
---- CUETools DB Plugin V2.1.3
[CTDB TOCID: 4VHXNNIL4h.M61b.iyWMf6BA.zg-] disk not present in database, Submit result: 4VHXNNIL4h.M61b.iyWMf6BA.zg- has been uploaded
==== Log checksum 7875C36F879621614B4445F73426635C241E67393D3BA866186A0BAC3C10ED0E ====

Содержание индексной карты (.CUE)

REM GENRE RockREM DATE 2012REM DISCID A1094D0CREM COMMENT "ExactAudioCopy v1.0b3"PERFORMER "The Jon Spencer Blues Explosion"TITLE "Meat and Bone"FILE "01 - Black Mold.wav" WAVE  TRACK 01 AUDIO    TITLE "Black Mold"    PERFORMER "The Jon Spencer Blues Explosion"    INDEX 01 00:00:00  TRACK 02 AUDIO    TITLE "Bag of Bones"    PERFORMER "The Jon Spencer Blues Explosion"    INDEX 00 03:14:12FILE "02 - Bag of Bones.wav" WAVE    INDEX 01 00:00:00FILE "03 - Boot Cut.wav" WAVE  TRACK 03 AUDIO    TITLE "Boot Cut"    PERFORMER "The Jon Spencer Blues Explosion"    INDEX 01 00:00:00  TRACK 04 AUDIO    TITLE "Get Your Pants Off"    PERFORMER "The Jon Spencer Blues Explosion"    INDEX 00 03:44:63FILE "04 - Get Your Pants Off.wav" WAVE    INDEX 01 00:00:00  TRACK 05 AUDIO    TITLE "Ice Cream Killer"    PERFORMER "The Jon Spencer Blues Explosion"    INDEX 00 02:43:12FILE "05 - Ice Cream Killer.wav" WAVE    INDEX 01 00:00:00  TRACK 06 AUDIO    TITLE "Strange Baby"    PERFORMER "The Jon Spencer Blues Explosion"    INDEX 00 03:15:45FILE "06 - Strange Baby.wav" WAVE    INDEX 01 00:00:00  TRACK 07 AUDIO    TITLE "Bottle Baby"    PERFORMER "The Jon Spencer Blues Explosion"    INDEX 00 03:04:55FILE "07 - Bottle Baby.wav" WAVE    INDEX 01 00:00:00FILE "08 - Danger.wav" WAVE  TRACK 08 AUDIO    TITLE "Danger"    PERFORMER "The Jon Spencer Blues Explosion"    INDEX 01 00:00:00  TRACK 09 AUDIO    TITLE "Black Thoughts"    PERFORMER "The Jon Spencer Blues Explosion"    INDEX 00 02:41:61FILE "09 - Black Thoughts.wav" WAVE    INDEX 01 00:00:00  TRACK 10 AUDIO    TITLE "Unclear"    PERFORMER "The Jon Spencer Blues Explosion"    INDEX 00 03:19:49FILE "10 - Unclear.wav" WAVE    INDEX 01 00:00:00  TRACK 11 AUDIO    TITLE "Bear Trap"    PERFORMER "The Jon Spencer Blues Explosion"    INDEX 00 02:00:43FILE "11 - Bear Trap.wav" WAVE    INDEX 01 00:00:00  TRACK 12 AUDIO    TITLE "Zimgar"    PERFORMER "The Jon Spencer Blues Explosion"    INDEX 00 04:14:33FILE "12 - Zimgar.wav" WAVE    INDEX 01 00:00:00

Лог проверки качества

AUDIOCHECKER v2.0 beta (build 457) - by Dester - opdester@freemail.hu~~~~~~~~~~~~~~~~~~~~~~~~~~~~~~~~~~-=== DO NOT EDIT THIS FILE! ===-
Path: ...\The Jon Spencer Blues Explosion - 2012 - Meat and Bone
01 -=- 01 - Black Mold.flac -=- CDDA (100%)02 -=- 02 - Bag of Bones.flac -=- CDDA (100%)03 -=- 03 - Boot Cut.flac -=- CDDA (100%)04 -=- 04 - Get Your Pants Off.flac -=- CDDA (100%)05 -=- 05 - Ice Cream Killer.flac -=- CDDA (99%)06 -=- 06 - Strange Baby.flac -=- CDDA (100%)07 -=- 07 - Bottle Baby.flac -=- CDDA (100%)08 -=- 08 - Danger.flac -=- CDDA (99%)09 -=- 09 - Black Thoughts.flac -=- CDDA (100%)10 -=- 10 - Unclear.flac -=- CDDA (100%)11 -=- 11 - Bear Trap.flac -=- CDDA (100%)12 -=- 12 - Zimgar.flac -=- CDDA (100%)
Summary 99,83% CDDA
240336196
-+ 2015 - Freedom Tower. Update Torrent file, pls-
Вы не можете начинать темы
Вы не можете отвечать на сообщения
Вы не можете редактировать свои сообщения
Вы не можете удалять свои сообщения
Вы не можете голосовать в опросах
Вы не можете прикреплять файлы к сообщениям
Вы можете скачивать файлы
!ВНИМАНИЕ!

Сайт не предоставляет электронные версии произведений, а занимается лишь коллекционированием и каталогизацией ссылок, присылаемых и публикуемых на форуме нашими читателями. Если вы являетесь правообладателем какого-либо представленного материала и не желаете, чтобы ссылка на него находилась в нашем каталоге, свяжитесь с нами, и мы незамедлительно удалим ее. Файлы для обмена на трекере предоставлены пользователями сайта, и администрация не несет ответственности за их содержание. Просьба не заливать файлы, защищенные авторскими правами, а также файлы нелегального содержания!

Искали программы, игры, дополнения, музыка mp3, аниме, аудио книги, журналы? Добро пожаловать на свободный торрент трекер Torrents, у нас можно скачать бесплатно, без смс и регистрации и прочих ограничений лучшие, отборные сборки программ, игр. Скачать торрентом не составит труда даже не опытному пользователю. Раздачи ежедневно обновляются, только лучшие и качественные раздачи, подробные описания и скриншоты. Огромная коллекция программ для работы со звуком, графикой, дизайном, а так же множество плагинов и инструментов к ним с подробной инструкцией и рекомендациями. Прошивки для навигаторов, карты. Разнообразные игры, для Windows, Linux. В коллекцие есть и старые игры любых жанров, Rpg, Action, Shooter, strategy Множество дополнений, модификаций, сценариев для популярных игр в жанре экш, рпг, гонки, стратегии, логические игры. Множество аддонов и сценариев для Microsoft Flight Simulator Большая коллекция книг, учебников. Если нет возможности купить печатное издание - смело скачивайте цифровую версию книги или, быть может, журнала. Не любите читать - можно загрузить бесплатно аудикнигу. Для веб дизайнеров и программистов так же найдется множество специализированного софта, таких как: редакторы с подсветкой, среды программирования, компоненты, системы управления базами данных, разнообразные скрипты и шаблоны. Не так давно у нас появился материал для автолюбителей и владельцев мото - оригинальные и неоригинальные каталоги запчастей, книги и журналы по ремонту и обслуживанию, видеоуроки, статьи по чип тюнингу, прошивкам. Процедура получения контента элементарная, достаточно просто скачать торрент файл и добавить его в загрузку в вашем торрент клиенте. Если у вас нет специального торрент клиента, вы можете его скачать у нас.