The End of the F***ing World – HD – DUB/LEG Online | Magic Rampage | A Very English Scandal

(Rock\'n\'Roll, Trash Garage Rock, Blues Rock, Voodoo Rhythm) [CD] The Sex Organs - Intergalactic Sex Tourists - 2016, FLAC (tracks+.cue), lossless 

Цитировать
The Sex Organs
Intergalactic Sex Tourists
Жанр: Rock'n'Roll, Trash Garage Rock, Blues Rock
Носитель: CD
Страна-производитель диска (релиза): Switzerland
Год издания: 2016
Издатель (лейбл): Voodoo Rhythm Records
Номер по каталогу: VRCD98
Страна исполнителя (группы): From Outer Space
Аудиокодек: FLAC (*.flac)
Тип рипа: tracks+.cue
Битрейт аудио: lossless
Продолжительность: 00:29:49
Источник (релизер): Red, donkeybrothel
Наличие сканов в содержимом раздачи: 1 да
Треклист:
01. Foreplay
02. Outer Space
03. Tonight
04. Lubrication
05. Camel Toe Twist
06. Drowning
Written-By – The Gories
07. I Wanna Be A Pussy
08. Itch
09. Orgasms
10. Earth Blues
11. Fuck Off
Futuristic Primitive Rock n' Roll Trash Garage Science Mono as Fuck !!!-

Логи

Лог создания рипа

Exact Audio Copy V1.3 from 2. September 2016
EAC extraction logfile from 9. February 2017, 21:23
The Sex Organs / Intergalactic Sex Tourists
Used drive : hp DVD A DH16ABSH Adapter: 1 ID: 0
Read mode : SecureUtilize accurate stream : YesDefeat audio cache : YesMake use of C2 pointers : No
Read offset correction : 6Overread into Lead-In and Lead-Out : NoFill up missing offset samples with silence : YesDelete leading and trailing silent blocks : NoNull samples used in CRC calculations : YesUsed interface : Native Win32 interface for Win NT & 2000Gap handling : Appended to previous track
Used output format : User Defined EncoderSelected bitrate : 1024 kBit/sQuality : HighAdd ID3 tag : NoCommand line compressor : C:\Program Files (x86)\Exact Audio Copy\Flac\flac.exeAdditional command line options : -8 -e -p -V -T "ARTIST=%artist%" -T "TITLE=%title%" -T "ALBUM=%albumtitle%" -T "DATE=%year%" -T "TRACKNUMBER=%tracknr%" -T "GENRE=%genre%" -T "PERFORMER=%albuminterpret%" -T "COMPOSER=%composer%" %haslyrics%--tag-from-file=LYRICS="%lyricsfile%"%haslyrics% -T "ALBUMARTIST=%albumartist%" -T "DISCNUMBER=%cdnumber%" -T "TOTALDISCS=%totalcds%" -T "TOTALTRACKS=%numtracks%" -T "COMMENT=%comment%" %source% -o %dest%
TOC of the extracted CD
Track | Start | Length | Start sector | End sector --------------------------------------------------------- 1 | 0:00.00 | 0:54.70 | 0 | 4119 2 | 0:54.70 | 2:30.33 | 4120 | 15402 3 | 3:25.28 | 2:04.02 | 15403 | 24704 4 | 5:29.30 | 2:42.68 | 24705 | 36922 5 | 8:12.23 | 3:05.42 | 36923 | 50839 6 | 11:17.65 | 2:38.59 | 50840 | 62748 7 | 13:56.49 | 3:35.40 | 62749 | 78913 8 | 17:32.14 | 2:59.06 | 78914 | 92344 9 | 20:31.20 | 2:16.74 | 92345 | 102618 10 | 22:48.19 | 1:45.05 | 102619 | 110498 11 | 24:33.24 | 5:15.56 | 110499 | 134179
Track 1
Filename C:\EAC\The Sex Organs - Intergalactic Sex Tourists (2017) [FLAC]\01 - Foreplay.wav
Pre-gap length 0:00:02.00
Peak level 45.9 % Extraction speed 2.1 X Track quality 100.0 % Test CRC C24E066C Copy CRC C24E066C Track not present in AccurateRip database Copy OK
Track 2
Filename C:\EAC\The Sex Organs - Intergalactic Sex Tourists (2017) [FLAC]\02 - Outer Space.wav
Peak level 97.9 % Extraction speed 3.2 X Track quality 100.0 % Test CRC 16A05EDD Copy CRC 16A05EDD Track not present in AccurateRip database Copy OK
Track 3
Filename C:\EAC\The Sex Organs - Intergalactic Sex Tourists (2017) [FLAC]\03 - Tonight.wav
Peak level 97.3 % Extraction speed 3.2 X Track quality 100.0 % Test CRC 7ACFA3E5 Copy CRC 7ACFA3E5 Track not present in AccurateRip database Copy OK
Track 4
Filename C:\EAC\The Sex Organs - Intergalactic Sex Tourists (2017) [FLAC]\04 - Lubrication.wav
Peak level 96.5 % Extraction speed 3.6 X Track quality 100.0 % Test CRC B21C35C5 Copy CRC B21C35C5 Track not present in AccurateRip database Copy OK
Track 5
Filename C:\EAC\The Sex Organs - Intergalactic Sex Tourists (2017) [FLAC]\05 - Camel Toe Twist.wav
Peak level 96.9 % Extraction speed 3.0 X Track quality 99.9 % Test CRC 713BAC99 Copy CRC 713BAC99 Track not present in AccurateRip database Copy OK
Track 6
Filename C:\EAC\The Sex Organs - Intergalactic Sex Tourists (2017) [FLAC]\06 - Drowning.wav
Peak level 96.6 % Extraction speed 4.0 X Track quality 100.0 % Test CRC B2C738DF Copy CRC B2C738DF Track not present in AccurateRip database Copy OK
Track 7
Filename C:\EAC\The Sex Organs - Intergalactic Sex Tourists (2017) [FLAC]\07 - I Wanna Be A Pussy.wav
Peak level 97.0 % Extraction speed 4.5 X Track quality 100.0 % Test CRC CC187D79 Copy CRC CC187D79 Track not present in AccurateRip database Copy OK
Track 8
Filename C:\EAC\The Sex Organs - Intergalactic Sex Tourists (2017) [FLAC]\08 - Itch.wav
Peak level 96.7 % Extraction speed 4.6 X Track quality 100.0 % Test CRC E75DC485 Copy CRC E75DC485 Track not present in AccurateRip database Copy OK
Track 9
Filename C:\EAC\The Sex Organs - Intergalactic Sex Tourists (2017) [FLAC]\09 - Orgasms.wav
Peak level 96.2 % Extraction speed 4.4 X Track quality 100.0 % Test CRC 21DC1EC7 Copy CRC 21DC1EC7 Track not present in AccurateRip database Copy OK
Track 10
Filename C:\EAC\The Sex Organs - Intergalactic Sex Tourists (2017) [FLAC]\10 - Earth Blues.wav
Peak level 96.6 % Extraction speed 4.3 X Track quality 100.0 % Test CRC 552F0119 Copy CRC 552F0119 Track not present in AccurateRip database Copy OK
Track 11
Filename C:\EAC\The Sex Organs - Intergalactic Sex Tourists (2017) [FLAC]\11 - Fuck Off.wav
Peak level 97.7 % Extraction speed 4.6 X Track quality 99.9 % Test CRC C9D18D3D Copy CRC C9D18D3D Track not present in AccurateRip database Copy OK
None of the tracks are present in the AccurateRip database
No errors occurred
End of status report
---- CUETools DB Plugin V2.1.6
[CTDB TOCID: 7B6nK31odvqCj.dlHa47frjqW2M-] foundSubmit result: 7B6nK31odvqCj.dlHa47frjqW2M- has been confirmedTrack | CTDB Status 1 | (1/1) Accurately ripped 2 | (1/1) Accurately ripped 3 | (1/1) Accurately ripped 4 | (1/1) Accurately ripped 5 | (1/1) Accurately ripped 6 | (1/1) Accurately ripped 7 | (1/1) Accurately ripped 8 | (1/1) Accurately ripped 9 | (1/1) Accurately ripped 10 | (1/1) Accurately ripped 11 | (1/1) Accurately ripped
==== Log checksum B6D88BAE1393C1278FA64E77964DFABA1B2FD66450C49C049A7BBF0C4BC96F61 ====

Содержание индексной карты (.CUE)

REM GENRE "Rock & Roll"REM DATE 2017REM DISCID 8606FD0BREM COMMENT "ExactAudioCopy v1.3"CATALOG 7640148982535PERFORMER "The Sex Organs"TITLE "Intergalactic Sex Tourists"REM COMPOSER ""FILE "01 - Foreplay.wav" WAVE  TRACK 01 AUDIO    TITLE "Foreplay"    PERFORMER "The Sex Organs"    REM COMPOSER ""    ISRC CH6131698001    INDEX 01 00:00:00FILE "02 - Outer Space.wav" WAVE  TRACK 02 AUDIO    TITLE "Outer Space"    PERFORMER "The Sex Organs"    REM COMPOSER ""    ISRC CH6131698002    INDEX 01 00:00:00FILE "03 - Tonight.wav" WAVE  TRACK 03 AUDIO    TITLE "Tonight"    PERFORMER "The Sex Organs"    REM COMPOSER ""    ISRC CH6131698003    INDEX 01 00:00:00FILE "04 - Lubrication.wav" WAVE  TRACK 04 AUDIO    TITLE "Lubrication"    PERFORMER "The Sex Organs"    REM COMPOSER ""    ISRC CH6131698004    INDEX 01 00:00:00FILE "05 - Camel Toe Twist.wav" WAVE  TRACK 05 AUDIO    TITLE "Camel Toe Twist"    PERFORMER "The Sex Organs"    REM COMPOSER ""    ISRC CH6131698005    INDEX 01 00:00:00FILE "06 - Drowning.wav" WAVE  TRACK 06 AUDIO    TITLE "Drowning"    PERFORMER "The Sex Organs"    REM COMPOSER ""    ISRC CH6131698006    INDEX 01 00:00:00FILE "07 - I Wanna Be A Pussy.wav" WAVE  TRACK 07 AUDIO    TITLE "I Wanna Be A Pussy"    PERFORMER "The Sex Organs"    REM COMPOSER ""    ISRC CH6131698007    INDEX 01 00:00:00FILE "08 - Itch.wav" WAVE  TRACK 08 AUDIO    TITLE "Itch"    PERFORMER "The Sex Organs"    REM COMPOSER ""    ISRC CH6131698008    INDEX 01 00:00:00FILE "09 - Orgasms.wav" WAVE  TRACK 09 AUDIO    TITLE "Orgasms"    PERFORMER "The Sex Organs"    REM COMPOSER ""    ISRC CH6131698009    INDEX 01 00:00:00FILE "10 - Earth Blues.wav" WAVE  TRACK 10 AUDIO    TITLE "Earth Blues"    PERFORMER "The Sex Organs"    REM COMPOSER ""    ISRC CH6131698010    INDEX 01 00:00:00FILE "11 - Fuck Off.wav" WAVE  TRACK 11 AUDIO    TITLE "Fuck Off"    PERFORMER "The Sex Organs"    REM COMPOSER ""    ISRC CH6131698011    INDEX 01 00:00:00

Лог проверки качества

fooCDtect - foobar2000 + auCDtect, baralgin.
auCDtect: CD records authenticity detector, version 0.8.2Copyright (c) 2004 Oleg Berngardt. All rights reserved.Copyright (c) 2004 Alexander Djourik. All rights reserved.
mode: 0
=========================================== Track: 01. Foreplay Quality: CDDA 100%=========================================== Track: 02. Outer Space Quality: CDDA 99%=========================================== Track: 03. Tonight Quality: CDDA 100%=========================================== Track: 04. Lubrication Quality: CDDA 100%=========================================== Track: 05. Camel Toe Twist Quality: CDDA 99%=========================================== Track: 06. Drowning Quality: CDDA 100%=========================================== Track: 07. I Wanna Be A Pussy Quality: CDDA 100%=========================================== Track: 08. Itch Quality: CDDA 100%=========================================== Track: 09. Orgasms Quality: CDDA 100%=========================================== Track: 10. Earth Blues Quality: CDDA 100%=========================================== Track: 11. Fuck Off Quality: CDDA 100%===========================================

Об исполнителе (группе)


PURE PRIMITIVE SEX’N’ROLL AND DIRTY GARAGE FROM OUTER PACE PLAYED BY 2 GENITALS THIS NOT ONLY A RECORD ITS A WHOLE RADIO PLAY !!!
The SEX ORGANS have landed on your planet! They traveled light-years across the universe on a mission to planet earth to bring YOU their special inter-galactic brand of SEX&ROLL. Primitive pounding drums, wild screeching guitars and shameless lyrics!!! Don’t hesitate to pick up this record and give it a spin. It will have you jumping all over the place! Listen and shiver to actual live encounters with real humans! Meanwhile, relive their epic adventure through the one and only: ”SEX ORGANS - MISSION TO EARTH!” board game! Be a SEX ORGAN yourself and get ready to turn-on the world! Be the proud owner of this incredible testimony and make the world a sexier place!
The SEX ORGANS flew their spacecraft to Italy and invaded Outside Inside Studios, captured and tortured the engineer Matt Bordin to record an alien noise masterpiece. From Italy they beamed themselves to Switzerland's Voodoo Rhythm Records Headquarters to spread their amazing tunes around the world with the help of E.T. lover and sympathizer Reverend Beat-Man!
This record is not just one song following the next, but more of a series of episodic encounters including eye-witness accounts of the first sightings of the SEX ORGANS and special reports following the world's reaction to one of the most important events in Human history. The LP also includes a CD and a sexy A2 poster! Futuristic Primitive Rock n' Roll Trash Garage Science Mono as Fuck !!! Game & Skits concept by The Sex Organs, Voice-overs by Chris Rosales, Game art work by Maia Matches, Photography by Mischa Scherrer (Cover
In the year 2013 NASA received a strange signal from the Andromeda galaxy. After several months of study by some of the top linguistics experts on the planet the signal was translated and discovered to be a request to visit the planet Earth by two representatives of a planet inhabited by beings resembling human sexual organs. The message also stated that The Sex Organs had been monitoring human sexual activity for the last several decades and felt that it was time to come to our planet because "Human sexuality has become wrong and un-sexy". The Sex Organs started their tour of Earth at The Funtastic Dracula Carnival in 2014 and plan on holding seminars and "noise therapy sessions" at the hottest rock and roll festivals in Europe this year such as Cosmic Trip Festival in France and Hipsville in Surrey, U.K. The Sex Organs recorded their first Vinyl in the red light district of Amsterdam, Holland and found Voodoo Rhytm in Bern Switzerland to be the sexiest label for their First release. Earlier this year The Sex Organs signed an exclusive recording contract with Voodoo Rhythm Records in Bern, Switzerland to get their message of "good sex" and "loud noises" to the rest of the human race.
LINE UP :
- BONE - GUITAR VOCALS
- JACK - DRUMS VOCALS
FACTS:
- From Zürich / Bern / Amsterdam
- feat Members of: the Jackets, Anomalys
Вы не можете начинать темы
Вы не можете отвечать на сообщения
Вы не можете редактировать свои сообщения
Вы не можете удалять свои сообщения
Вы не можете голосовать в опросах
Вы не можете прикреплять файлы к сообщениям
Вы можете скачивать файлы
!ВНИМАНИЕ!

Сайт не предоставляет электронные версии произведений, а занимается лишь коллекционированием и каталогизацией ссылок, присылаемых и публикуемых на форуме нашими читателями. Если вы являетесь правообладателем какого-либо представленного материала и не желаете, чтобы ссылка на него находилась в нашем каталоге, свяжитесь с нами, и мы незамедлительно удалим ее. Файлы для обмена на трекере предоставлены пользователями сайта, и администрация не несет ответственности за их содержание. Просьба не заливать файлы, защищенные авторскими правами, а также файлы нелегального содержания!

Искали программы, игры, дополнения, музыка mp3, аниме, аудио книги, журналы? Добро пожаловать на свободный торрент трекер Torrents, у нас можно скачать бесплатно, без смс и регистрации и прочих ограничений лучшие, отборные сборки программ, игр. Скачать торрентом не составит труда даже не опытному пользователю. Раздачи ежедневно обновляются, только лучшие и качественные раздачи, подробные описания и скриншоты. Огромная коллекция программ для работы со звуком, графикой, дизайном, а так же множество плагинов и инструментов к ним с подробной инструкцией и рекомендациями. Прошивки для навигаторов, карты. Разнообразные игры, для Windows, Linux. В коллекцие есть и старые игры любых жанров, Rpg, Action, Shooter, strategy Множество дополнений, модификаций, сценариев для популярных игр в жанре экш, рпг, гонки, стратегии, логические игры. Множество аддонов и сценариев для Microsoft Flight Simulator Большая коллекция книг, учебников. Если нет возможности купить печатное издание - смело скачивайте цифровую версию книги или, быть может, журнала. Не любите читать - можно загрузить бесплатно аудикнигу. Для веб дизайнеров и программистов так же найдется множество специализированного софта, таких как: редакторы с подсветкой, среды программирования, компоненты, системы управления базами данных, разнообразные скрипты и шаблоны. Не так давно у нас появился материал для автолюбителей и владельцев мото - оригинальные и неоригинальные каталоги запчастей, книги и журналы по ремонту и обслуживанию, видеоуроки, статьи по чип тюнингу, прошивкам. Процедура получения контента элементарная, достаточно просто скачать торрент файл и добавить его в загрузку в вашем торрент клиенте. Если у вас нет специального торрент клиента, вы можете его скачать у нас.