Watch movie | SolveigMM Video Splitter 6 1 1808 03 Business Edition + Serial key | One Mississippi

(Surf, Spy, Exotica, Horror) Stereophonic Space Sound Unlimited - Дискография (7 Альбомов) - 1998-2015, FLAC (image+.cue) lossless 

Цитировать
Stereophonic Space Sound Unlimited
Дискография (7 Альбомов)
- -
Жанр: Surf, Spy, Exotica, Horror
Страна-производитель диска: USA
Год издания диска: 1998-2015
Издатель (лейбл): Dionysus Records
Аудио кодек: FLAC (*.flac)
Тип рипа: image+.cue
Битрейт аудио: lossless
Источник (релизер):
Наличие сканов в содержимом раздачи: да
-24 Июня 2018 года добавлен альбом
2015 - Music from the 6th Floor
Желающие могут ознакомиться.
-

1998 - The Fluid Soundbox - 40:33

01. Triple Threat
02. Something For Johnny
03. The Wobbler
04. Formulator
05. Theme From Stella Interstellar
06. Girl From Acapulco
07. Robot A Go Go
08. Der Ermittler
09. Dragon City
10. Project QX 5
11. The Freddie Pt. 1
12. Mummy Walk
13. Love Godess
14. Budapest Incident
-

***EAC***

Exact Audio Copy V0.99 prebeta 4 from 23. January 2008
Отчёт EAC об извлечении, выполненном 6. января 2011, 21:43
Stereophonic Space Sound Unlimited / the Fluid Soundbox
Дисковод: PLEXTOR DVDR PX-880SA Adapter: 1 ID: 1
Режим чтения : ДостоверностьИспользование точного потока : ДаОтключение кэша аудио : ДаИспользование указателей C2 : Нет
Коррекция смещения при чтении : 6Способность читать области Lead-in и Lead-out : НетЗаполнение пропущенных сэмплов тишиной : ДаУдаление блоков с тишиной в начале и конце : НетПри вычислениях CRC использовались нулевые сэмплы : ДаИнтерфейс : Установленный внешний ASPI-интерфейс
Выходной формат : Пользовательский кодировщикВыбранный битрейт : 1024 kBit/sКачество : ВысокийДобавление ID3-тэга : НетУтилита сжатия : C:\Program Files\Exact Audio Copy\FLAC\FLAC.EXEДополнительные параметры : -5 -V -T "ARTIST=%a" -T "TITLE=%t" -T "ALBUM=%g" -T "DATE=%y" -T "TRACKNUMBER=%n" -T "GENRE=%m" -T "COMMENT=%e" %s -o %d
TOC извлечённого CD
Трек | Старт | Длительность | Начальный сектор | Конечный сектор --------------------------------------------------------------------- 1 | 0:00.00 | 2:55.10 | 0 | 13134 2 | 2:55.10 | 2:49.15 | 13135 | 25824 3 | 5:44.25 | 3:14.02 | 25825 | 40376 4 | 8:58.27 | 3:01.63 | 40377 | 54014 5 | 12:00.15 | 3:10.52 | 54015 | 68316 6 | 15:10.67 | 2:53.15 | 68317 | 81306 7 | 18:04.07 | 1:59.03 | 81307 | 90234 8 | 20:03.10 | 3:04.65 | 90235 | 104099 9 | 23:08.00 | 3:04.07 | 104100 | 117906 10 | 26:12.07 | 3:01.65 | 117907 | 131546 11 | 29:13.72 | 2:37.18 | 131547 | 143339 12 | 31:51.15 | 2:50.47 | 143340 | 156136 13 | 34:41.62 | 2:25.53 | 156137 | 167064 14 | 37:07.40 | 3:25.52 | 167065 | 182491
Характеристики диапазона извлечения и сообщения об ошибках
Выбранный диапазон
Имя файла I:\BitComet\Stereophonic Space Sound Unlimited\1998-the Fluid Soundbox\Stereophonic Space Sound Unlimited - the Fluid Soundbox.wav
Пиковый уровень 100.0 % Качество диапазона 100.0 % CRC копии 350C6564 Копирование... OK
Ошибок не произошло
AccurateRip: сводка
Трек 1 точное извлечение (доверие 3) [92D34671]Трек 2 точное извлечение (доверие 3) [3E13C6BB]Трек 3 точное извлечение (доверие 3) [47440F60]Трек 4 точное извлечение (доверие 3) [33715BCC]Трек 5 точное извлечение (доверие 3) [7DACE110]Трек 6 точное извлечение (доверие 3) [2AAF87ED]Трек 7 точное извлечение (доверие 3) [DEF8D959]Трек 8 точное извлечение (доверие 3) [3BE89C54]Трек 9 точное извлечение (доверие 3) [4133FCB5]Трек 10 точное извлечение (доверие 2) [9BF0CE98]Трек 11 точное извлечение (доверие 2) [B3467939]Трек 12 точное извлечение (доверие 3) [674780DE]Трек 13 точное извлечение (доверие 3) [5042731F]Трек 14 точное извлечение (доверие 3) [5D7F0702]
Все треки извлечены точно
Конец отчёта

2000 - Plays Lost TV Themes - 33:59

01. The Bossa Nova Squad
02. Funky Planet (From "Space Mission No.12")
03. Korta Rides Again
04. The Case (From "The Bossa Nova Squad")
05. Space Mission Number 12
06. Theme From "The Organizer"
07. Black Cat Mystery (from "Follow the Duke")
08. Shark Surfin' Girl
09. Revenge of the Belly Dancer (from "Korla Rides Again")
10. Enter the Tiger
11. Follow the Duke
12. Blues For The Organizer
-

***EAC***

Exact Audio Copy V0.99 prebeta 4 from 23. January 2008
Отчёт EAC об извлечении, выполненном 6. января 2011, 21:34
Stereophonic Space Sound Unlimited / Plays Lost TV Themes
Дисковод: PLEXTOR DVDR PX-880SA Adapter: 1 ID: 1
Режим чтения : ДостоверностьИспользование точного потока : ДаОтключение кэша аудио : ДаИспользование указателей C2 : Нет
Коррекция смещения при чтении : 6Способность читать области Lead-in и Lead-out : НетЗаполнение пропущенных сэмплов тишиной : ДаУдаление блоков с тишиной в начале и конце : НетПри вычислениях CRC использовались нулевые сэмплы : ДаИнтерфейс : Установленный внешний ASPI-интерфейс
Выходной формат : Пользовательский кодировщикВыбранный битрейт : 1024 kBit/sКачество : ВысокийДобавление ID3-тэга : НетУтилита сжатия : C:\Program Files\Exact Audio Copy\FLAC\FLAC.EXEДополнительные параметры : -5 -V -T "ARTIST=%a" -T "TITLE=%t" -T "ALBUM=%g" -T "DATE=%y" -T "TRACKNUMBER=%n" -T "GENRE=%m" -T "COMMENT=%e" %s -o %d
TOC извлечённого CD
Трек | Старт | Длительность | Начальный сектор | Конечный сектор --------------------------------------------------------------------- 1 | 0:00.00 | 3:04.43 | 0 | 13842 2 | 3:04.43 | 2:45.51 | 13843 | 26268 3 | 5:50.19 | 2:35.26 | 26269 | 37919 4 | 8:25.45 | 3:14.29 | 37920 | 52498 5 | 11:39.74 | 3:03.04 | 52499 | 66227 6 | 14:43.03 | 2:22.12 | 66228 | 76889 7 | 17:05.15 | 3:23.23 | 76890 | 92137 8 | 20:28.38 | 1:42.09 | 92138 | 99796 9 | 22:10.47 | 3:16.58 | 99797 | 114554 10 | 25:27.30 | 2:21.48 | 114555 | 125177 11 | 27:49.03 | 2:38.11 | 125178 | 137038 12 | 30:27.14 | 3:32.52 | 137039 | 152990
Характеристики диапазона извлечения и сообщения об ошибках
Выбранный диапазон
Имя файла I:\BitComet\Stereophonic Space Sound Unlimited\1997-Plays Lost TV Themes\Stereophonic Space Sound Unlimited - Plays Lost TV Themes.wav
Пиковый уровень 98.8 % Качество диапазона 99.9 % CRC копии 2F08A3B9 Копирование... OK
Ошибок не произошло
AccurateRip: сводка
Трек 1 точность не определена (достоверность 1) [CDFB20B6], AccurateRip вернул [277CCA8C]Трек 2 нет в базе данныхТрек 3 точность не определена (достоверность 1) [9DE6FC6D], AccurateRip вернул [2636CB2F]Трек 4 нет в базе данныхТрек 5 точность не определена (достоверность 1) [1C38F5B3], AccurateRip вернул [5DB9F627]Трек 6 точность не определена (достоверность 1) [FB7137E3], AccurateRip вернул [A4FA9E21]Трек 7 точность не определена (достоверность 1) [0326E308], AccurateRip вернул [01D6645A]Трек 8 точность не определена (достоверность 1) [D9F7B36E], AccurateRip вернул [254641A2]Трек 9 точность не определена (достоверность 1) [0C6D8F3C], AccurateRip вернул [76F0D210]Трек 10 точность не определена (достоверность 1) [141309BB], AccurateRip вернул [B95BCC3F]Трек 11 точность не определена (достоверность 1) [A73B799A], AccurateRip вернул [41C86E78]Трек 12 точность не определена (достоверность 1) [E0E4E58E], AccurateRip вернул [1BCB22C6]
0 трек(и) не удалось проверить на точность 2 трек(и) не содержатся в базе AccurateRip

2000 - The Spacesound Effect - 44:36

01. The Spacesound Effect
02. Señor Lopez
03. Samba Patrol
04. Lino Ventura
05. Section 5
06. Haunted
07. Blues for K.
08. The Twisting Spy
09. Little Ghoul
10. Riviera Drive
11. Double Agent
12. Wheelspin
13. Cool Move
14. Crimeville
15. Waltz Underneath
-

***EAC***

Exact Audio Copy V0.99 prebeta 4 from 23. January 2008
Отчёт EAC об извлечении, выполненном 6. января 2011, 23:44
Stereophonic Space Sound Unlimited / the Spacesound Effect
Дисковод: PLEXTOR DVDR PX-880SA Adapter: 1 ID: 1
Режим чтения : ДостоверностьИспользование точного потока : ДаОтключение кэша аудио : ДаИспользование указателей C2 : Нет
Коррекция смещения при чтении : 6Способность читать области Lead-in и Lead-out : НетЗаполнение пропущенных сэмплов тишиной : ДаУдаление блоков с тишиной в начале и конце : НетПри вычислениях CRC использовались нулевые сэмплы : ДаИнтерфейс : Установленный внешний ASPI-интерфейс
Выходной формат : Пользовательский кодировщикВыбранный битрейт : 1024 kBit/sКачество : ВысокийДобавление ID3-тэга : НетУтилита сжатия : C:\Program Files\Exact Audio Copy\FLAC\FLAC.EXEДополнительные параметры : -5 -V -T "ARTIST=%a" -T "TITLE=%t" -T "ALBUM=%g" -T "DATE=%y" -T "TRACKNUMBER=%n" -T "GENRE=%m" -T "COMMENT=%e" %s -o %d
TOC извлечённого CD
Трек | Старт | Длительность | Начальный сектор | Конечный сектор --------------------------------------------------------------------- 1 | 0:00.00 | 3:36.67 | 0 | 16266 2 | 3:36.67 | 2:33.18 | 16267 | 27759 3 | 6:10.10 | 3:09.52 | 27760 | 41986 4 | 9:19.62 | 2:54.60 | 41987 | 55096 5 | 12:14.47 | 2:57.50 | 55097 | 68421 6 | 15:12.22 | 3:23.70 | 68422 | 83716 7 | 18:36.17 | 2:54.43 | 83717 | 96809 8 | 21:30.60 | 3:40.12 | 96810 | 113321 9 | 25:10.72 | 3:02.15 | 113322 | 126986 10 | 28:13.12 | 2:35.03 | 126987 | 138614 11 | 30:48.15 | 2:45.05 | 138615 | 150994 12 | 33:33.20 | 2:12.07 | 150995 | 160901 13 | 35:45.27 | 2:59.45 | 160902 | 174371 14 | 38:44.72 | 2:18.23 | 174372 | 184744 15 | 41:03.20 | 3:33.47 | 184745 | 200766
Характеристики диапазона извлечения и сообщения об ошибках
Выбранный диапазон
Имя файла I:\BitComet\Stereophonic Space Sound Unlimited\2000-the Spacesound Effect\Stereophonic Space Sound Unlimited - the Spacesound Effect.wav
Пиковый уровень 94.6 % Качество диапазона 100.0 % CRC копии 3C915D1E Копирование... OK
Ошибок не произошло
AccurateRip: сводка
Трек 1 точность не определена (достоверность 1) [207EF949], AccurateRip вернул [F013538C]Трек 2 точность не определена (достоверность 1) [F359467E], AccurateRip вернул [FE59F9EF]Трек 3 точность не определена (достоверность 1) [29930244], AccurateRip вернул [75BF9586]Трек 4 точность не определена (достоверность 1) [02B4AA07], AccurateRip вернул [BEA400AE]Трек 5 точность не определена (достоверность 1) [2B10A1CC], AccurateRip вернул [1841FF7E]Трек 6 точность не определена (достоверность 1) [FBC1AE0D], AccurateRip вернул [74464BC8]Трек 7 точность не определена (достоверность 1) [ED648D99], AccurateRip вернул [9E15D074]Трек 8 точность не определена (достоверность 1) [AE25547A], AccurateRip вернул [45032325]Трек 9 точность не определена (достоверность 1) [C5004924], AccurateRip вернул [0ED09E3E]Трек 10 точность не определена (достоверность 1) [0C7588DA], AccurateRip вернул [41D6BA39]Трек 11 точность не определена (достоверность 1) [A530E603], AccurateRip вернул [5B70094C]Трек 12 точность не определена (достоверность 1) [90307537], AccurateRip вернул [95473BA2]Трек 13 точность не определена (достоверность 1) [D562CBCF], AccurateRip вернул [F2CA4AF4]Трек 14 точность не определена (достоверность 1) [5A630CCE], AccurateRip вернул [BFFD51BE]Трек 15 точность не определена (достоверность 1) [3A952A6B], AccurateRip вернул [132FE5FE]
Ни один трек не прошёл проверки на точностьВ вашей базе может быть иной вариант штамповки диска
Конец отчёта

2002 - Jet Sound Inc. - 39:21

01. The Lizard
02. 4th Gear Left Hand Corner
03. The Pool Scene
04. Snakecharmer
05. C for Cobra
06. Vampire Walk
07. Harlem Nightdrive
08. Kowalski
09. Emerald Coast
10. The Drunken Camel
11. 36° in the Shade
12. Nightclub '67
13. Nassau Shake Down
14. The Birdman
-

***EAC***

Exact Audio Copy V0.99 prebeta 4 from 23. January 2008
Отчёт EAC об извлечении, выполненном 7. января 2011, 5:44
Stereophonic Space Sound Unlimited / Jet Sound Inc.
Дисковод: PLEXTOR DVDR PX-880SA Adapter: 1 ID: 1
Режим чтения : ДостоверностьИспользование точного потока : ДаОтключение кэша аудио : ДаИспользование указателей C2 : Нет
Коррекция смещения при чтении : 6Способность читать области Lead-in и Lead-out : НетЗаполнение пропущенных сэмплов тишиной : ДаУдаление блоков с тишиной в начале и конце : НетПри вычислениях CRC использовались нулевые сэмплы : ДаИнтерфейс : Установленный внешний ASPI-интерфейс
Выходной формат : Пользовательский кодировщикВыбранный битрейт : 1024 kBit/sКачество : ВысокийДобавление ID3-тэга : НетУтилита сжатия : C:\Program Files\Exact Audio Copy\FLAC\FLAC.EXEДополнительные параметры : -5 -V -T "ARTIST=%a" -T "TITLE=%t" -T "ALBUM=%g" -T "DATE=%y" -T "TRACKNUMBER=%n" -T "GENRE=%m" -T "COMMENT=%e" %s -o %d
TOC извлечённого CD
Трек | Старт | Длительность | Начальный сектор | Конечный сектор --------------------------------------------------------------------- 1 | 0:00.00 | 2:55.13 | 0 | 13137 2 | 2:55.13 | 2:34.73 | 13138 | 24760 3 | 5:30.11 | 2:43.26 | 24761 | 37011 4 | 8:13.37 | 3:04.31 | 37012 | 50842 5 | 11:17.68 | 2:42.59 | 50843 | 63051 6 | 14:00.52 | 2:19.00 | 63052 | 73476 7 | 16:19.52 | 2:31.16 | 73477 | 84817 8 | 18:50.68 | 2:51.66 | 84818 | 97708 9 | 21:42.59 | 3:21.19 | 97709 | 112802 10 | 25:04.03 | 2:56.19 | 112803 | 126021 11 | 28:00.22 | 2:29.21 | 126022 | 137217 12 | 30:29.43 | 2:35.71 | 137218 | 148913 13 | 33:05.39 | 3:07.40 | 148914 | 162978 14 | 36:13.04 | 3:08.43 | 162979 | 177121
Характеристики диапазона извлечения и сообщения об ошибках
Выбранный диапазон
Имя файла I:\BitComet\Stereophonic Space Sound Unlimited\2002-Jet Sound Inc\Stereophonic Space Sound Unlimited - Jet Sound Inc..wav
Пиковый уровень 100.0 % Качество диапазона 99.9 % CRC копии ADFBF6C1 Копирование... OK
Ошибок не произошло
AccurateRip: сводка
Трек 1 нет в базе данныхТрек 2 нет в базе данныхТрек 3 нет в базе данныхТрек 4 нет в базе данныхТрек 5 нет в базе данныхТрек 6 нет в базе данныхТрек 7 нет в базе данныхТрек 8 нет в базе данныхТрек 9 нет в базе данныхТрек 10 нет в базе данныхТрек 11 нет в базе данныхТрек 12 нет в базе данныхТрек 13 нет в базе данныхТрек 14 нет в базе данных
Ни одного трека нет в базе AccurateRip
Конец отчёта

2005 - Live Fast Die Young / Jo Siffert - 43:11

01. Jo's Theme
02. Requiem pour un grand pilote
03. Bossa Jo
04. Highlife at Monza
05. A racer's heart
06. The last of the late brakers
07. On the road to Sicily
08. Top Speed
09. 70/71
10. Grid girls 68
11. Fear Theme
12. Young Siffert
13. Hard braking
14. Le Mans nightdrive
15. Brands Hatch 6 A.M.
-

***EAC***

Exact Audio Copy V0.99 prebeta 4 from 23. January 2008
Отчёт EAC об извлечении, выполненном 6. января 2011, 21:52
Stereophonic Space Sound Unlimited / Live Fast Die Young - Jo Siffert
Дисковод: PLEXTOR DVDR PX-880SA Adapter: 1 ID: 1
Режим чтения : ДостоверностьИспользование точного потока : ДаОтключение кэша аудио : ДаИспользование указателей C2 : Нет
Коррекция смещения при чтении : 6Способность читать области Lead-in и Lead-out : НетЗаполнение пропущенных сэмплов тишиной : ДаУдаление блоков с тишиной в начале и конце : НетПри вычислениях CRC использовались нулевые сэмплы : ДаИнтерфейс : Установленный внешний ASPI-интерфейс
Выходной формат : Пользовательский кодировщикВыбранный битрейт : 1024 kBit/sКачество : ВысокийДобавление ID3-тэга : НетУтилита сжатия : C:\Program Files\Exact Audio Copy\FLAC\FLAC.EXEДополнительные параметры : -5 -V -T "ARTIST=%a" -T "TITLE=%t" -T "ALBUM=%g" -T "DATE=%y" -T "TRACKNUMBER=%n" -T "GENRE=%m" -T "COMMENT=%e" %s -o %d
TOC извлечённого CD
Трек | Старт | Длительность | Начальный сектор | Конечный сектор --------------------------------------------------------------------- 1 | 0:00.00 | 2:32.22 | 0 | 11421 2 | 2:32.22 | 2:49.31 | 11422 | 24127 3 | 5:21.53 | 2:52.50 | 24128 | 37077 4 | 8:14.28 | 2:49.23 | 37078 | 49775 5 | 11:03.51 | 2:48.07 | 49776 | 62382 6 | 13:51.58 | 3:06.63 | 62383 | 76395 7 | 16:58.46 | 2:27.52 | 76396 | 87472 8 | 19:26.23 | 2:32.46 | 87473 | 98918 9 | 21:58.69 | 2:42.21 | 98919 | 111089 10 | 24:41.15 | 3:09.74 | 111090 | 125338 11 | 27:51.14 | 2:40.65 | 125339 | 137403 12 | 30:32.04 | 2:58.64 | 137404 | 150817 13 | 33:30.68 | 2:52.28 | 150818 | 163745 14 | 36:23.21 | 3:28.09 | 163746 | 179354 15 | 39:51.30 | 3:19.46 | 179355 | 194325
Характеристики диапазона извлечения и сообщения об ошибках
Выбранный диапазон
Имя файла I:\BitComet\Stereophonic Space Sound Unlimited\2005-Live Fast Die Young - Jo Siffert\Stereophonic Space Sound Unlimited - Live Fast Die Young - Jo Siffert.wav
Пиковый уровень 99.8 % Качество диапазона 100.0 % CRC копии AE7B2B69 Копирование... OK
Ошибок не произошло
AccurateRip: сводка
Трек 1 точное извлечение (доверие 2) [CEB0FF8A]Трек 2 точное извлечение (доверие 2) [AA0F7092]Трек 3 точное извлечение (доверие 2) [982E52E1]Трек 4 точное извлечение (доверие 2) [727A0E05]Трек 5 точное извлечение (доверие 2) [DB35A34F]Трек 6 точное извлечение (доверие 2) [7CA40189]Трек 7 точное извлечение (доверие 2) [DFAFA153]Трек 8 точное извлечение (доверие 2) [51D93049]Трек 9 точное извлечение (доверие 2) [776D52CD]Трек 10 точное извлечение (доверие 2) [F0811472]Трек 11 точное извлечение (доверие 2) [5104E943]Трек 12 точное извлечение (доверие 2) [F0B80B9F]Трек 13 точное извлечение (доверие 2) [29ED8848]Трек 14 точное извлечение (доверие 2) [27802651]Трек 15 точное извлечение (доверие 2) [51188822]
Все треки извлечены точно
Конец отчёта

2009 - The Spooky Sound Sessions - 40:32

01. Sitar Jerk
02. Do The Lurk Around
03. Robotheque
04. The Whistler Returns
05. Gilera Baby
06. Record Shop
07. Contract Killer
08. La Fille Dans Le Train
09. Re 307
10. Action Scope
11. November Morning
12. Chicken Skin
13. La Casa Gialla
14. Sad City
-

***EAC***

Exact Audio Copy V0.99 prebeta 4 from 23. January 2008
Отчёт EAC об извлечении, выполненном 7. января 2011, 5:57
Stereophonic Space Sound Unlimited / Spooky Sound Sessions
Дисковод: PLEXTOR DVDR PX-880SA Adapter: 1 ID: 1
Режим чтения : ДостоверностьИспользование точного потока : ДаОтключение кэша аудио : ДаИспользование указателей C2 : Нет
Коррекция смещения при чтении : 6Способность читать области Lead-in и Lead-out : НетЗаполнение пропущенных сэмплов тишиной : ДаУдаление блоков с тишиной в начале и конце : НетПри вычислениях CRC использовались нулевые сэмплы : ДаИнтерфейс : Установленный внешний ASPI-интерфейс
Выходной формат : Пользовательский кодировщикВыбранный битрейт : 1024 kBit/sКачество : ВысокийДобавление ID3-тэга : НетУтилита сжатия : C:\Program Files\Exact Audio Copy\FLAC\FLAC.EXEДополнительные параметры : -5 -V -T "ARTIST=%a" -T "TITLE=%t" -T "ALBUM=%g" -T "DATE=%y" -T "TRACKNUMBER=%n" -T "GENRE=%m" -T "COMMENT=%e" %s -o %d
TOC извлечённого CD
Трек | Старт | Длительность | Начальный сектор | Конечный сектор --------------------------------------------------------------------- 1 | 0:00.00 | 2:35.73 | 0 | 11697 2 | 2:35.73 | 2:34.66 | 11698 | 23313 3 | 5:10.64 | 2:55.06 | 23314 | 36444 4 | 8:05.70 | 3:12.51 | 36445 | 50895 5 | 11:18.46 | 3:02.70 | 50896 | 64615 6 | 14:21.41 | 2:49.14 | 64616 | 77304 7 | 17:10.55 | 3:13.64 | 77305 | 91843 8 | 20:24.44 | 2:37.29 | 91844 | 103647 9 | 23:01.73 | 3:04.42 | 103648 | 117489 10 | 26:06.40 | 2:38.46 | 117490 | 129385 11 | 28:45.11 | 2:41.01 | 129386 | 141461 12 | 31:26.12 | 2:51.33 | 141462 | 154319 13 | 34:17.45 | 3:03.03 | 154320 | 168047 14 | 37:20.48 | 3:11.38 | 168048 | 182410
Характеристики диапазона извлечения и сообщения об ошибках
Выбранный диапазон
Имя файла I:\BitComet\Stereophonic Space Sound Unlimited\2009-Spooky Sound Sessions\Stereophonic Space Sound Unlimited - Spooky Sound Sessions.wav
Пиковый уровень 98.5 % Качество диапазона 100.0 % CRC копии A17E447A Копирование... OK
Ошибок не произошло
AccurateRip: сводка
Трек 1 точное извлечение (доверие 1) [251A1BED]Трек 2 точное извлечение (доверие 1) [D59AFA30]Трек 3 точное извлечение (доверие 1) [44F69753]Трек 4 точное извлечение (доверие 1) [FC8067A8]Трек 5 точное извлечение (доверие 1) [1CB0E014]Трек 6 точное извлечение (доверие 1) [D02C6C89]Трек 7 точное извлечение (доверие 1) [FF81AFA2]Трек 8 точное извлечение (доверие 1) [D0291D44]Трек 9 точное извлечение (доверие 1) [DD51709E]Трек 10 точное извлечение (доверие 1) [73E24632]Трек 11 точное извлечение (доверие 1) [729D4BDC]Трек 12 точное извлечение (доверие 1) [ACB853C4]Трек 13 точное извлечение (доверие 1) [5DC05E24]Трек 14 точное извлечение (доверие 1) [A8E80829]
Все треки извлечены точно
Конец отчёта

2015 - Music from the 6th Floor - 46:07

01. 35 Falcon Street (2:55)
02. 808.7 (3:08)
03. Green Bluebird Fly (3:49)
04. Blues From Pluto (2:51)
05. Night Boat To Antalya (2:50)
06. Take Me To Another World (3:39)
07. The Teacher And The Priest (3:41)
08. Music From The 6th Floor (3:22)
09. Aimez-vous Henri? (3:38)
10. Night Of The Jaguar (3:19)
11. Minigolf And Butter Chicken (3:30)
12. Spacechild (3:00)
13. Psisurf (3:22)
14. Don't Worry I'm Fine (2:56)
-

***EAC***

Exact Audio Copy V1.3 from 2. September 2016
Отчёт EAC об извлечении, выполненном 24. июня 2018, 10:05
Stereophonic Space Sound Unlimited / Music from the 6th Floor
Дисковод: HL-DT-STDVD+-RW GH82N Adapter: 1 ID: 0
Режим чтения : ДостоверностьИспользование точного потока : ДаОтключение кэша аудио : ДаИспользование указателей C2 : Нет
Коррекция смещения при чтении : 667Способность читать области Lead-in и Lead-out : НетЗаполнение пропущенных сэмплов тишиной : ДаУдаление блоков с тишиной в начале и конце : НетПри вычислениях CRC использовались нулевые сэмплы : ДаИнтерфейс : Встроенный Win32-интерфейс для Win NT/2000
Выходной формат : Пользовательский кодировщикВыбранный битрейт : 1024 kBit/sКачество : ВысокийДобавление ID3-тега : НетУтилита сжатия : C:\Program Files (x86)\Exact Audio Copy\FLAC\FLAC.EXEДополнительные параметры : -8 -V -T "ARTIST=%artist%" -T "ALBUM=%albumtitle%" -T "DATE=%year%" -T "GENRE=%genre%" -T "COMMENT=ripped by izia1956" %source%
TOC извлечённого CD
Трек | Старт | Длительность | Начальный сектор | Конечный сектор --------------------------------------------------------------------- 1 | 0:00.00 | 2:55.55 | 0 | 13179 2 | 2:55.55 | 3:08.12 | 13180 | 27291 3 | 6:03.67 | 3:49.25 | 27292 | 44491 4 | 9:53.17 | 2:51.63 | 44492 | 57379 5 | 12:45.05 | 2:50.52 | 57380 | 70181 6 | 15:35.57 | 3:39.57 | 70182 | 86663 7 | 19:15.39 | 3:41.51 | 86664 | 103289 8 | 22:57.15 | 3:22.62 | 103290 | 118501 9 | 26:20.02 | 3:38.56 | 118502 | 134907 10 | 29:58.58 | 3:19.12 | 134908 | 149844 11 | 33:17.70 | 3:30.71 | 149845 | 165665 12 | 36:48.66 | 3:00.37 | 165666 | 179202 13 | 39:49.28 | 3:22.29 | 179203 | 194381 14 | 43:11.57 | 2:56.04 | 194382 | 207585
Характеристики диапазона извлечения и сообщения об ошибках
Выбранный диапазон
Имя файла E:\BitComet\Stereophonic Space Sound Unlimited\2015 - Music from the 6th Floor\Stereophonic Space Sound Unlimited - Music from the 6th Floor.wav
Пиковый уровень 95.6 % Скорость извлечения 3.1 X Качество диапазона 100.0 % CRC теста 19883962 CRC копии 19883962 Копирование... OK
Ошибок не произошло
AccurateRip: сводка
Трек 1 отсутствует в базе данныхТрек 2 отсутствует в базе данныхТрек 3 отсутствует в базе данныхТрек 4 отсутствует в базе данныхТрек 5 отсутствует в базе данныхТрек 6 отсутствует в базе данныхТрек 7 отсутствует в базе данныхТрек 8 отсутствует в базе данныхТрек 9 отсутствует в базе данныхТрек 10 отсутствует в базе данныхТрек 11 отсутствует в базе данныхТрек 12 отсутствует в базе данныхТрек 13 отсутствует в базе данныхТрек 14 отсутствует в базе данных
Ни одного трека нет в базе AccurateRip
Конец отчёта
==== Контрольная сумма отчёта 0DFF53D1AA8A7EC932EE2598A6F9276D6497C25D95CC47BF041919B653EF0EBC ====

Содержание индексной карты (.CUE)

REM GENRE "Surf, Spy, Exotica, Horror"REM DATE 2015REM DISCID D70ACF0EREM COMMENT "ExactAudioCopy v1.3"PERFORMER "Stereophonic Space Sound Unlimited"TITLE "Music from the 6th Floor"REM COMPOSER "Netz Maeschi"FILE "Stereophonic Space Sound Unlimited - Music from the 6th Floor.flac" WAVE  TRACK 01 AUDIO    TITLE "35 Falcon Street"    PERFORMER "Stereophonic Space Sound Unlimited"    REM COMPOSER "Netz Maeschi"    INDEX 01 00:00:00  TRACK 02 AUDIO    TITLE "808.7"    PERFORMER "Stereophonic Space Sound Unlimited"    REM COMPOSER "Netz Maeschi"    INDEX 00 02:55:30    INDEX 01 02:55:55  TRACK 03 AUDIO    TITLE "Green Bluebird Fly"    PERFORMER "Stereophonic Space Sound Unlimited"    REM COMPOSER "Netz Maeschi"    INDEX 00 06:03:42    INDEX 01 06:03:67  TRACK 04 AUDIO    TITLE "Blues From Pluto"    PERFORMER "Stereophonic Space Sound Unlimited"    REM COMPOSER "Netz Maeschi"    INDEX 00 09:52:67    INDEX 01 09:53:17  TRACK 05 AUDIO    TITLE "Night Boat To Antalya"    PERFORMER "Stereophonic Space Sound Unlimited"    REM COMPOSER "Netz Maeschi"    INDEX 00 12:44:05    INDEX 01 12:45:05  TRACK 06 AUDIO    TITLE "Take Me To Another World"    PERFORMER "Stereophonic Space Sound Unlimited"    REM COMPOSER "Netz Maeschi"    INDEX 00 15:35:32    INDEX 01 15:35:57  TRACK 07 AUDIO    TITLE "The Teacher And The Priest"    PERFORMER "Stereophonic Space Sound Unlimited"    REM COMPOSER "Netz Maeschi"    INDEX 00 19:14:64    INDEX 01 19:15:39  TRACK 08 AUDIO    TITLE "Music From The 6th Floor"    PERFORMER "Stereophonic Space Sound Unlimited"    REM COMPOSER "Netz Maeschi"    INDEX 00 22:56:15    INDEX 01 22:57:15  TRACK 09 AUDIO    TITLE "Aimez-vous Henri_"    PERFORMER "Stereophonic Space Sound Unlimited"    REM COMPOSER "Netz Maeschi"    INDEX 00 26:19:02    INDEX 01 26:20:02  TRACK 10 AUDIO    TITLE "Night Of The Jaguar"    PERFORMER "Stereophonic Space Sound Unlimited"    REM COMPOSER "Netz Maeschi"    INDEX 00 29:58:08    INDEX 01 29:58:58  TRACK 11 AUDIO    TITLE "Minigolf And Butter Chicken"    PERFORMER "Stereophonic Space Sound Unlimited"    REM COMPOSER "Netz Maeschi"    INDEX 00 33:16:70    INDEX 01 33:17:70  TRACK 12 AUDIO    TITLE "Spacechild"    PERFORMER "Stereophonic Space Sound Unlimited"    REM COMPOSER "Netz Maeschi"    INDEX 00 36:47:66    INDEX 01 36:48:66  TRACK 13 AUDIO    TITLE "Psisurf"    PERFORMER "Stereophonic Space Sound Unlimited"    REM COMPOSER "Netz Maeschi"    INDEX 00 39:48:28    INDEX 01 39:49:28  TRACK 14 AUDIO    TITLE "Don't Worry I'm Fine"    PERFORMER "Stereophonic Space Sound Unlimited"    REM COMPOSER "Netz Maeschi"    INDEX 00 43:11:32    INDEX 01 43:11:57
Доп. информация: Stereophonic Space Sound Unlimited - Нужно слушать, слушать и слушать!!!
А потом переслушивать много раз!!!
Рип сделан собственноручно с оригинальных СД!!!
Сканы в папке.
Рип от ©СЁРФ-Маrаtones aka izia1956
Вы не можете начинать темы
Вы не можете отвечать на сообщения
Вы не можете редактировать свои сообщения
Вы не можете удалять свои сообщения
Вы не можете голосовать в опросах
Вы не можете прикреплять файлы к сообщениям
Вы можете скачивать файлы
!ВНИМАНИЕ!

Сайт не предоставляет электронные версии произведений, а занимается лишь коллекционированием и каталогизацией ссылок, присылаемых и публикуемых на форуме нашими читателями. Если вы являетесь правообладателем какого-либо представленного материала и не желаете, чтобы ссылка на него находилась в нашем каталоге, свяжитесь с нами, и мы незамедлительно удалим ее. Файлы для обмена на трекере предоставлены пользователями сайта, и администрация не несет ответственности за их содержание. Просьба не заливать файлы, защищенные авторскими правами, а также файлы нелегального содержания!

Искали программы, игры, дополнения, музыка mp3, аниме, аудио книги, журналы? Добро пожаловать на свободный торрент трекер Torrents, у нас можно скачать бесплатно, без смс и регистрации и прочих ограничений лучшие, отборные сборки программ, игр. Скачать торрентом не составит труда даже не опытному пользователю. Раздачи ежедневно обновляются, только лучшие и качественные раздачи, подробные описания и скриншоты. Огромная коллекция программ для работы со звуком, графикой, дизайном, а так же множество плагинов и инструментов к ним с подробной инструкцией и рекомендациями. Прошивки для навигаторов, карты. Разнообразные игры, для Windows, Linux. В коллекцие есть и старые игры любых жанров, Rpg, Action, Shooter, strategy Множество дополнений, модификаций, сценариев для популярных игр в жанре экш, рпг, гонки, стратегии, логические игры. Множество аддонов и сценариев для Microsoft Flight Simulator Большая коллекция книг, учебников. Если нет возможности купить печатное издание - смело скачивайте цифровую версию книги или, быть может, журнала. Не любите читать - можно загрузить бесплатно аудикнигу. Для веб дизайнеров и программистов так же найдется множество специализированного софта, таких как: редакторы с подсветкой, среды программирования, компоненты, системы управления базами данных, разнообразные скрипты и шаблоны. Не так давно у нас появился материал для автолюбителей и владельцев мото - оригинальные и неоригинальные каталоги запчастей, книги и журналы по ремонту и обслуживанию, видеоуроки, статьи по чип тюнингу, прошивкам. Процедура получения контента элементарная, достаточно просто скачать торрент файл и добавить его в загрузку в вашем торрент клиенте. Если у вас нет специального торрент клиента, вы можете его скачать у нас.