PLK – Ténébreux 2017 | hd-real-720Triunfos Robados 3 | Salem (84)

(Rock\'n\'Roll, Doo Wop) [CD] The Platters - Legends - 1993, FLAC (image+.cue), lossless 

Цитировать
The Platters - Legends
Жанр: Rock'n'Roll, Doo Wop
Носитель: CD
Страна-производитель диска (релиза): UK & Europe
Год издания: 1993
Издатель (лейбл): Legends / Wisepack
Номер по каталогу: LECD 040
Страна исполнителя (группы): USA
Аудиокодек: FLAC (*.flac)
Тип рипа: image+.cue
Битрейт аудио: lossless
Продолжительность: 00:49:34
Источник (релизер): alexpika
Наличие сканов в содержимом раздачи: да
Треклист:
01. Only You (And You Alone) (Ram, Rand) 02:57
02. Hey Now (Davis, Hodge) 02:15
03. I Need You All The Time (T.Williams) 02:50
04. Maggie Doesn't Work Here Anymore (Taylor, Lynch) 02:42
05. You Made Me Cry (A.Hodges) 02:20
06. Tell The World (Ram, Rand) 02:29
07. Voo Vee Ah Vee (J.Williams) 02:14
08. Give Thanks (Davis) 02:32
09. Shake It Up Mambo (J.Williams) 02:45
10. Love All Night (J.Williams) 03:02
11. I Believe (Drake, Graham, Shirl, Stillman) 02:29
12. The World Is Not My Home (Traditional) 02:25
13. Crying In The Chapel (A.Glenn) 02:48
14. My Prayer (Kennedy, Boulanger) 02:44
15. Put Your Hand In The Hand (Maclellan) 02:44
16. How Great Thou Art (S.K.Hines) 02:40
17. Loving You (J.T.Benson) 03:20
18. He's My Friend (J.Martin) 01:54
19. Heading Home (B.Ram) 02:57
20. Sweet Inspiration (Penn, Spooner, Oldham) 03:27

Лог создания рипа

Exact Audio Copy V1.0 beta 3 from 29. August 2011
EAC extraction logfile from 23. November 2016, 10:01
Platters / Legends
Used drive : TSSTcorpCDDVDW SH-216DB Adapter: 0 ID: 0
Read mode : SecureUtilize accurate stream : YesDefeat audio cache : YesMake use of C2 pointers : No
Read offset correction : 6Overread into Lead-In and Lead-Out : NoFill up missing offset samples with silence : YesDelete leading and trailing silent blocks : NoNull samples used in CRC calculations : YesUsed interface : Native Win32 interface for Win NT & 2000
Used output format : User Defined EncoderSelected bitrate : 1024 kBit/sQuality : HighAdd ID3 tag : NoCommand line compressor : C:\Program Files (x86)\Exact Audio Copy\Flac\flac.exeAdditional command line options : -V -8 -T "Date=%year%" -T "Genre=%genre%" %source%
TOC of the extracted CD
Track | Start | Length | Start sector | End sector --------------------------------------------------------- 1 | 0:00.32 | 2:57.05 | 32 | 13311 2 | 2:57.37 | 2:14.65 | 13312 | 23426 3 | 5:12.27 | 2:49.40 | 23427 | 36141 4 | 8:01.67 | 2:41.53 | 36142 | 48269 5 | 10:43.45 | 2:19.40 | 48270 | 58734 6 | 13:03.10 | 2:28.65 | 58735 | 69899 7 | 15:32.00 | 2:13.60 | 69900 | 79934 8 | 17:45.60 | 2:31.52 | 79935 | 91311 9 | 20:17.37 | 2:44.55 | 91312 | 103666 10 | 23:02.17 | 3:02.20 | 103667 | 117336 11 | 26:04.37 | 2:28.68 | 117337 | 128504 12 | 28:33.30 | 2:24.42 | 128505 | 139346 13 | 30:57.72 | 2:47.60 | 139347 | 151931 14 | 33:45.57 | 2:44.00 | 151932 | 164231 15 | 36:29.57 | 2:43.70 | 164232 | 176526 16 | 39:13.52 | 2:40.20 | 176527 | 188546 17 | 41:53.72 | 3:19.73 | 188547 | 203544 18 | 45:13.70 | 1:54.07 | 203545 | 212101 19 | 47:08.02 | 2:56.60 | 212102 | 225361 20 | 50:04.62 | 3:26.70 | 225362 | 240881
Range status and errors
Selected range
Filename L:\Private\My Audio Ripps\ CD - RIPS\The Platters - Legends\Platters - Legends.wav
Peak level 100.0 % Extraction speed 2.3 X Range quality 99.9 % Test CRC 97BC8BE7 Copy CRC 97BC8BE7 Copy OK
No errors occurred
AccurateRip summary
Track 1 cannot be verified as accurate (confidence 1) [0BACE012], AccurateRip returned [D0EEC1E8] (AR v2)Track 2 cannot be verified as accurate (confidence 1) [2BF4FE65], AccurateRip returned [D54EF547] (AR v2)Track 3 cannot be verified as accurate (confidence 1) [8F803B5F], AccurateRip returned [18128FC4] (AR v2)Track 4 cannot be verified as accurate (confidence 1) [EFA7A38E], AccurateRip returned [8D975F17] (AR v2)Track 5 cannot be verified as accurate (confidence 1) [98C04DFD], AccurateRip returned [2C407D5A] (AR v2)Track 6 cannot be verified as accurate (confidence 1) [8632647C], AccurateRip returned [3601600B] (AR v2)Track 7 cannot be verified as accurate (confidence 1) [F83D1E16], AccurateRip returned [3F5C1777] (AR v2)Track 8 cannot be verified as accurate (confidence 1) [A55072F7], AccurateRip returned [A4666703] (AR v2)Track 9 cannot be verified as accurate (confidence 1) [BCEFE4DD], AccurateRip returned [890009EF] (AR v2)Track 10 cannot be verified as accurate (confidence 1) [5D3FE7F7], AccurateRip returned [4406F811] (AR v2)Track 11 cannot be verified as accurate (confidence 1) [21C9B182], AccurateRip returned [C652DD4F] (AR v2)Track 12 cannot be verified as accurate (confidence 1) [3152A04E], AccurateRip returned [6419DD77] (AR v2)Track 13 cannot be verified as accurate (confidence 1) [04F16993], AccurateRip returned [3883BCE0] (AR v2)Track 14 cannot be verified as accurate (confidence 1) [2DDDDF69], AccurateRip returned [DD9393E8] (AR v2)Track 15 cannot be verified as accurate (confidence 1) [56F294F0], AccurateRip returned [7136E87E] (AR v2)Track 16 cannot be verified as accurate (confidence 1) [555649D8], AccurateRip returned [203ECC83] (AR v2)Track 17 cannot be verified as accurate (confidence 1) [1D94C531], AccurateRip returned [866448A5] (AR v2)Track 18 cannot be verified as accurate (confidence 1) [33F9E511], AccurateRip returned [000C2939] (AR v2)Track 19 cannot be verified as accurate (confidence 1) [FE496D51], AccurateRip returned [793E136E] (AR v2)Track 20 cannot be verified as accurate (confidence 1) [ABE38AE1], AccurateRip returned [BD380ACF] (AR v2)
No tracks could be verified as accurateYou may have a different pressing from the one(s) in the database
End of status report
==== Log checksum DE5915238C776C5F5402DB19479A764C3F6C4D9D13B26377310B28238C1FB8BB ====

Содержание индексной карты (.CUE)

REM GENRE OldiesREM DATE 1989REM DISCID 190C8B14REM COMMENT "ExactAudioCopy v1.0b3"PERFORMER "Platters"TITLE "Legends"FILE "Platters - Legends.flac" WAVE  TRACK 01 AUDIO    TITLE "Only You (And You Alone)"    PERFORMER "Platters"    INDEX 00 00:00:00    INDEX 01 00:00:32  TRACK 02 AUDIO    TITLE "Hey Now"    PERFORMER "Platters"    INDEX 01 02:57:37  TRACK 03 AUDIO    TITLE "I Need You All The Time"    PERFORMER "Platters"    INDEX 01 05:12:27  TRACK 04 AUDIO    TITLE "Maggie Doesn't Work Here Anymore"    PERFORMER "Platters"    INDEX 01 08:01:67  TRACK 05 AUDIO    TITLE "You Made Me Cry"    PERFORMER "Platters"    INDEX 01 10:43:45  TRACK 06 AUDIO    TITLE "Tell The World"    PERFORMER "Platters"    INDEX 01 13:03:10  TRACK 07 AUDIO    TITLE "Voo Vee Ah Vee"    PERFORMER "Platters"    INDEX 01 15:32:00  TRACK 08 AUDIO    TITLE "Give Thanks"    PERFORMER "Platters"    INDEX 01 17:45:60  TRACK 09 AUDIO    TITLE "Shake It Up Mambo"    PERFORMER "Platters"    INDEX 01 20:17:37  TRACK 10 AUDIO    TITLE "Love All Night"    PERFORMER "Platters"    INDEX 01 23:02:17  TRACK 11 AUDIO    TITLE "I Believe"    PERFORMER "Platters"    INDEX 01 26:04:37  TRACK 12 AUDIO    TITLE "The World Is Not My Home"    PERFORMER "Platters"    INDEX 01 28:33:30  TRACK 13 AUDIO    TITLE "Crying In The Chapel"    PERFORMER "Platters"    INDEX 01 30:57:72  TRACK 14 AUDIO    TITLE "My Prayer"    PERFORMER "Platters"    INDEX 01 33:45:57  TRACK 15 AUDIO    TITLE "Put Your Hand In The Hand"    PERFORMER "Platters"    INDEX 01 36:29:57  TRACK 16 AUDIO    TITLE "How Great Thou Art"    PERFORMER "Platters"    INDEX 01 39:13:52  TRACK 17 AUDIO    TITLE "Loving You"    PERFORMER "Platters"    INDEX 01 41:53:72  TRACK 18 AUDIO    TITLE "He's My Friend"    PERFORMER "Platters"    INDEX 01 45:13:70  TRACK 19 AUDIO    TITLE "Heading Home"    PERFORMER "Platters"    INDEX 01 47:08:02  TRACK 20 AUDIO    TITLE "Sweet Inspiration"    PERFORMER "Platters"    INDEX 01 50:04:62

Лог проверки качества

-----------------------
DON'T MODIFY THIS FILE
-----------------------
PERFORMER: auCDtect Task Manager, ver. 1.5.1RC4 build 1.5.1.5Copyright (c) 2008-2010 y-soft. All rights reservedhttp://y-soft.org
ANALYZER: auCDtect: CD records authenticity detector, version 0.8.2Copyright (c) 2004 Oleg Berngardt. All rights reserved.Copyright (c) 2004 Alexander Djourik. All rights reserved.
FILE: Platters - Legends.flac Size: 211224648 Hash: 6F58A502CA6EC39D937937332342DEEA Accuracy: -m0 Conclusion: MPEG 95% Signature: ABBCA8233B03CFC301D6A6460C9D5EECA693DAFC

DR log

foobar2000 1.3.9 / Замер динамического диапазона (DR) 1.1.1Дата отчёта:  2018-03-04 22:37:01
--------------------------------------------------------------------------------Анализ: Platters / Legends--------------------------------------------------------------------------------
DR Пики RMS Продолжительность трека--------------------------------------------------------------------------------DR10 -0.46 дБ -13.75 дБ 2:57 1-Only You (And You Alone)DR11 0.00 дБ -13.74 дБ 2:15 2-Hey NowDR10 -0.59 дБ -12.59 дБ 2:50 3-I Need You All The TimeDR10 -0.74 дБ -13.40 дБ 2:42 4-Maggie Doesn't Work Here AnymoreDR11 -0.35 дБ -12.85 дБ 2:20 5-You Made Me CryDR11 -3.24 дБ -16.71 дБ 2:29 6-Tell The WorldDR11 0.00 дБ -12.72 дБ 2:14 7-Voo Vee Ah VeeDR10 -0.89 дБ -14.74 дБ 2:32 8-Give ThanksDR11 0.00 дБ -13.49 дБ 2:45 9-Shake It Up MamboDR13 -0.66 дБ -16.13 дБ 3:02 10-Love All NightDR11 -1.71 дБ -15.29 дБ 2:29 11-I BelieveDR11 -2.02 дБ -15.94 дБ 2:25 12-The World Is Not My HomeDR13 -0.98 дБ -16.64 дБ 2:48 13-Crying In The ChapelDR10 -2.99 дБ -17.51 дБ 2:44 14-My PrayerDR11 -2.20 дБ -17.17 дБ 2:44 15-Put Your Hand In The HandDR11 -0.71 дБ -15.64 дБ 2:40 16-How Great Thou ArtDR12 -1.74 дБ -15.54 дБ 3:20 17-Loving YouDR11 0.00 дБ -13.80 дБ 1:54 18-He's My FriendDR11 -1.36 дБ -15.33 дБ 2:57 19-Heading HomeDR10 -2.04 дБ -15.23 дБ 3:27 20-Sweet Inspiration--------------------------------------------------------------------------------
Количество треков: 20Реальные значения DR: DR11
Частота: 44100 ГцКаналов: 2Разрядность: 16Битрейт: 526 кбит/сКодек: FLAC================================================================================
Доп. информация

Об исполнителе

The Platters is an American vocal group formed in 1952. They were one of the most successful vocal groups of the early rock and roll era. Their distinctive sound was a bridge between the pre-rock Tin Pan Alley tradition and the burgeoning new genre. The act went through several personnel changes, with the most successful incarnation comprising lead tenor Tony Williams, David Lynch, Paul Robi, Herb Reed, and Zola Taylor. The group had 40 charting singles on the Billboard Hot 100 chart between 1955 and 1967, including four number-one hits. The Platters were one of the first African-American groups to be accepted as a major chart group and were, for a period of time, the most successful vocal group in the world.
http://en.wikipedia.org/wiki/The_Platters
Вы не можете начинать темы
Вы не можете отвечать на сообщения
Вы не можете редактировать свои сообщения
Вы не можете удалять свои сообщения
Вы не можете голосовать в опросах
Вы не можете прикреплять файлы к сообщениям
Вы можете скачивать файлы
!ВНИМАНИЕ!

Сайт не предоставляет электронные версии произведений, а занимается лишь коллекционированием и каталогизацией ссылок, присылаемых и публикуемых на форуме нашими читателями. Если вы являетесь правообладателем какого-либо представленного материала и не желаете, чтобы ссылка на него находилась в нашем каталоге, свяжитесь с нами, и мы незамедлительно удалим ее. Файлы для обмена на трекере предоставлены пользователями сайта, и администрация не несет ответственности за их содержание. Просьба не заливать файлы, защищенные авторскими правами, а также файлы нелегального содержания!

Искали программы, игры, дополнения, музыка mp3, аниме, аудио книги, журналы? Добро пожаловать на свободный торрент трекер Torrents, у нас можно скачать бесплатно, без смс и регистрации и прочих ограничений лучшие, отборные сборки программ, игр. Скачать торрентом не составит труда даже не опытному пользователю. Раздачи ежедневно обновляются, только лучшие и качественные раздачи, подробные описания и скриншоты. Огромная коллекция программ для работы со звуком, графикой, дизайном, а так же множество плагинов и инструментов к ним с подробной инструкцией и рекомендациями. Прошивки для навигаторов, карты. Разнообразные игры, для Windows, Linux. В коллекцие есть и старые игры любых жанров, Rpg, Action, Shooter, strategy Множество дополнений, модификаций, сценариев для популярных игр в жанре экш, рпг, гонки, стратегии, логические игры. Множество аддонов и сценариев для Microsoft Flight Simulator Большая коллекция книг, учебников. Если нет возможности купить печатное издание - смело скачивайте цифровую версию книги или, быть может, журнала. Не любите читать - можно загрузить бесплатно аудикнигу. Для веб дизайнеров и программистов так же найдется множество специализированного софта, таких как: редакторы с подсветкой, среды программирования, компоненты, системы управления базами данных, разнообразные скрипты и шаблоны. Не так давно у нас появился материал для автолюбителей и владельцев мото - оригинальные и неоригинальные каталоги запчастей, книги и журналы по ремонту и обслуживанию, видеоуроки, статьи по чип тюнингу, прошивкам. Процедура получения контента элементарная, достаточно просто скачать торрент файл и добавить его в загрузку в вашем торрент клиенте. Если у вас нет специального торрент клиента, вы можете его скачать у нас.