Tutorials | Game List | Game Request

(Rock\'n\'Roll, Doo Wop) [CD] Dion and Dion & The Belmonts - Wish Upon A star & Alone With Dion - 1998, WavPack (image+.cue), lossless 

Цитировать
Dion and Dion & The Belmonts / Wish Upon A star (1960) & Alone With Dion (1961)
Жанр: Rock'n'Roll, Doo Wop
Носитель: CD
Страна-производитель диска (релиза): UK
Год издания: 1998
Издатель (лейбл): ACE Records
Номер по каталогу: CDCH 945
Страна исполнителя (группы): USA
Аудиокодек: WavPack (*.wv)
Тип рипа: image+.cue
Битрейт аудио: lossless
Продолжительность: 01:08:48
Источник (релизер): Рип сд из коллекции
Наличие сканов в содержимом раздачи: да
Треклист:
01. Dion & The Belmonts / When You Wish Upon A Star [0:02:29.17]
02. Dion & The Belmonts / In The Still Of The Night [0:02:37.68]
03. Dion & The Belmonts / A Lover's Prayer [0:02:19.27]
04. Dion & The Belmonts / My Private Joy [0:02:04.50]
05. Dion & The Belmonts / My Day [0:02:15.28]
06. Dion & The Belmonts / Swinging On A Star [0:02:26.25]
07. Dion & The Belmonts / Every Little Thing I Do [0:02:04.00]
08. Dion & The Belmonts / All The Things You Are [0:02:16.50]
09. Dion & The Belmonts / It's Only A Paper Moon [0:01:54.50]
10. Dion & The Belmonts / Fly Me To The Moon (In Other Words) [0:02:41.02]
11. Dion & The Belmonts / I'm Through With Love [0:02:16.23]
12. Dion & The Belmonts / When The Red Red Robin Comes Bob Bob Bobbin' Along [0:02:00.30]
13. Dion & The Belmonts / September Song [0:02:47.70]
14. Dion & The Belmonts / Faith [0:02:17.50]
15. Dion / Lonely Teenager [0:02:17.22]
16. Dion / After The Dance [0:02:01.60]
17. Dion / P.S. I Love You [0:02:36.65]
18. Dion / Save The Last Dance For Me [0:02:35.28]
19. Dion / Little Miss Blue [0:02:20.45]
20. Dion / Havin' Fun [0:02:21.67]
21. Dion / Heaven Help Me [0:02:02.35]
22. Dion / Close Your Eyes [0:02:01.25]
23. Dion / Fools Rush In [0:02:49.53]
24. Dion / My One And Only Love [0:03:26.22]
25. Dion / North East End Of The Corner [0:02:36.25]
26. Dion / One For My Baby [0:03:44.20]
27. Dion / Then I'll Be Tired Of You [0:02:24.38]
28. Dion / The Kissin' Game [0:02:57.65]

Лог создания рипа

Exact Audio Copy V1.3 from 2. September 2016
EAC extraction logfile from 15. September 2018, 11:47
Various Artisits / Wish Upon A star & Alone With Dion
Used drive : PLEXTOR DVDR PX-L890SA Adapter: 1 ID: 1
Read mode : SecureUtilize accurate stream : YesDefeat audio cache : YesMake use of C2 pointers : No
Read offset correction : 6Overread into Lead-In and Lead-Out : NoFill up missing offset samples with silence : YesDelete leading and trailing silent blocks : NoNull samples used in CRC calculations : YesUsed interface : Native Win32 interface for Win NT & 2000
Used output format : User Defined EncoderSelected bitrate : 1024 kBit/sQuality : HighAdd ID3 tag : NoCommand line compressor : C:\Program Files (x86)\Exact Audio Copy\wavpack.exeAdditional command line options : -lm %source%
TOC of the extracted CD
Track | Start | Length | Start sector | End sector --------------------------------------------------------- 1 | 0:00.00 | 2:29.17 | 0 | 11191 2 | 2:29.17 | 2:37.68 | 11192 | 23034 3 | 5:07.10 | 2:19.27 | 23035 | 33486 4 | 7:26.37 | 2:04.50 | 33487 | 42836 5 | 9:31.12 | 2:15.28 | 42837 | 52989 6 | 11:46.40 | 2:26.25 | 52990 | 63964 7 | 14:12.65 | 2:04.00 | 63965 | 73264 8 | 16:16.65 | 2:16.50 | 73265 | 83514 9 | 18:33.40 | 1:54.50 | 83515 | 92114 10 | 20:28.15 | 2:41.02 | 92115 | 104191 11 | 23:09.17 | 2:16.23 | 104192 | 114414 12 | 25:25.40 | 2:00.30 | 114415 | 123444 13 | 27:25.70 | 2:47.70 | 123445 | 136039 14 | 30:13.65 | 2:17.50 | 136040 | 146364 15 | 32:31.40 | 2:17.22 | 146365 | 156661 16 | 34:48.62 | 2:01.60 | 156662 | 165796 17 | 36:50.47 | 2:36.65 | 165797 | 177561 18 | 39:27.37 | 2:35.28 | 177562 | 189214 19 | 42:02.65 | 2:20.45 | 189215 | 199759 20 | 44:23.35 | 2:21.67 | 199760 | 210401 21 | 46:45.27 | 2:02.35 | 210402 | 219586 22 | 48:47.62 | 2:01.25 | 219587 | 228686 23 | 50:49.12 | 2:49.53 | 228687 | 241414 24 | 53:38.65 | 3:26.22 | 241415 | 256886 25 | 57:05.12 | 2:36.25 | 256887 | 268611 26 | 59:41.37 | 3:44.20 | 268612 | 285431 27 | 63:25.57 | 2:24.38 | 285432 | 296269 28 | 65:50.20 | 2:57.65 | 296270 | 309609
Range status and errors
Selected range
Filename D:\wwphil\Dion and Dion & The Belmonts - Wish Upon A Star & Alone With Dion\Various Artisits - Wish Upon A star & Alone With Dion.wav
Peak level 99.9 % Extraction speed 6.7 X Range quality 100.0 % Test CRC EE414C4F Copy CRC EE414C4F Copy OK
No errors occurred
AccurateRip summary
Track 1 accurately ripped (confidence 2) [C0C6FECC] (AR v1)Track 2 accurately ripped (confidence 2) [86E145CB] (AR v1)Track 3 accurately ripped (confidence 2) [065AEADB] (AR v1)Track 4 accurately ripped (confidence 2) [E91C46BF] (AR v1)Track 5 accurately ripped (confidence 2) [BD02B98D] (AR v1)Track 6 accurately ripped (confidence 2) [64F5AC98] (AR v1)Track 7 accurately ripped (confidence 2) [827F2442] (AR v1)Track 8 accurately ripped (confidence 2) [8F94A4A9] (AR v1)Track 9 accurately ripped (confidence 2) [3ECDE3F3] (AR v1)Track 10 accurately ripped (confidence 2) [51D9B83F] (AR v1)Track 11 accurately ripped (confidence 2) [C3C3395A] (AR v1)Track 12 accurately ripped (confidence 2) [F8BE2987] (AR v1)Track 13 accurately ripped (confidence 2) [69F9E855] (AR v1)Track 14 accurately ripped (confidence 2) [9F504C65] (AR v1)Track 15 accurately ripped (confidence 2) [53E8891F] (AR v1)Track 16 accurately ripped (confidence 2) [6F4B2315] (AR v1)Track 17 accurately ripped (confidence 2) [6530ED52] (AR v1)Track 18 accurately ripped (confidence 2) [439AE338] (AR v1)Track 19 accurately ripped (confidence 2) [10954B74] (AR v1)Track 20 accurately ripped (confidence 2) [39C3B773] (AR v1)Track 21 accurately ripped (confidence 2) [A87C4F60] (AR v1)Track 22 accurately ripped (confidence 2) [3B435690] (AR v1)Track 23 accurately ripped (confidence 2) [413A043F] (AR v1)Track 24 accurately ripped (confidence 2) [431787D1] (AR v1)Track 25 accurately ripped (confidence 2) [3985D003] (AR v1)Track 26 accurately ripped (confidence 2) [6EB058E9] (AR v1)Track 27 accurately ripped (confidence 2) [2AF81FA1] (AR v1)Track 28 accurately ripped (confidence 2) [96BA7CEE] (AR v1)
All tracks accurately ripped
End of status report
==== Log checksum 4437160839D2814656804D3116839EE425164717B87F9AE562D4E4731BED29C3 ====

Об исполнителе

Dion Francis DiMucci
Profile:
Born: July 18, 1939 in Bronx, NY, United States.
Leading member of Dion & The Belmonts.
Inducted into Rock And Roll Hall of Fame in 1989 (Performer).

Скриншот спектра частот

Вы не можете начинать темы
Вы не можете отвечать на сообщения
Вы не можете редактировать свои сообщения
Вы не можете удалять свои сообщения
Вы не можете голосовать в опросах
Вы не можете прикреплять файлы к сообщениям
Вы можете скачивать файлы
!ВНИМАНИЕ!

Сайт не предоставляет электронные версии произведений, а занимается лишь коллекционированием и каталогизацией ссылок, присылаемых и публикуемых на форуме нашими читателями. Если вы являетесь правообладателем какого-либо представленного материала и не желаете, чтобы ссылка на него находилась в нашем каталоге, свяжитесь с нами, и мы незамедлительно удалим ее. Файлы для обмена на трекере предоставлены пользователями сайта, и администрация не несет ответственности за их содержание. Просьба не заливать файлы, защищенные авторскими правами, а также файлы нелегального содержания!

Искали программы, игры, дополнения, музыка mp3, аниме, аудио книги, журналы? Добро пожаловать на свободный торрент трекер Torrents, у нас можно скачать бесплатно, без смс и регистрации и прочих ограничений лучшие, отборные сборки программ, игр. Скачать торрентом не составит труда даже не опытному пользователю. Раздачи ежедневно обновляются, только лучшие и качественные раздачи, подробные описания и скриншоты. Огромная коллекция программ для работы со звуком, графикой, дизайном, а так же множество плагинов и инструментов к ним с подробной инструкцией и рекомендациями. Прошивки для навигаторов, карты. Разнообразные игры, для Windows, Linux. В коллекцие есть и старые игры любых жанров, Rpg, Action, Shooter, strategy Множество дополнений, модификаций, сценариев для популярных игр в жанре экш, рпг, гонки, стратегии, логические игры. Множество аддонов и сценариев для Microsoft Flight Simulator Большая коллекция книг, учебников. Если нет возможности купить печатное издание - смело скачивайте цифровую версию книги или, быть может, журнала. Не любите читать - можно загрузить бесплатно аудикнигу. Для веб дизайнеров и программистов так же найдется множество специализированного софта, таких как: редакторы с подсветкой, среды программирования, компоненты, системы управления базами данных, разнообразные скрипты и шаблоны. Не так давно у нас появился материал для автолюбителей и владельцев мото - оригинальные и неоригинальные каталоги запчастей, книги и журналы по ремонту и обслуживанию, видеоуроки, статьи по чип тюнингу, прошивкам. Процедура получения контента элементарная, достаточно просто скачать торрент файл и добавить его в загрузку в вашем торрент клиенте. Если у вас нет специального торрент клиента, вы можете его скачать у нас.