Доктор Хаус / House M.D. / Сезон: 7 / Серии: 1-23 (23) [2010-2011, драма, комедия, BDRip 720p] (MVO Lostfilm | MVO Новамедиа | DVO Кубик в Кубе/ MVO Кубик в Кубе и Бяко Рекордс | Original | sub) 

Цитировать
-Доктор Хаус / House M.D.
Сезон 7 Серии 1-23
- Год выпуска: 2010-2011
Страна: USA | Fox
Жанр: драма, комедия
Продолжительность: ~ 00:42:00 x 23
Перевод 1: Профессиональный многоголосый закадровый Lostfilm
Перевод 2: Профессиональный многоголосый закадровый Новамедиа (для телеканала Домашний)
Перевод 3: Профессиональный двухголосый закадровый Кубик в кубе (1-13)/Кубик в Кубе и Бяко Рекордс (14-17)
Субтитры: Русские - Суверенный Лепрозорий и Pacific (серии 1-9), Английские-Режиссёр: Дэвид Шор
В ролях: Хью Лори, Лиза Эдельштейн, Роберт Шон Леонард, Джесси Спенсер, Омар Эппс, Оливия Уайлд, Питер Джекобсон-Описание: Доктор Грегори Хауз (Хью Лори) не отличается проникновенностью в общении с больными и с удовольствием избегает их, если только есть возможность.
Он сам всё время проводит в борьбе с собственной болью, а трость в его руке только подчеркивает его жесткую ядовитую манеру общения.
Порой его поведение можно назвать почти бесчеловечным, (Мама, а кто это? Это сынок - подонок, который спас тебе жизнь.)
и при этом он прекрасный врач, обладаюший нетипичным умом и безупречным инстинктом, что снискало ему глубокое уважение.
Будучи инфекционистом, он ещё и замечательный диагност, который любит разгадывать медицинские загадки, чтобы спасти кому-то жизнь.-Все раздачи сериала-Рип: Don
За звуковую дорожку LostFilm спасибо Nez`у, за звуковую дорожку Новамедиа спасибо subarro
За субтитры - Pacific и группе переводчиков Суверенного Лепрозория-Сэмпл: http://multi-up.com/634180
Качество: BDRip 720p
Формат: MKV
Видео кодек: H.264
Аудио кодек: AC3
Видео: AVC, 1280x720, 6 500 kbit/s, 23.976 fps, 0.294 bit/pixel,
Аудио 1: AC3, 640 kbps, 6 ch, 16 bit, 48 kHz [Русский - LostFilm]
Аудио 2: AC3, 192 kbps, 2 ch, 16 bit, 48 kHz [Русский - Новамедиа]
Аудио 3: AC3, 640 kbps, 6 ch, 16 bit, 48 kHz [Русский - Кубик в Кубе/Кубик в Кубе и Бяко Рекордс]
Аудио 4: AC3, 640 kbps, 6 ch, 16 bit, 48 kHz [Английский]

MI

General
Unique ID : 228889720232874857110207639352237997559 (0xAC328E7E61088E7DBE3EB8C42421BDF7)
Complete name : House.M.D.S07.720p.Bluray.3xRus.Eng.DD5.1.Sub\House.M.D.S07E01.720p.Bluray.3xRus.Eng.DD5.1.Sub.mkv
Format : Matroska
Format version : Version 2
File size : 2.51 GiB
Duration : 41mn 40s
Overall bit rate : 8 610 Kbps
Movie name : House M.D. Season 7 Episode 01 Now What? / И что теперь?
Encoded date : UTC 2012-01-22 13:27:09
Writing application : mkvmerge v4.9.1 ('Ich will') built on Jul 11 2011 23:53:15
Writing library : libebml v1.2.1 + libmatroska v1.1.1
Video
ID : 1
Format : AVC
Format/Info : Advanced Video Codec
Format profile : High@L4.1
Format settings, CABAC : Yes
Format settings, ReFrames : 4 frames
Codec ID : V_MPEG4/ISO/AVC
Duration : 41mn 40s
Bit rate : 6 500 Kbps
Width : 1 280 pixels
Height : 720 pixels
Display aspect ratio : 16:9
Frame rate : 23.976 fps
Color space : YUV
Chroma subsampling : 4:2:0
Bit depth : 8 bits
Scan type : Progressive
Bits/(Pixel*Frame) : 0.294
Stream size : 1.84 GiB (73%)
Title : House M.D. S07E01 Now What?
Writing library : x264 core 116 r2057 0ba8a9c
Encoding settings : cabac=1 / ref=3 / deblock=1:-3:-3 / analyse=0x3:0x133 / me=umh / subme=10 / psy=1 / psy_rd=1.00:0.00 / mixed_ref=1 / me_range=32 / chroma_me=1 / trellis=2 / 8x8dct=1 / cqm=0 / deadzone=21,11 / fast_pskip=0 / chroma_qp_offset=-2 / threads=18 / sliced_threads=0 / nr=0 / decimate=0 / interlaced=0 / bluray_compat=0 / constrained_intra=0 / bframes=7 / b_pyramid=2 / b_adapt=2 / b_bias=0 / direct=3 / weightb=1 / open_gop=0 / weightp=2 / keyint=250 / keyint_min=23 / scenecut=40 / intra_refresh=0 / rc_lookahead=40 / rc=2pass / mbtree=0 / bitrate=6500 / ratetol=1.0 / qcomp=0.65 / qpmin=0 / qpmax=40 / qpstep=4 / cplxblur=20.0 / qblur=0.5 / vbv_maxrate=50000 / vbv_bufsize=50000 / nal_hrd=none / ip_ratio=1.25 / pb_ratio=1.25 / aq=1:0.65
Language : English
Default : Yes
Forced : No
Audio #1
ID : 2
Format : AC-3
Format/Info : Audio Coding 3
Mode extension : CM (complete main)
Codec ID : A_AC3
Duration : 41mn 40s
Bit rate mode : Constant
Bit rate : 640 Kbps
Channel(s) : 6 channels
Channel positions : Front: L C R, Side: L R, LFE
Sampling rate : 48.0 KHz
Bit depth : 16 bits
Compression mode : Lossy
Stream size : 191 MiB (7%)
Title : LostFilm @ AC3 5.1 640 kbps
Language : Russian
Default : Yes
Forced : No
Audio #2
ID : 3
Format : AC-3
Format/Info : Audio Coding 3
Mode extension : CM (complete main)
Codec ID : A_AC3
Duration : 41mn 40s
Bit rate mode : Constant
Bit rate : 192 Kbps
Channel(s) : 2 channels
Channel positions : Front: L R
Sampling rate : 48.0 KHz
Bit depth : 16 bits
Compression mode : Lossy
Stream size : 57.2 MiB (2%)
Title : Новамедиа @ AC3 2.0 192 kbps
Language : Russian
Default : No
Forced : No
Audio #3
ID : 4
Format : AC-3
Format/Info : Audio Coding 3
Mode extension : CM (complete main)
Codec ID : A_AC3
Duration : 41mn 40s
Bit rate mode : Constant
Bit rate : 640 Kbps
Channel(s) : 6 channels
Channel positions : Front: L C R, Side: L R, LFE
Sampling rate : 48.0 KHz
Bit depth : 16 bits
Compression mode : Lossy
Stream size : 191 MiB (7%)
Title : Кубик в Кубе @ AC3 5.1 640 kbps
Language : Russian
Default : No
Forced : No
Audio #4
ID : 5
Format : AC-3
Format/Info : Audio Coding 3
Mode extension : CM (complete main)
Codec ID : A_AC3
Duration : 41mn 40s
Bit rate mode : Constant
Bit rate : 640 Kbps
Channel(s) : 6 channels
Channel positions : Front: L C R, Side: L R, LFE
Sampling rate : 48.0 KHz
Bit depth : 16 bits
Compression mode : Lossy
Stream size : 191 MiB (7%)
Title : Original @ AC3 5.1 640 kbps
Language : English
Default : No
Forced : No
Text #1
ID : 6
Format : UTF-8
Codec ID : S_TEXT/UTF8
Codec ID/Info : UTF-8 Plain Text
Title : Pacific
Language : Russian
Default : No
Forced : No
Text #2
ID : 7
Format : UTF-8
Codec ID : S_TEXT/UTF8
Codec ID/Info : UTF-8 Plain Text
Title : Суверенный Лепрозорий
Language : Russian
Default : No
Forced : No
Text #3
ID : 8
Format : UTF-8
Codec ID : S_TEXT/UTF8
Codec ID/Info : UTF-8 Plain Text
Title : Original
Language : English
Default : No
Forced : No
Menu
00:00:00.000 : en:00:00:00.000
00:04:36.735 : en:00:04:36.735
00:17:46.190 : en:00:17:46.190
00:30:21.653 : en:00:30:21.653
-
-

Внимание! Раздача ведётся путём добавления новых серий

Внимание! Раздача ведётся путём добавления новых серий; при каждом добавлении создётся новый торрент. Чтобы начать докачку новой серии, пользователям необходимо сделать следующее:
  • Остановить скачивание.
  • Удалить старый торрент у себя из клиента (старые серии удалять не надо).
  • Скачать новый торрент и запустить его у себя в клиенте вместо старого, при этом указать клиенту путь в старую папку куда и должно происходить скачивание новых серий.
Ваш клиент при этом должен произвести хеширование (проверку) старой папки (если не производит сам - помогите ему сделать это), и будет докачивать только те серии которых у вас ещё нет. Старые серии при этом не удаляются, а продолжают раздаваться!
Eсли вы уже удалили старые серии, то предотвратить повторную закачку старых серий можно, отжав галочку в соответсвующих местах при запуске нового торрента. По возможности, желательно не удалять старые серии как можно дольше чтобы релизёр не столько продолжал раздавать старые серии, а смог сконцентрироваться на новых.
-Торрент обновлен. Добавлены 18-23 серии-
Вы не можете начинать темы
Вы не можете отвечать на сообщения
Вы не можете редактировать свои сообщения
Вы не можете удалять свои сообщения
Вы не можете голосовать в опросах
Вы не можете прикреплять файлы к сообщениям
Вы можете скачивать файлы
!ВНИМАНИЕ!

Сайт не предоставляет электронные версии произведений, а занимается лишь коллекционированием и каталогизацией ссылок, присылаемых и публикуемых на форуме нашими читателями. Если вы являетесь правообладателем какого-либо представленного материала и не желаете, чтобы ссылка на него находилась в нашем каталоге, свяжитесь с нами, и мы незамедлительно удалим ее. Файлы для обмена на трекере предоставлены пользователями сайта, и администрация не несет ответственности за их содержание. Просьба не заливать файлы, защищенные авторскими правами, а также файлы нелегального содержания!

Искали программы, игры, дополнения, музыка mp3, аниме, аудио книги, журналы? Добро пожаловать на свободный торрент трекер Torrents, у нас можно скачать бесплатно, без смс и регистрации и прочих ограничений лучшие, отборные сборки программ, игр. Скачать торрентом не составит труда даже не опытному пользователю. Раздачи ежедневно обновляются, только лучшие и качественные раздачи, подробные описания и скриншоты. Огромная коллекция программ для работы со звуком, графикой, дизайном, а так же множество плагинов и инструментов к ним с подробной инструкцией и рекомендациями. Прошивки для навигаторов, карты. Разнообразные игры, для Windows, Linux. В коллекцие есть и старые игры любых жанров, Rpg, Action, Shooter, strategy Множество дополнений, модификаций, сценариев для популярных игр в жанре экш, рпг, гонки, стратегии, логические игры. Множество аддонов и сценариев для Microsoft Flight Simulator Большая коллекция книг, учебников. Если нет возможности купить печатное издание - смело скачивайте цифровую версию книги или, быть может, журнала. Не любите читать - можно загрузить бесплатно аудикнигу. Для веб дизайнеров и программистов так же найдется множество специализированного софта, таких как: редакторы с подсветкой, среды программирования, компоненты, системы управления базами данных, разнообразные скрипты и шаблоны. Не так давно у нас появился материал для автолюбителей и владельцев мото - оригинальные и неоригинальные каталоги запчастей, книги и журналы по ремонту и обслуживанию, видеоуроки, статьи по чип тюнингу, прошивкам. Процедура получения контента элементарная, достаточно просто скачать торрент файл и добавить его в загрузку в вашем торрент клиенте. Если у вас нет специального торрент клиента, вы можете его скачать у нас.

esitronic | Stars Above (The Lunar Chronicles #4.5) | Parenthood (2010-2011)