Доктор Хаус / HOUSE M.D. / Сезон 6 (01-22 из 22) [2009, США, драма, WEB-DL 720p] (Домашний | Original | Sub) 

Цитировать
-Доктор Хаус - Шестой сезон
HOUSE M.D. - Season Six- Год выхода в эфир: 2009
Страна: США | USA
Жанр: драма
Продолжительность: 22 из 22 эпизодов по ~ 44 минуты
Перевод: Профессиональный (многоголосый, закадровый)
Субтитры: русские, английские-Режиссер: Деран Сарафян, Дэвид Платт, Фред Гербер и другие...
В ролях: Хью Лори, Лиза Эдельштейн, Роберт Шон Леонард, Джесси Спенсер, Омар Эппс, Дженнифер Моррисон и другие...-Описание:
Доктор Хаус – блестящий, но язвительный врач-диагност, способный по внешнему виду пациента и первичному осмотру точно определить степень и причину нарушений функций человеческого организма. Он замкнут, резок и циничен, склонен к мизантропии и бунтарству, не обременяет себя соблюдением правил хорошего тона, кажется, что он полностью лишён чувства сострадания и врачебного такта. Возможно, негативные проявления характера Хауса связаны с хронической болью в ноге после перенесенного инфаркта четырёхглавой мышцы правого бедра. Именно из-за этого он ходит с тростью. Хаус постоянно принимает препарат викодин от боли в ноге и уже зависим от него. Психологические эпизоды и неординарный юмор героев являются секретом популярности сериала во всем мире.-Перевод: Pacific
Озвучено: студия Новамедиа
Рип звука: Subarro- -Качество: WEB-DL 720p
Формат: MKV
Видео кодек: AVC
Аудио кодек: AC3
Видео: MPEG-4 AVC, ~4000 kbps, 1280x720, 23.976 fps, 0.179 bit/pixel
Аудио #1: 48 kHz, AC3 Dolby Digital, 2.0 ch, 192 kbps avg |Студия Новамедиа|
Аудио #2: 48 kHz, AC3 Dolby Digital, 5.1 ch, 384 kbps avg |Оригинал|- -

Список серий

6x01. Broken, Pt. 1
6x02. Broken, Pt. 2
6x03. Epic Fail
6x04. The Tyrant
6x05. Instant Karma
6x06. Brave Heart
6x07. Known Unknowns
6x08. Teamwork
6x09. Ignorance is Bliss
6x10. Wilson
6x11. The Down Low
6x12. Remorse
6x13. Moving the Chains
6x14. 5 to 9
6x15. Private Lives
6x16. Black Hole
6x17. Lockdown
6x18. Knight Fall
6x19. Open and Shut
6x20. The Choice
6x21. Baggage
6x22. Help Me

MEDiA iNFO

General
Complete name                    : D:\HOUSE s06 WEB-DL 720p\House S06E01 Broken, Pt. 1.mkv
Format                           : Matroska
File size                        : 1.45 GiB
Duration                         : 44mn 47s
Overall bit rate                 : 4 622 Kbps
Encoded date                     : UTC 2010-11-15 18:17:24
Writing application              : mkvmerge v4.0.0 ('The Stars were mine') built on Jun  6 2010 16:18:42
Writing library                  : libebml v1.0.0 + libmatroska v1.0.0
Video
ID                               : 1
Format                           : AVC
Format/Info                      : Advanced Video Codec
Format profile                   : High@L3.1
Format settings, CABAC           : No
Format settings, ReFrames        : 2 frames
Codec ID                         : V_MPEG4/ISO/AVC
Duration                         : 44mn 47s
Bit rate mode                    : Variable
Bit rate                         : 3 954 Kbps
Width                            : 1 280 pixels
Height                           : 720 pixels
Display aspect ratio             : 16:9
Frame rate                       : 23.976 fps
Color space                      : YUV
Chroma subsampling               : 4:2:0
Bit depth                        : 8 bits
Scan type                        : Progressive
Bits/(Pixel*Frame)               : 0.179
Stream size                      : 1.24 GiB (86%)
Language                         : English
Color primaries                  : BT.709-5, BT.1361, IEC 61966-2-4, SMPTE RP177
Transfer characteristics         : BT.709-5, BT.1361
Matrix coefficients              : BT.709-5, BT.1361, IEC 61966-2-4 709, SMPTE RP177
Audio #1
ID                               : 2
Format                           : AC-3
Format/Info                      : Audio Coding 3
Mode extension                   : CM (complete main)
Codec ID                         : A_AC3
Duration                         : 44mn 47s
Bit rate mode                    : Constant
Bit rate                         : 192 Kbps
Channel(s)                       : 2 channels
Channel positions                : Front: L R
Sampling rate                    : 48.0 KHz
Bit depth                        : 16 bits
Stream size                      : 61.5 MiB (4%)
Title                            : Домашний
Language                         : Russian
Audio #2
ID                               : 3
Format                           : AC-3
Format/Info                      : Audio Coding 3
Mode extension                   : CM (complete main)
Codec ID                         : A_AC3
Duration                         : 44mn 47s
Bit rate mode                    : Constant
Bit rate                         : 384 Kbps
Channel(s)                       : 6 channels
Channel positions                : Front: L C R, Side: L R, LFE
Sampling rate                    : 48.0 KHz
Bit depth                        : 16 bits
Stream size                      : 123 MiB (8%)
Title                            : Оригинал
Language                         : English
Text #1
ID                               : 4
Format                           : UTF-8
Codec ID                         : S_TEXT/UTF8
Codec ID/Info                    : UTF-8 Plain Text
Language                         : Russian
Text #2
ID                               : 5
Format                           : UTF-8
Codec ID                         : S_TEXT/UTF8
Codec ID/Info                    : UTF-8 Plain Text
Language                         : English
- Все раздачи сериала-
Вы не можете начинать темы
Вы не можете отвечать на сообщения
Вы не можете редактировать свои сообщения
Вы не можете удалять свои сообщения
Вы не можете голосовать в опросах
Вы не можете прикреплять файлы к сообщениям
Вы можете скачивать файлы
!ВНИМАНИЕ!

Сайт не предоставляет электронные версии произведений, а занимается лишь коллекционированием и каталогизацией ссылок, присылаемых и публикуемых на форуме нашими читателями. Если вы являетесь правообладателем какого-либо представленного материала и не желаете, чтобы ссылка на него находилась в нашем каталоге, свяжитесь с нами, и мы незамедлительно удалим ее. Файлы для обмена на трекере предоставлены пользователями сайта, и администрация не несет ответственности за их содержание. Просьба не заливать файлы, защищенные авторскими правами, а также файлы нелегального содержания!

Искали программы, игры, дополнения, музыка mp3, аниме, аудио книги, журналы? Добро пожаловать на свободный торрент трекер Torrents, у нас можно скачать бесплатно, без смс и регистрации и прочих ограничений лучшие, отборные сборки программ, игр. Скачать торрентом не составит труда даже не опытному пользователю. Раздачи ежедневно обновляются, только лучшие и качественные раздачи, подробные описания и скриншоты. Огромная коллекция программ для работы со звуком, графикой, дизайном, а так же множество плагинов и инструментов к ним с подробной инструкцией и рекомендациями. Прошивки для навигаторов, карты. Разнообразные игры, для Windows, Linux. В коллекцие есть и старые игры любых жанров, Rpg, Action, Shooter, strategy Множество дополнений, модификаций, сценариев для популярных игр в жанре экш, рпг, гонки, стратегии, логические игры. Множество аддонов и сценариев для Microsoft Flight Simulator Большая коллекция книг, учебников. Если нет возможности купить печатное издание - смело скачивайте цифровую версию книги или, быть может, журнала. Не любите читать - можно загрузить бесплатно аудикнигу. Для веб дизайнеров и программистов так же найдется множество специализированного софта, таких как: редакторы с подсветкой, среды программирования, компоненты, системы управления базами данных, разнообразные скрипты и шаблоны. Не так давно у нас появился материал для автолюбителей и владельцев мото - оригинальные и неоригинальные каталоги запчастей, книги и журналы по ремонту и обслуживанию, видеоуроки, статьи по чип тюнингу, прошивкам. Процедура получения контента элементарная, достаточно просто скачать торрент файл и добавить его в загрузку в вашем торрент клиенте. Если у вас нет специального торрент клиента, вы можете его скачать у нас.

Tarzan (12 films avec Johnny Weissmuller entre 1932 et 1948) VF/VOSTFR | 2 Stupid Dogs | 3D Camcorder