Доктор Хаус / House M.D. / Сезон: 7 / Серии: 12-23 (23) [2010, США, комедия, драма, HDTV 720p] MVO LostFilm + rus sub 

Цитировать
Доктор Хаус / House M.D.
Год выпуска: 2010
Страна: США
Жанр: комедия, драма
Продолжительность серии: ~43 мин.
Перевод: профессиональный многоголосый закадровый, LostFilm
Русские субтитры: есть
Режиссёр: Деран Сарафян, Дэвид Платт, Фред Гербер, ...
В ролях: Хью Лори, Лиза Эдельштейн, Роберт Шон Леонард, Джесси Спенсер, Омар Эппс, Боббин Бергсторм, Оливия Уайлд, Питер Джекобсон
Описание: Сериал House, M.D. рассказывает о команде врачей, которые должны правильно поставить диагноз пациенту и спасти его. В принципе сериал представляет из себя вариацию схемы «врач как детектив», но в отличие от остальных сериалов, где врачи обследуют уже мертвого пациента, в House, M.D. больной находится еще в живых. Возглавляет команду доктор Грегори Хаус, который ходит с тростью после того, как его мышечный инфаркт в правой ноге слишком поздно правильно диагностировали. Как врач Хаус просто гений, но сам не отличается проникновенностью в общении с больными и с удовольствием избегает их, если только есть возможность. Он сам всё время проводит в борьбе с собственной болью, а трость в его руке только подчеркивает его жесткую ядовитую манеру общения. Порой его поведение можно назвать почти бесчеловечным, и при этом он прекрасный врач, обладаюший нетипичным умом и безупречным инстинктом, что снискало ему глубокое уважение. Будучи инфекционистом, он ещё и замечательный диагност, который любит разгадывать медицинские загадки, чтобы спасти кому-то жизнь. Если бы все было по его воле, то Хаус лечил бы больных не выходя из своего кабинета.
Доп. информация:
Озвучание:
Перевод: Relicit.
Мед. редактор: Mirra.
Озвучка: Студия "Кравец".
Субтитры:
Суверенный Лепрозорий

HDTV 720p 1-11 серии WEB-DL 720p
Качество: HDTV 720p
Формат: TS
Видео кодек: MPEG-2
Аудио кодек: AC3
Видео: MPEG-2, 1280x720, 59.94 fps, ~14 Mbps, 0.26 bit/pixel
Аудио 1: Русский, Dolby Digital, 5.1, 48 kHz, 448 kbps
Аудио 2: Английский, Dolby Digital, 5.1, 48 kHz, 448 kbps
Субтитры: Русские, SRT (отдельно); Английские, CC (CCExtractor to extract .srt)

Список серий

12. You Must Remember This / Вы должны это помнить / 43:49
13. Two Stories / Две истории / 43:31
14. Recession Proof / Несмотря ни на что / 43:47
15. Bombshells / Гром среди ясного неба / 43:47
16. Out of the Chute / Полный отрыв / 43:43
17. Fall from Grace / Без благодати / 42:54
18. The Dig / Раскопки / 43:49
19. Last Temptation / Последнее искушение / 43:40
20. Changes / Перемены / 43:06
21. The Fix / Доза / 43:46
22. After Hours / После работы / 43:46
23. Moving On / Жизнь продолжается / 43:09

MI

General
ID : 1 (0x1)
Complete name : House S07E12 You Must Remember This.ts
Format : MPEG-TS
File size : 4.90 GiB
Duration : 43mn 49s
Overall bit rate : 16.0 Mbps
Maximum Overall bit rate : 35.5 Mbps
Video
ID : 4113 (0x1011)
Menu ID : 1 (0x1)
Format : MPEG Video
Format version : Version 2
Format profile : Main@High
Format settings, BVOP : Yes
Format settings, Matrix : Default
Codec ID : 2
Duration : 43mn 49s
Bit rate mode : Variable
Bit rate : 14.3 Mbps
Nominal bit rate : 38.8 Mbps
Width : 1 280 pixels
Height : 720 pixels
Display aspect ratio : 16:9
ActiveFormatDescription : Letterbox 16:9 image
Frame rate : 59.940 fps
Color space : YUV
Chroma subsampling : 4:2:0
Bit depth : 8 bits
Scan type : Progressive
Compression mode : Lossy
Bits/(Pixel*Frame) : 0.259
Stream size : 4.38 GiB (89%)
Audio #1
ID : 4352 (0x1100)
Menu ID : 1 (0x1)
Format : AC-3
Format/Info : Audio Coding 3
Mode extension : CM (complete main)
Codec ID : 129
Duration : 43mn 49s
Bit rate mode : Constant
Bit rate : 448 Kbps
Channel(s) : 6 channels
Channel positions : Front: L C R, Side: L R, LFE
Sampling rate : 48.0 KHz
Bit depth : 16 bits
Compression mode : Lossy
Stream size : 140 MiB (3%)
Language : Russian
Audio #2
ID : 4353 (0x1101)
Menu ID : 1 (0x1)
Format : AC-3
Format/Info : Audio Coding 3
Mode extension : CM (complete main)
Codec ID : 129
Duration : 43mn 49s
Bit rate mode : Constant
Bit rate : 448 Kbps
Channel(s) : 6 channels
Channel positions : Front: L C R, Side: L R, LFE
Sampling rate : 48.0 KHz
Bit depth : 16 bits
Compression mode : Lossy
Stream size : 140 MiB (3%)
Language : English
Text #1
ID : 4113 (0x1011)608-1
Menu ID : 1 (0x1)
Format : EIA-608
Muxing mode : A/53 / DTVCC Transport
Muxing mode, more info : Muxed in Video #1
Duration : 43mn 49s
Stream size : 0.00 Byte (0%)
Text #2
ID : 4113 (0x1011)1
Menu ID : 1 (0x1)
Format : EIA-708
Muxing mode : A/53 / DTVCC Transport
Muxing mode, more info : Muxed in Video #1
Duration : 43mn 49s
Stream size : 0.00 Byte (0%)
Text #3
ID : 4113 (0x1011)608-1
Menu ID : 1 (0x1)
Format : EIA-608
Muxing mode : SCTE 20
Muxing mode, more info : Muxed in Video #1
Duration : 43mn 49s
Stream size : 0.00 Byte (0%)

Скриншоты

Вы не можете начинать темы
Вы не можете отвечать на сообщения
Вы не можете редактировать свои сообщения
Вы не можете удалять свои сообщения
Вы не можете голосовать в опросах
Вы не можете прикреплять файлы к сообщениям
Вы можете скачивать файлы
!ВНИМАНИЕ!

Сайт не предоставляет электронные версии произведений, а занимается лишь коллекционированием и каталогизацией ссылок, присылаемых и публикуемых на форуме нашими читателями. Если вы являетесь правообладателем какого-либо представленного материала и не желаете, чтобы ссылка на него находилась в нашем каталоге, свяжитесь с нами, и мы незамедлительно удалим ее. Файлы для обмена на трекере предоставлены пользователями сайта, и администрация не несет ответственности за их содержание. Просьба не заливать файлы, защищенные авторскими правами, а также файлы нелегального содержания!

Искали программы, игры, дополнения, музыка mp3, аниме, аудио книги, журналы? Добро пожаловать на свободный торрент трекер Torrents, у нас можно скачать бесплатно, без смс и регистрации и прочих ограничений лучшие, отборные сборки программ, игр. Скачать торрентом не составит труда даже не опытному пользователю. Раздачи ежедневно обновляются, только лучшие и качественные раздачи, подробные описания и скриншоты. Огромная коллекция программ для работы со звуком, графикой, дизайном, а так же множество плагинов и инструментов к ним с подробной инструкцией и рекомендациями. Прошивки для навигаторов, карты. Разнообразные игры, для Windows, Linux. В коллекцие есть и старые игры любых жанров, Rpg, Action, Shooter, strategy Множество дополнений, модификаций, сценариев для популярных игр в жанре экш, рпг, гонки, стратегии, логические игры. Множество аддонов и сценариев для Microsoft Flight Simulator Большая коллекция книг, учебников. Если нет возможности купить печатное издание - смело скачивайте цифровую версию книги или, быть может, журнала. Не любите читать - можно загрузить бесплатно аудикнигу. Для веб дизайнеров и программистов так же найдется множество специализированного софта, таких как: редакторы с подсветкой, среды программирования, компоненты, системы управления базами данных, разнообразные скрипты и шаблоны. Не так давно у нас появился материал для автолюбителей и владельцев мото - оригинальные и неоригинальные каталоги запчастей, книги и журналы по ремонту и обслуживанию, видеоуроки, статьи по чип тюнингу, прошивкам. Процедура получения контента элементарная, достаточно просто скачать торрент файл и добавить его в загрузку в вашем торрент клиенте. Если у вас нет специального торрент клиента, вы можете его скачать у нас.

Josh Casaubon | The Psycho is Back! | Jorge Leon Martinez