Новая игра! / New Game! [OVA] [1 из 1] [Без хардсаба] [JAP+SUB] [2017, повседневность, комедия, DVDRip] 

Цитировать
Новая игра! / New Game!
Страна: Япония
Год выпуска: 2017
Жанр: повседневность, комедия
Тип: OVA
Продолжительность: 1 эп, ~23 мин. серия
Режиссер: Фудзивара Ёсиюки
Студия: Dogakobo
Описание: Вся команда студии игровых разработчиков отправляется на лыжный курорт. Приключения зовут!
Качество: DVDRip (Beatrice-Raws by Jensen)
Тип релиза: Без хардсаба
Формат видео: MKV
Совместимость с бытовыми плеерами: Нет
Видео: AVC (10 bit), 1280x720, 4263 kbps, 23.976 fps
Аудио: FLAC, 654 kbps, 48.0 kHz, 2 ch Язык Японский
Субтитры: ASS, внешние, полные «Akashi, BBNG & Саша» Язык субтитров русский ; Перевод: Саша Ушкина | Редактура: Seiya | Оформление: Surokune

Подробные тех. данные

GeneralUnique ID                   : 335873518692045294026030011038544200294 (0xFCAEE2FFEC3AD122CDBD6BCE04AC8266)Complete name               : E:\Фильмы\Аниме\New Game!\New Game! OVA [DVD] [720p]\[Beatrice-Raws] New Game! OVA [DVDRip, 720p, FLAC].mkvFormat                      : MatroskaFormat version              : Version 4 / Version 2File size                   : 825 MiBDuration                    : 22 min 43 sOverall bit rate mode       : VariableOverall bit rate            : 5 072 kb/sEncoded date                : UTC 2018-10-24 11:26:16Writing application         : mkvmerge v28.1.0 ('Morning Child') 64-bitWriting library             : libebml v1.3.6 + libmatroska v1.4.9Attachments                 : Arial Rounded MT Pro Cyr (Bold).otf / arial.ttf / beer money (Regular).ttf / Buxton Sketch (Regular).ttf / cambria.ttc / cambriab.ttf / corbelb.ttf / DS Zombie Cyr (Bold).ttf / HandSound (Regular).ttf / Mateur (Medium).ttf / meiryo.ttc / meiryob.ttc / SansRoundedC (Regular).otf / segoeui.ttf / Shadow (Regular).ttf / trebuc.ttf / trebucbd.ttf / trebucbi.ttf / v_10 Cent Comics (Regular).ttf / v_Blambot FXPro BB (Light).ttf / v_Holy Mackerel! (Regular).ttf / Vogue ( Bold).TTF
VideoID : 1Format : AVCFormat/Info : Advanced Video CodecFormat profile : High 10@L5Format settings : CABAC / 9 Ref FramesFormat settings, CABAC : YesFormat settings, ReFrames : 9 framesCodec ID : V_MPEG4/ISO/AVCDuration : 22 min 43 sBit rate : 4 263 kb/sWidth : 1 280 pixelsHeight : 720 pixelsDisplay aspect ratio : 16:9Frame rate mode : ConstantFrame rate : 23.976 (24000/1001) FPSColor space : YUVChroma subsampling : 4:2:0Bit depth : 10 bitsScan type : ProgressiveBits/(Pixel*Frame) : 0.193Stream size : 693 MiB (84%)Title : DVDrip by JensenWriting library : x264 core 148 r2597M e86f3a1 (DJATOM's build)Encoding settings : cabac=1 / ref=9 / deblock=1:1:-1 / analyse=0x3:0x133 / me=umh / subme=10 / psy=1 / fade_compensate=0.00 / psy_rd=0.90:0.10 / mixed_ref=1 / me_range=64 / chroma_me=1 / trellis=2 / 8x8dct=1 / cqm=0 / deadzone=21,11 / fast_pskip=1 / chroma_qp_offset=-3 / threads=22 / lookahead_threads=5 / sliced_threads=0 / nr=0 / decimate=1 / interlaced=0 / bluray_compat=0 / constrained_intra=0 / bframes=16 / b_pyramid=2 / b_adapt=2 / b_bias=0 / direct=1 / weightb=1 / open_gop=0 / weightp=2 / keyint=240 / keyint_min=23 / scenecut=40 / intra_refresh=0 / rc=crf / mbtree=0 / crf=14.0000 / qcomp=0.72 / qpmin=0 / qpmax=81 / qpstep=4 / ip_ratio=1.40 / pb_ratio=1.30 / aq=1:0.85Language : JapaneseDefault : YesForced : NoColor range : LimitedColor primaries : BT.709Transfer characteristics : BT.709Matrix coefficients : BT.709
AudioID : 2Format : FLACFormat/Info : Free Lossless Audio CodecCodec ID : A_FLACDuration : 22 min 43 sBit rate mode : VariableBit rate : 654 kb/sChannel(s) : 2 channelsChannel positions : Front: L RSampling rate : 48.0 kHzFrame rate : 11.719 FPS (4096 SPF)Bit depth : 16 bitsStream size : 106 MiB (13%)Writing library : libFLAC 1.3.1 (UTC 2014-11-25)Language : JapaneseDefault : YesForced : No
Menu00:00:00.000 : en:Avant00:00:46.000 : en:OP00:02:15.868 : en:Part A00:13:15.202 : en:Part B00:21:34.335 : en:ED

Скриншоты

Вы не можете начинать темы
Вы не можете отвечать на сообщения
Вы не можете редактировать свои сообщения
Вы не можете удалять свои сообщения
Вы не можете голосовать в опросах
Вы не можете прикреплять файлы к сообщениям
Вы можете скачивать файлы
!ВНИМАНИЕ!

Сайт не предоставляет электронные версии произведений, а занимается лишь коллекционированием и каталогизацией ссылок, присылаемых и публикуемых на форуме нашими читателями. Если вы являетесь правообладателем какого-либо представленного материала и не желаете, чтобы ссылка на него находилась в нашем каталоге, свяжитесь с нами, и мы незамедлительно удалим ее. Файлы для обмена на трекере предоставлены пользователями сайта, и администрация не несет ответственности за их содержание. Просьба не заливать файлы, защищенные авторскими правами, а также файлы нелегального содержания!

Искали программы, игры, дополнения, музыка mp3, аниме, аудио книги, журналы? Добро пожаловать на свободный торрент трекер Torrents, у нас можно скачать бесплатно, без смс и регистрации и прочих ограничений лучшие, отборные сборки программ, игр. Скачать торрентом не составит труда даже не опытному пользователю. Раздачи ежедневно обновляются, только лучшие и качественные раздачи, подробные описания и скриншоты. Огромная коллекция программ для работы со звуком, графикой, дизайном, а так же множество плагинов и инструментов к ним с подробной инструкцией и рекомендациями. Прошивки для навигаторов, карты. Разнообразные игры, для Windows, Linux. В коллекцие есть и старые игры любых жанров, Rpg, Action, Shooter, strategy Множество дополнений, модификаций, сценариев для популярных игр в жанре экш, рпг, гонки, стратегии, логические игры. Множество аддонов и сценариев для Microsoft Flight Simulator Большая коллекция книг, учебников. Если нет возможности купить печатное издание - смело скачивайте цифровую версию книги или, быть может, журнала. Не любите читать - можно загрузить бесплатно аудикнигу. Для веб дизайнеров и программистов так же найдется множество специализированного софта, таких как: редакторы с подсветкой, среды программирования, компоненты, системы управления базами данных, разнообразные скрипты и шаблоны. Не так давно у нас появился материал для автолюбителей и владельцев мото - оригинальные и неоригинальные каталоги запчастей, книги и журналы по ремонту и обслуживанию, видеоуроки, статьи по чип тюнингу, прошивкам. Процедура получения контента элементарная, достаточно просто скачать торрент файл и добавить его в загрузку в вашем торрент клиенте. Если у вас нет специального торрент клиента, вы можете его скачать у нас.

Power Rangers Ninja Steel | Legend of Tarzan (2016) | The Originals 8.2