Read More | shena.khan | Révélations Chirurgie Régime Médecine Le Prix De La Beauté

Герой / Hero / Ying Xiong (Чжан Имоу / Zhang Yimou) [2002, Китай, Гонконг, фэнтези, боевик, драма, приключения, BD-DVD9 (Custom)] MVO ("Пирамида") + MVO ("Киномания") + Sub Rus + Original Eng 

Цитировать
Герой / Hero / Ying Xiong
Страна: Китай, Гонконг
Студия: Beijing New Picture Film Co., China Film Co-Production Corporation, Elite Group Enterprises
Жанр: Фэнтези, боевик, драма, приключения
Год выпуска: 2002
Продолжительность: 01:39:06
Перевод 1: Профессиональный (многоголосый закадровый) "Пирамида"
Перевод 2: Профессиональный (многоголосый закадровый) "Киномания"
Субтитры: Русские, русские форсированные, английские
Оригинальная аудиодорожка: Китайский (Мандаринский)
Режиссер: Чжан Имоу / Zhang Yimou
В ролях: Джет Ли, Тони Люн Чу Вай, Мэгги Чун, Чжан Цзыи, Донни Ен, Чэнь Даомин, Чжунъюань Лью, Чжэн Тяньюн, Цинь Янь, Бинь Ся
Описание: Китай расколот на княжества, но уже есть лидер, который хочет покорить соседей и стать императором объединенной страны. К нему засланы убийцы, безукоризненно владеющие боевыми искусствами; у них фольклорные имена Сломанный Меч, Летящий Снег и Небо.
Их противник обозначен как Безымянный, он хочет защитить императора. Его разговор с Всесильным образует раму, скрепляющую несколько ретроспектив — поединков с убийцами. Он рассказывает об этих поединках как сказку, где истину не отличишь от выдумки. Своя версия есть и у императора.
Доп. информация:
Для создания данного релиза был взят вот этот BD Remux - благодарность уходит ixnn28 , и DVD9 - за который спасибо Kranium. Видео, звуковые дорожки и субтитры были взяты с BD Remux_а, основа меню и чаптеры взяты с DVD9. Видео сжато Rhozet Carbon Coder в CBR 8000, по инструкции за которую спасибо Mikky72. Меню было извлеченно из DVD с помощью DVDSubEdit и PgcDemux и подредактировано в Adobe Photoshop. Релиз был собран полностью с помощью DVD-lab PRO 2.
Бонусы: Нет.
Меню: Есть, язык английский, частично анимированно и озвученно.
Сэмпл

Тип релиза: BD-DVD9 (Custom)
Контейнер: DVD-Video
Видео: NTSC 16:9 (720x480) CBR 8000, Auto Letterboxed
Аудио 1: Русский AC3/ 5.1 / 48 kHz/ 448 kbps, "Пирамида"
Аудио 2: Русский AC3/ 5.1 / 48 kHz/ 448 kbps, "Киномания"
Аудио 3: Китайский (Мандаринский) AC3/ 5.1 / 48 kHz / 448 kbps
Аудио 4: Английский AC3/ 5.1 / 48 kHz/ 448 kbps
Формат субтитров: prerendered (DVD/IDX+SUB)

Информация по сборке релиза

Используемый софт

MKVExtractGUI2 - разборка ремукса
Carbon Coder - конвертация видео
UsEac3To - распаковка DTS на wav
TranzcodeGUI - распаковка DTS на wav
DVDSubEdit / PgcDemux - разборка меню
Adobe Photoshop CS6 - перерисовка меню
Vegas Pro 9 - сборка звуковых дорожек ac3
IdxSub2Srt - извлечение субтитров и перевод в формат .srt
Subtitle Workshop - коррекция субтитров
DVD-lab PRO 2 - сборка DVD

MediaInfo -исходника

Общее
Уникальный идентификатор : 205240445267374162131311495201434505712 (0x9A67DF3710BAB594B89A8872362A11F0)
Полное имя : I:\Downloads\Hero - Герой (2002)\Hero - Герой (2002).mkv
Формат : Matroska
Версия формата : Version 2
Размер файла : 26,5 Гбайт
Продолжительность : 1 ч. 39 м.
Режим общего битрейта : Переменный
Общий поток : 38,2 Мбит/сек
Дата кодирования : UTC 2009-10-07 04:51:24
Программа кодирования : mkvmerge v2.9.8 ('C'est le bon') built on Aug 13 2009 12:49:06
Библиотека кодирования : libebml v0.7.7 + libmatroska v0.8.1
Видео
Идентификатор : 1
Формат : AVC
Формат/Информация : Advanced Video Codec
Профиль формата : High@L4.1
Параметр CABAC формата : Да
Параметр ReFrames формата : 4 кадра
Режим смешивания : Container profile=Unknown@0.0
Идентификатор кодека : V_MPEG4/ISO/AVC
Продолжительность : 1 ч. 39 м.
Вид битрейта : Переменный
Битрейт : 35,6 Мбит/сек
Максимальный битрейт : 38,5 Мбит/сек
Ширина : 1920 пикселей
Высота : 1080 пикселей
Соотношение сторон : 16:9
Режим частоты кадров : Постоянный
Частота кадров : 23,976 кадра/сек
Цветовое пространство : YUV
Субдискретизация насыщенности : 4:2:0
Битовая глубина : 8 бит
Тип развёртки : Прогрессивная
Бит/(Пиксели*Кадры) : 0.716
Размер потока : 24,7 Гбайт (93%)
Заголовок : AVC 1920x1080 35649 Kbps 23,976 fps
Язык : English
Default : Да
Forced : Нет
Основные цвета : BT.709
Характеристики трансфера : BT.709
Коэффициенты матрицы : BT.709
Аудио #1
Идентификатор : 2
Формат : AC-3
Формат/Информация : Audio Coding 3
Расширение режима : CM (complete main)
Параметр Endianness формата : Big
Идентификатор кодека : A_AC3
Продолжительность : 1 ч. 39 м.
Вид битрейта : Постоянный
Битрейт : 448 Кбит/сек
Каналы : 6 каналов
Расположение каналов : Front: L C R, Side: L R, LFE
Частота : 48,0 КГц
Битовая глубина : 16 бит
Метод сжатия : С потерями
Размер потока : 318 Мбайт (1%)
Заголовок : AC3 448 Kbps 6 ch (Пирамида)
Язык : Russian
Default : Да
Forced : Нет
Аудио #2
Идентификатор : 3
Формат : DTS
Формат/Информация : Digital Theater Systems
Режим : 16
Параметр Endianness формата : Big
Идентификатор кодека : A_DTS
Продолжительность : 1 ч. 39 м.
Вид битрейта : Постоянный
Битрейт : 755 Кбит/сек
Каналы : 6 каналов
Расположение каналов : Front: L C R, Side: L R, LFE
Частота : 48,0 КГц
Битовая глубина : 24 бит
Метод сжатия : С потерями
Размер потока : 535 Мбайт (2%)
Заголовок : DTS 768 Kbps 6 ch (Киномания)
Язык : Russian
Default : Нет
Forced : Нет
Аудио #3
Идентификатор : 4
Формат : AC-3
Формат/Информация : Audio Coding 3
Расширение режима : CM (complete main)
Параметр Endianness формата : Big
Идентификатор кодека : A_AC3
Продолжительность : 1 ч. 39 м.
Вид битрейта : Постоянный
Битрейт : 640 Кбит/сек
Каналы : 6 каналов
Расположение каналов : Front: L C R, Side: L R, LFE
Частота : 48,0 КГц
Битовая глубина : 16 бит
Метод сжатия : С потерями
Размер потока : 454 Мбайт (2%)
Заголовок : AC3 640 Kbps 6 ch
Язык : Chinese
Default : Нет
Forced : Нет
Текст #1
Идентификатор : 5
Формат : VobSub
Режим смешивания : zlib
Идентификатор кодека : S_VOBSUB
Идентификатор кодека/Информация : The same subtitle format used on DVDs
Заголовок : Forced
Язык : Russian
Default : Да
Forced : Да
Текст #2
Идентификатор : 6
Формат : VobSub
Режим смешивания : zlib
Идентификатор кодека : S_VOBSUB
Идентификатор кодека/Информация : The same subtitle format used on DVDs
Язык : Russian
Default : Нет
Forced : Нет
Текст #3
Идентификатор : 7
Формат : VobSub
Режим смешивания : zlib
Идентификатор кодека : S_VOBSUB
Идентификатор кодека/Информация : The same subtitle format used on DVDs
Язык : English
Default : Нет
Forced : Нет

DVDInfo

Title: Hero_2002
Size: 7.06 Gb ( 7 398 342,00 KBytes ) - DVD-9
Enabled regions: 1, 2, 3, 4, 5, 6, 7, 8
VTS_01 :
Play Length: 01:39:06
Video: NTSC 16:9 (720x480) VBR, Auto Letterboxed
Audio:
Russian (Dolby AC3, 6 ch)
Russian (Dolby AC3, 6 ch)
Chinese (Dolby AC3, 6 ch)
English (Dolby AC3, 6 ch)
Subtitles:
Russian
Russian
English

Скрипт

LoadPlugin("C:\Program Files\FFmpegSource2\ffms2.dll") #подключение декодера
FFVideoSource("D:\Video\Hero.mkv") #открытие видео
LoadPlugin("C:\Program Files\AutoYUY2\AutoYUY2.dll") #подключение плагина
AutoYUY2() #конверсия цветового пространства
LoadPlugin("C:\Program Files\ColorMatrix\ColorMatrix.dll") #подключение плагина
ColorMatrix(mode="Rec.709->Rec.601", inputFR=false, clamp=0) #16-235
AssumeFPS("ntsc_film")
BicubicResize(720, 480, 0, 0.5) #ресайз методом Catmull-Rom spline
#AddBorders (0,0,0,0) #bbb=00

Отчёт DVD Lab

*** DVD Lab Pro Verification Log ***
6 - 2 - 2013 -- 12:42:28
************************
* *
* VMG Verification *
* *
************************
Number of VTS - 1
Number of Menus: 2
Menu 01 - Type - Dummy
Menu 02 - Type - Motion
Menu Video File E:\Working with DVD\Hero\14.zastavka\zastavka.m2v
Frame size: 720 X 480
Frame rate 4 [1--23.976, 2--24, 4--29.97, 3--25, 5--30]
Aspect Ratio: 169 [43--4:3, 169--16:9]
MPEG Video Type: 2 [1--MPEG 1, 2--MPEG 2]
Chroma: 1 [1--4:2:0, 2--4:2:2, 3--4:4:4]
GOP 1, size - 283021
GOP 2, size - 283055
GOP 3, size - 233035
Menu Audio File E:\Working with DVD\Hero\14.zastavka\zastavka.ac3
Audio type: AC3_Mot, Channel: 6, Sampling: 48000, Bitrate: 448000
Menu Sub-Picture File C:\Temp\546297664_tmpsub1.bmp
Picture size - 720 x 480
nMenu cell count - 1
Number of imported VTS: 0
************************
* *
* VTS Verification *
* *
************************
>
Number of Titles: 1
Title 01 - Type - ES or PES
Segment 1, Video File E:\Working with DVD\Hero\3.Hero_Aktiv\Hero_x64.m2v
Frame Size: 720 X 480
Frame Rate 4 [1--23.976, 2--24, 4--29.97, 3--25, 5--30]
Aspect Ratio: 169 [43--4:3, 169--16:9]
MPEG Video Type: 2 [1--MPEG 1, 2--MPEG 2]
Chroma: 1 [1--4:2:0, 2--4:2:2, 3--4:4:4]
GOP 1, size - 483817
GOP 2, size - 184403
GOP 3, size - 500500
Segment 1, Audio File E:\Working with DVD\Hero\3.Hero_Aktiv\2_rus_(Ie?aieaa).ac3
Audio type: AC3_Mot, Channel: 6, Sampling: 48000, Bitrate: 448000
Segment 1, Audio File E:\Working with DVD\Hero\3.Hero_Aktiv\3_rus_(Eeiiiaiey).ac3
Audio type: AC3_Mot, Channel: 6, Sampling: 48000, Bitrate: 448000
Segment 1, Audio File E:\Working with DVD\Hero\3.Hero_Aktiv\4_chi.ac3
Audio type: AC3_Mot, Channel: 6, Sampling: 48000, Bitrate: 448000
Segment 1, Audio File E:\Working with DVD\Hero\3.Hero_Aktiv\1_Engl.ac3
Audio type: AC3_Mot, Channel: 6, Sampling: 48000, Bitrate: 448000
Segment 1, Subtitle File E:\Working with DVD\Hero\3.Hero_Aktiv\RU1-1.sp1
Segment 1, Subtitle File E:\Working with DVD\Hero\3.Hero_Aktiv\RU2-1.sp2
Segment 1, Subtitle File E:\Working with DVD\Hero\3.Hero_Aktiv\ENGL1-1.sp3
Number of Menus: 7
Menu 01 - Type - Dummy
Menu 02 - Type - Motion
Menu Video File E:\Working with DVD\Hero\8.men\VideoFile.m2v
Frame size: 720 X 480
Frame rate 4 [1--23.976, 2--24, 4--29.97, 3--25, 5--30]
Aspect Ratio: 169 [43--4:3, 169--16:9]
MPEG Video Type: 2 [1--MPEG 1, 2--MPEG 2]
Chroma: 1 [1--4:2:0, 2--4:2:2, 3--4:4:4]
GOP 1, size - 404600
GOP 2, size - 98554
GOP 3, size - 491408
Menu Audio File E:\Working with DVD\Hero\8.men\AudioFile_80.ac3
Audio type: AC3_Mot, Channel: 6, Sampling: 48000, Bitrate: 448000
Menu Sub-Picture File C:\Temp\91539080_tmpsub1.bmp
Picture size - 720 x 480
nMenu cell count - 1
Menu 03 - Type - Motion
Menu Video File E:\Working with DVD\Hero\7.Projekt\menu 01.m2v
Frame size: 720 X 480
Frame rate 4 [1--23.976, 2--24, 4--29.97, 3--25, 5--30]
Aspect Ratio: 169 [43--4:3, 169--16:9]
MPEG Video Type: 2 [1--MPEG 1, 2--MPEG 2]
Chroma: 1 [1--4:2:0, 2--4:2:2, 3--4:4:4]
GOP 1, size - 476479
GOP 2, size - 108437
GOP 3, size - 436262
Menu Audio File E:\Working with DVD\Hero\9.men\AudioFile_80.ac3
Audio type: AC3_Mot, Channel: 6, Sampling: 48000, Bitrate: 448000
Menu Sub-Picture File C:\Temp\91756568_tmpsub1.bmp
Picture size - 720 x 480
nMenu cell count - 1
Menu 04 - Type - Motion
Menu Video File E:\Working with DVD\Hero\7.Projekt\menu 02.m2v
Frame size: 720 X 480
Frame rate 4 [1--23.976, 2--24, 4--29.97, 3--25, 5--30]
Aspect Ratio: 169 [43--4:3, 169--16:9]
MPEG Video Type: 2 [1--MPEG 1, 2--MPEG 2]
Chroma: 1 [1--4:2:0, 2--4:2:2, 3--4:4:4]
GOP 1, size - 488063
GOP 2, size - 120842
GOP 3, size - 443759
Menu Audio File E:\Working with DVD\Hero\10.men\AudioFile_80.ac3
Audio type: AC3_Mot, Channel: 6, Sampling: 48000, Bitrate: 448000
Menu Sub-Picture File C:\Temp\546716176_tmpsub1.bmp
Picture size - 720 x 480
nMenu cell count - 1
Menu 05 - Type - Still
nMenu cell count - 1
Menu Image File C:\Temp\546772576_tmp1.bmp
Picture size - 720 x 480
Menu Audio File - None
Menu Sub-Picture File C:\Temp\546772576_tmpsub1.bmp
Picture size - 720 x 480
Menu 06 - Type - Still
nMenu cell count - 1
Menu Image File C:\Temp\546797744_tmp1.bmp
Picture size - 720 x 480
Menu Audio File - None
Menu Sub-Picture File C:\Temp\546797744_tmpsub1.bmp
Picture size - 720 x 480
Menu 07 - Type - Still
nMenu cell count - 5
Menu Image File C:\Temp\651938120_tmp1.bmp
Picture size - 720 x 480
Menu Audio File - None
Menu Sub-Picture File C:\Temp\651938120_tmpsub1.bmp
Picture size - 720 x 480
Menu Image File C:\Temp\651938120_tmp2.bmp
Picture size - 720 x 480
Menu Audio File - None
Menu Sub-Picture File C:\Temp\651938120_tmpsub2.bmp
Picture size - 720 x 480
Menu Image File C:\Temp\651938120_tmp3.bmp
Picture size - 720 x 480
Menu Audio File - None
Menu Sub-Picture File C:\Temp\651938120_tmpsub3.bmp
Picture size - 720 x 480
Menu Image File C:\Temp\651938120_tmp4.bmp
Picture size - 720 x 480
Menu Audio File - None
Menu Sub-Picture File C:\Temp\651938120_tmpsub4.bmp
Picture size - 720 x 480
Menu Image File C:\Temp\651938120_tmp5.bmp
Picture size - 720 x 480
Menu Audio File - None
Menu Sub-Picture File C:\Temp\651938120_tmpsub5.bmp
Picture size - 720 x 480
************************
* *
* Status Messages *
* *
************************
Start building Video Title Set ( VTS ) ... - 2001
Title - 1
Start building VOB streams - 2210
Muxing elementary streams is in process ... - 2220
Initializing audio packets ... - 3005
Initializing AC3 (MOT) audio packet ... - 3030
Initializing audio packets ... - 3005
Initializing AC3 (MOT) audio packet ... - 3030
Initializing audio packets ... - 3005
Initializing AC3 (MOT) audio packet ... - 3030
Initializing audio packets ... - 3005
Initializing AC3 (MOT) audio packet ... - 3030
Muxing is in process ... - 2300
Audio packetizing ends - 3025
Audio packetizing ends - 3025
Audio packetizing ends - 3025
Audio packetizing ends - 3025
Creating PGC for the title is in process ... - 2500
Creating dummy menu is in process ... - 2790
Creating motion menu is in process ... - 2600
Initializing audio packets ... - 3005
Initializing AC3 (MOT) audio packet ... - 3030
Muxing is in process ... - 2300
Audio packetizing ends - 3025
Creating motion menu is in process ... - 2600
Initializing audio packets ... - 3005
Initializing AC3 (MOT) audio packet ... - 3030
Muxing is in process ... - 2300
Audio packetizing ends - 3025
Creating motion menu is in process ... - 2600
Initializing audio packets ... - 3005
Initializing AC3 (MOT) audio packet ... - 3030
Muxing is in process ... - 2300
Audio packetizing ends - 3025
Creating still menu is in process ... - 2700
Start encoding bitmap ... - 2750
Reading bitmap is in process ... - 2740
[INFO] - No audio stream is provided - 3019
Creating still menu is in process ... - 2700
Start encoding bitmap ... - 2750
Reading bitmap is in process ... - 2740
[INFO] - No audio stream is provided - 3019
Creating still menu is in process ... - 2700
Start encoding bitmap ... - 2750
Reading bitmap is in process ... - 2740
[INFO] - No audio stream is provided - 3019
Encoding bitmap and building VOBU is in process ... - 2450
Encoding bitmap and building VOBU is in process ... - 2450
Encoding bitmap and building VOBU is in process ... - 2450
Encoding bitmap and building VOBU is in process ... - 2450
Building VTS IFO stream is in process ... - 2800
Start building Video Manager (VMG) ... - 2005
Creating dummy menu is in process ... - 2790
Creating motion menu is in process ... - 2600
Initializing audio packets ... - 3005
Initializing AC3 (MOT) audio packet ... - 3030
Muxing is in process ... - 2300
Audio packetizing ends - 3025
Building VMG IFO stream is in process ... - 2850
*** Post Verification ***
No error was found in the post verification process
Authoring is successfully completed - 3900

Скриншот MKVExtractGUI2

Скриншоты Carbon Coder

Скриншот UsEac3To

Скриншот TranzcodeGUI

Скриншоты Vegas Pro

Скриншот DVD-lab PRO 2

Точка перехода

MediaInfo

Общее
Полное имя : D:\Hero_2002\VIDEO_TS\VIDEO_TS.BUP
Формат : DVD Video
Профиль формата : Menu
Размер файла : 12,0 Кбайт
Режим общего битрейта : Переменный
Видео
Идентификатор : 224 (0xE0)
Формат : MPEG Video
Версия формата : Version 2
Вид битрейта : Переменный
Ширина : 720 пикселей
Высота : 480 пикселей
Соотношение сторон : 16:9
Частота кадров : 29,970 кадров/сек
Стандарт вещания : NTSC
Метод сжатия : С потерями
Аудио
Формат : AC-3
Формат/Информация : Audio Coding 3
Каналы : 6 каналов
Частота : 48,0 КГц
Метод сжатия : С потерями
Текст
Формат : RLE
Формат/Информация : Run-length encoding
Битовая глубина : 2 бит
Общее
Полное имя : D:\Hero_2002\VIDEO_TS\VIDEO_TS.IFO
Формат : DVD Video
Профиль формата : Menu
Размер файла : 12,0 Кбайт
Режим общего битрейта : Переменный
Видео
Идентификатор : 224 (0xE0)
Формат : MPEG Video
Версия формата : Version 2
Вид битрейта : Переменный
Ширина : 720 пикселей
Высота : 480 пикселей
Соотношение сторон : 16:9
Частота кадров : 29,970 кадров/сек
Стандарт вещания : NTSC
Метод сжатия : С потерями
Аудио
Формат : AC-3
Формат/Информация : Audio Coding 3
Каналы : 6 каналов
Частота : 48,0 КГц
Метод сжатия : С потерями
Текст
Формат : RLE
Формат/Информация : Run-length encoding
Битовая глубина : 2 бит
Общее
Полное имя : D:\Hero_2002\VIDEO_TS\VIDEO_TS.VOB
Формат : MPEG-PS
Размер файла : 19,9 Мбайт
Продолжительность : 21 с.
Режим общего битрейта : Переменный
Общий поток : 7598 Кбит/сек
Видео
Идентификатор : 224 (0xE0)
Формат : MPEG Video
Версия формата : Version 2
Профиль формата : Main@Main
Параметр BVOP формата : Да
Параметр матрицы формата : Выборочная
Параметр GOP формата : M=3, N=12
Продолжительность : 21 с.
Вид битрейта : Переменный
Битрейт : 6998 Кбит/сек
Максимальный битрейт : 7500 Кбит/сек
Ширина : 720 пикселей
Высота : 480 пикселей
Соотношение сторон : 16:9
Частота кадров : 23,976 кадра/сек
Стандарт вещания : NTSC
Цветовое пространство : YUV
Субдискретизация насыщенности : 4:2:0
Битовая глубина : 8 бит
Тип развёртки : Прогрессивная
Порядок развёртки : 2:3 Pulldown
Метод сжатия : С потерями
Бит/(Пиксели*Кадры) : 0.845
TimeCode_FirstFrame : 00:00:00:00
TimeCode_Source : Group of pictures header
Размер потока : 18,3 Мбайт (92%)
Аудио
Идентификатор : 189 (0xBD)-128 (0x80)
Формат : AC-3
Формат/Информация : Audio Coding 3
Расширение режима : CM (complete main)
Параметр Endianness формата : Big
Режим смешивания : DVD-Video
Продолжительность : 21 с.
Вид битрейта : Постоянный
Битрейт : 448 Кбит/сек
Каналы : 6 каналов
Расположение каналов : Front: L C R, Side: L R, LFE
Частота : 48,0 КГц
Битовая глубина : 16 бит
Метод сжатия : С потерями
Размер потока : 1,17 Мбайт (6%)
Текст #1
Идентификатор : 189 (0xBD)-32 (0x20)
Формат : RLE
Формат/Информация : Run-length encoding
Режим смешивания : DVD-Video
Текст #2
Идентификатор : 189 (0xBD)-34 (0x22)
Формат : RLE
Формат/Информация : Run-length encoding
Режим смешивания : DVD-Video
Меню
Общее
Полное имя : D:\Hero_2002\VIDEO_TS\VTS_01_0.BUP
Формат : DVD Video
Профиль формата : Program
Размер файла : 70,0 Кбайт
Продолжительность : 1 ч. 39 м.
Режим общего битрейта : Переменный
Общий поток : 96 бит/сек
Видео
Идентификатор : 224 (0xE0)
Формат : MPEG Video
Версия формата : Version 2
Продолжительность : 1 ч. 39 м.
Вид битрейта : Переменный
Ширина : 720 пикселей
Высота : 480 пикселей
Соотношение сторон : 16:9
Частота кадров : 29,970 кадров/сек
Стандарт вещания : NTSC
Метод сжатия : С потерями
Аудио #1
Идентификатор : 128 (0x80)
Формат : AC-3
Формат/Информация : Audio Coding 3
Продолжительность : 1 ч. 39 м.
Каналы : 6 каналов
Частота : 48,0 КГц
Метод сжатия : С потерями
Язык : Russian
Аудио #2
Идентификатор : 129 (0x81)
Формат : AC-3
Формат/Информация : Audio Coding 3
Продолжительность : 1 ч. 39 м.
Каналы : 6 каналов
Частота : 48,0 КГц
Метод сжатия : С потерями
Язык : Russian
Аудио #3
Идентификатор : 130 (0x82)
Формат : AC-3
Формат/Информация : Audio Coding 3
Продолжительность : 1 ч. 39 м.
Каналы : 6 каналов
Частота : 48,0 КГц
Метод сжатия : С потерями
Язык : Chinese
Аудио #4
Идентификатор : 131 (0x83)
Формат : AC-3
Формат/Информация : Audio Coding 3
Продолжительность : 1 ч. 39 м.
Каналы : 6 каналов
Частота : 48,0 КГц
Метод сжатия : С потерями
Язык : English
Текст #1
Идентификатор : 32 (0x20)
Формат : RLE
Формат/Информация : Run-length encoding
Битовая глубина : 2 бит
Язык : Russian
Текст #2
Идентификатор : 33 (0x21)
Формат : RLE
Формат/Информация : Run-length encoding
Битовая глубина : 2 бит
Язык : Russian
Текст #3
Идентификатор : 34 (0x22)
Формат : RLE
Формат/Информация : Run-length encoding
Битовая глубина : 2 бит
Язык : English
Меню
Продолжительность : 1 ч. 39 м.
00:00:00.000 : Chapter 1
00:10:39.166 : Chapter 2
00:16:40.699 : Chapter 3
00:25:08.465 : Chapter 4
00:34:47.098 : Chapter 5
00:41:23.464 : Chapter 6
00:49:37.197 : Chapter 7
00:54:35.363 : Chapter 8
00:57:52.563 : Chapter 9
01:06:05.663 : Chapter 10
01:14:23.729 : Chapter 11
01:22:38.195 : Chapter 12
01:30:53.495 : Chapter 13
01:39:03.261 : Chapter 14
List (Audio) : 0 / 1 / 2 / 3
List (Subtitles 4/3) : 0 / 1 / 2
List (Subtitles Wide) : 0 / 1 / 2
List (Subtitles Letterbox) : 0 / 1 / 2
List (Subtitles Pan&Scan) : 0 / 1 / 2
Общее
Полное имя : D:\Hero_2002\VIDEO_TS\VTS_01_0.IFO
Формат : DVD Video
Профиль формата : Program
Размер файла : 70,0 Кбайт
Продолжительность : 1 ч. 39 м.
Режим общего битрейта : Переменный
Общий поток : 96 бит/сек
Видео
Идентификатор : 224 (0xE0)
Формат : MPEG Video
Версия формата : Version 2
Продолжительность : 1 ч. 39 м.
Вид битрейта : Переменный
Ширина : 720 пикселей
Высота : 480 пикселей
Соотношение сторон : 16:9
Частота кадров : 29,970 кадров/сек
Стандарт вещания : NTSC
Метод сжатия : С потерями
Аудио #1
Идентификатор : 128 (0x80)
Формат : AC-3
Формат/Информация : Audio Coding 3
Продолжительность : 1 ч. 39 м.
Каналы : 6 каналов
Частота : 48,0 КГц
Метод сжатия : С потерями
Язык : Russian
Аудио #2
Идентификатор : 129 (0x81)
Формат : AC-3
Формат/Информация : Audio Coding 3
Продолжительность : 1 ч. 39 м.
Каналы : 6 каналов
Частота : 48,0 КГц
Метод сжатия : С потерями
Язык : Russian
Аудио #3
Идентификатор : 130 (0x82)
Формат : AC-3
Формат/Информация : Audio Coding 3
Продолжительность : 1 ч. 39 м.
Каналы : 6 каналов
Частота : 48,0 КГц
Метод сжатия : С потерями
Язык : Chinese
Аудио #4
Идентификатор : 131 (0x83)
Формат : AC-3
Формат/Информация : Audio Coding 3
Продолжительность : 1 ч. 39 м.
Каналы : 6 каналов
Частота : 48,0 КГц
Метод сжатия : С потерями
Язык : English
Текст #1
Идентификатор : 32 (0x20)
Формат : RLE
Формат/Информация : Run-length encoding
Битовая глубина : 2 бит
Язык : Russian
Текст #2
Идентификатор : 33 (0x21)
Формат : RLE
Формат/Информация : Run-length encoding
Битовая глубина : 2 бит
Язык : Russian
Текст #3
Идентификатор : 34 (0x22)
Формат : RLE
Формат/Информация : Run-length encoding
Битовая глубина : 2 бит
Язык : English
Меню
Продолжительность : 1 ч. 39 м.
00:00:00.000 : Chapter 1
00:10:39.166 : Chapter 2
00:16:40.699 : Chapter 3
00:25:08.465 : Chapter 4
00:34:47.098 : Chapter 5
00:41:23.464 : Chapter 6
00:49:37.197 : Chapter 7
00:54:35.363 : Chapter 8
00:57:52.563 : Chapter 9
01:06:05.663 : Chapter 10
01:14:23.729 : Chapter 11
01:22:38.195 : Chapter 12
01:30:53.495 : Chapter 13
01:39:03.261 : Chapter 14
List (Audio) : 0 / 1 / 2 / 3
List (Subtitles 4/3) : 0 / 1 / 2
List (Subtitles Wide) : 0 / 1 / 2
List (Subtitles Letterbox) : 0 / 1 / 2
List (Subtitles Pan&Scan) : 0 / 1 / 2
Общее
Полное имя : D:\Hero_2002\VIDEO_TS\VTS_01_0.VOB
Формат : MPEG-PS
Размер файла : 132 Мбайт
Продолжительность : 58 с.
Режим общего битрейта : Переменный
Общий поток : 18,7 Мбит/сек
Видео
Идентификатор : 224 (0xE0)
Формат : MPEG Video
Версия формата : Version 2
Профиль формата : Main@Main
Параметр BVOP формата : Да
Параметр матрицы формата : По умолчанию
Параметр GOP формата : Variable
Продолжительность : 2 с. 35 мс.
Вид битрейта : Переменный
Битрейт : 17,9 Мбит/сек
Максимальный битрейт : 8000 Кбит/сек
Ширина : 720 пикселей
Высота : 480 пикселей
Соотношение сторон : 16:9
Частота кадров : 29,970 кадров/сек
Стандарт вещания : NTSC
Цветовое пространство : YUV
Субдискретизация насыщенности : 4:2:0
Битовая глубина : 8 бит
Тип развёртки : Чересстрочная
Порядок развёртки : Верхнее поле первое
Метод сжатия : С потерями
Бит/(Пиксели*Кадры) : 1.731
TimeCode_FirstFrame : 00:00:00:00
TimeCode_Source : Group of pictures header
Размер потока : 4,35 Мбайт (3%)
Основные цвета : BT.601 NTSC
Характеристики трансфера : BT.601
Коэффициенты матрицы : BT.601
Аудио
Идентификатор : 189 (0xBD)-128 (0x80)
Формат : AC-3
Формат/Информация : Audio Coding 3
Расширение режима : ME (music and effects)
Параметр Endianness формата : Big
Режим смешивания : DVD-Video
Продолжительность : 58 с.
Вид битрейта : Постоянный
Битрейт : 448 Кбит/сек
Каналы : 6 каналов
Расположение каналов : Front: L C R, Side: L R, LFE
Частота : 48,0 КГц
Битовая глубина : 16 бит
Метод сжатия : С потерями
Размер потока : 3,14 Мбайт (2%)
Текст #1
Идентификатор : 189 (0xBD)-32 (0x20)
Формат : RLE
Формат/Информация : Run-length encoding
Режим смешивания : DVD-Video
Продолжительность : 2 с. 68 мс.
Текст #2
Идентификатор : 189 (0xBD)-34 (0x22)
Формат : RLE
Формат/Информация : Run-length encoding
Режим смешивания : DVD-Video
Продолжительность : 2 с. 68 мс.
Меню
Общее
Полное имя : D:\Hero_2002\VIDEO_TS\VTS_01_1.VOB
Формат : MPEG-PS
Размер файла : 1024 Мбайт
Продолжительность : 14 м.
Общий поток : 9970 Кбит/сек
Видео
Идентификатор : 224 (0xE0)
Формат : MPEG Video
Версия формата : Version 2
Профиль формата : Main@Main
Параметр BVOP формата : Да
Параметр матрицы формата : Выборочная
Параметр GOP формата : Variable
Продолжительность : 14 м.
Битрейт : 8000 Кбит/сек
Ширина : 720 пикселей
Высота : 480 пикселей
Соотношение сторон : 16:9
Частота кадров : 23,976 кадра/сек
Стандарт вещания : NTSC
Цветовое пространство : YUV
Субдискретизация насыщенности : 4:2:0
Битовая глубина : 8 бит
Тип развёртки : Прогрессивная
Порядок развёртки : 2:3 Pulldown
Метод сжатия : С потерями
Бит/(Пиксели*Кадры) : 0.965
TimeCode_FirstFrame : 00:00:00:00
TimeCode_Source : Group of pictures header
Размер потока : 820 Мбайт (80%)
Аудио #1
Идентификатор : 189 (0xBD)-128 (0x80)
Формат : AC-3
Формат/Информация : Audio Coding 3
Расширение режима : CM (complete main)
Параметр Endianness формата : Big
Режим смешивания : DVD-Video
Продолжительность : 14 м.
Вид битрейта : Постоянный
Битрейт : 448 Кбит/сек
Каналы : 6 каналов
Расположение каналов : Front: L C R, Side: L R, LFE
Частота : 48,0 КГц
Битовая глубина : 16 бит
Метод сжатия : С потерями
Размер потока : 46,0 Мбайт (4%)
Аудио #2
Идентификатор : 189 (0xBD)-129 (0x81)
Формат : AC-3
Формат/Информация : Audio Coding 3
Расширение режима : CM (complete main)
Параметр Endianness формата : Big
Режим смешивания : DVD-Video
Продолжительность : 14 м.
Вид битрейта : Постоянный
Битрейт : 448 Кбит/сек
Каналы : 6 каналов
Расположение каналов : Front: L C R, Side: L R, LFE
Частота : 48,0 КГц
Битовая глубина : 16 бит
Метод сжатия : С потерями
Размер потока : 46,0 Мбайт (4%)
Аудио #3
Идентификатор : 189 (0xBD)-130 (0x82)
Формат : AC-3
Формат/Информация : Audio Coding 3
Расширение режима : CM (complete main)
Параметр Endianness формата : Big
Режим смешивания : DVD-Video
Продолжительность : 14 м.
Вид битрейта : Постоянный
Битрейт : 448 Кбит/сек
Каналы : 6 каналов
Расположение каналов : Front: L C R, Side: L R, LFE
Частота : 48,0 КГц
Битовая глубина : 16 бит
Метод сжатия : С потерями
Размер потока : 46,0 Мбайт (4%)
Аудио #4
Идентификатор : 189 (0xBD)-131 (0x83)
Формат : AC-3
Формат/Информация : Audio Coding 3
Расширение режима : CM (complete main)
Параметр Endianness формата : Big
Режим смешивания : DVD-Video
Продолжительность : 14 м.
Вид битрейта : Постоянный
Битрейт : 448 Кбит/сек
Каналы : 6 каналов
Расположение каналов : Front: L C R, Side: L R, LFE
Частота : 48,0 КГц
Битовая глубина : 16 бит
Метод сжатия : С потерями
Размер потока : 46,0 Мбайт (4%)
Меню
Общее
Полное имя : D:\Hero_2002\VIDEO_TS\VTS_01_2.VOB
Формат : MPEG-PS
Размер файла : 1024 Мбайт
Продолжительность : 14 м.
Общий поток : 9972 Кбит/сек
Видео
Идентификатор : 224 (0xE0)
Формат : MPEG Video
Версия формата : Version 2
Профиль формата : Main@Main
Параметр BVOP формата : Да
Параметр матрицы формата : Выборочная
Параметр GOP формата : Variable
Продолжительность : 14 м.
Битрейт : 8000 Кбит/сек
Ширина : 720 пикселей
Высота : 480 пикселей
Соотношение сторон : 16:9
Частота кадров : 23,976 кадра/сек
Стандарт вещания : NTSC
Цветовое пространство : YUV
Субдискретизация насыщенности : 4:2:0
Битовая глубина : 8 бит
Тип развёртки : Прогрессивная
Порядок развёртки : 2:3 Pulldown
Метод сжатия : С потерями
Бит/(Пиксели*Кадры) : 0.965
TimeCode_FirstFrame : 00:14:20:24
TimeCode_Source : Group of pictures header
Размер потока : 820 Мбайт (80%)
Аудио #1
Идентификатор : 189 (0xBD)-128 (0x80)
Формат : AC-3
Формат/Информация : Audio Coding 3
Расширение режима : CM (complete main)
Параметр Endianness формата : Big
Режим смешивания : DVD-Video
Продолжительность : 14 м.
Вид битрейта : Постоянный
Битрейт : 448 Кбит/сек
Каналы : 6 каналов
Расположение каналов : Front: L C R, Side: L R, LFE
Частота : 48,0 КГц
Битовая глубина : 16 бит
Метод сжатия : С потерями
Задержка видео : -172 мс.
Размер потока : 46,0 Мбайт (4%)
Аудио #2
Идентификатор : 189 (0xBD)-129 (0x81)
Формат : AC-3
Формат/Информация : Audio Coding 3
Расширение режима : CM (complete main)
Параметр Endianness формата : Big
Режим смешивания : DVD-Video
Продолжительность : 14 м.
Вид битрейта : Постоянный
Битрейт : 448 Кбит/сек
Каналы : 6 каналов
Расположение каналов : Front: L C R, Side: L R, LFE
Частота : 48,0 КГц
Битовая глубина : 16 бит
Метод сжатия : С потерями
Задержка видео : -172 мс.
Размер потока : 46,0 Мбайт (4%)
Аудио #3
Идентификатор : 189 (0xBD)-130 (0x82)
Формат : AC-3
Формат/Информация : Audio Coding 3
Расширение режима : CM (complete main)
Параметр Endianness формата : Big
Режим смешивания : DVD-Video
Продолжительность : 14 м.
Вид битрейта : Постоянный
Битрейт : 448 Кбит/сек
Каналы : 6 каналов
Расположение каналов : Front: L C R, Side: L R, LFE
Частота : 48,0 КГц
Битовая глубина : 16 бит
Метод сжатия : С потерями
Задержка видео : -172 мс.
Размер потока : 46,0 Мбайт (4%)
Аудио #4
Идентификатор : 189 (0xBD)-131 (0x83)
Формат : AC-3
Формат/Информация : Audio Coding 3
Расширение режима : CM (complete main)
Параметр Endianness формата : Big
Режим смешивания : DVD-Video
Продолжительность : 14 м.
Вид битрейта : Постоянный
Битрейт : 448 Кбит/сек
Каналы : 6 каналов
Расположение каналов : Front: L C R, Side: L R, LFE
Частота : 48,0 КГц
Битовая глубина : 16 бит
Метод сжатия : С потерями
Задержка видео : -172 мс.
Размер потока : 46,0 Мбайт (4%)
Меню
Общее
Полное имя : D:\Hero_2002\VIDEO_TS\VTS_01_3.VOB
Формат : MPEG-PS
Размер файла : 1024 Мбайт
Продолжительность : 14 м.
Общий поток : 9969 Кбит/сек
Видео
Идентификатор : 224 (0xE0)
Формат : MPEG Video
Версия формата : Version 2
Профиль формата : Main@Main
Параметр BVOP формата : Да
Параметр матрицы формата : Выборочная
Параметр GOP формата : M=3, N=12
Продолжительность : 14 м.
Битрейт : 8000 Кбит/сек
Ширина : 720 пикселей
Высота : 480 пикселей
Соотношение сторон : 16:9
Частота кадров : 23,976 кадра/сек
Стандарт вещания : NTSC
Цветовое пространство : YUV
Субдискретизация насыщенности : 4:2:0
Битовая глубина : 8 бит
Тип развёртки : Прогрессивная
Порядок развёртки : 2:3 Pulldown
Метод сжатия : С потерями
Бит/(Пиксели*Кадры) : 0.965
TimeCode_FirstFrame : 00:28:41:19
TimeCode_Source : Group of pictures header
Размер потока : 819 Мбайт (80%)
Аудио #1
Идентификатор : 189 (0xBD)-128 (0x80)
Формат : AC-3
Формат/Информация : Audio Coding 3
Расширение режима : CM (complete main)
Параметр Endianness формата : Big
Режим смешивания : DVD-Video
Продолжительность : 14 м.
Вид битрейта : Постоянный
Битрейт : 448 Кбит/сек
Каналы : 6 каналов
Расположение каналов : Front: L C R, Side: L R, LFE
Частота : 48,0 КГц
Битовая глубина : 16 бит
Метод сжатия : С потерями
Задержка видео : -509 мс.
Размер потока : 46,0 Мбайт (4%)
Аудио #2
Идентификатор : 189 (0xBD)-129 (0x81)
Формат : AC-3
Формат/Информация : Audio Coding 3
Расширение режима : CM (complete main)
Параметр Endianness формата : Big
Режим смешивания : DVD-Video
Продолжительность : 14 м.
Вид битрейта : Постоянный
Битрейт : 448 Кбит/сек
Каналы : 6 каналов
Расположение каналов : Front: L C R, Side: L R, LFE
Частота : 48,0 КГц
Битовая глубина : 16 бит
Метод сжатия : С потерями
Задержка видео : -509 мс.
Размер потока : 46,0 Мбайт (4%)
Аудио #3
Идентификатор : 189 (0xBD)-130 (0x82)
Формат : AC-3
Формат/Информация : Audio Coding 3
Расширение режима : CM (complete main)
Параметр Endianness формата : Big
Режим смешивания : DVD-Video
Продолжительность : 14 м.
Вид битрейта : Постоянный
Битрейт : 448 Кбит/сек
Каналы : 6 каналов
Расположение каналов : Front: L C R, Side: L R, LFE
Частота : 48,0 КГц
Битовая глубина : 16 бит
Метод сжатия : С потерями
Задержка видео : -509 мс.
Размер потока : 46,0 Мбайт (4%)
Аудио #4
Идентификатор : 189 (0xBD)-131 (0x83)
Формат : AC-3
Формат/Информация : Audio Coding 3
Расширение режима : CM (complete main)
Параметр Endianness формата : Big
Режим смешивания : DVD-Video
Продолжительность : 14 м.
Вид битрейта : Постоянный
Битрейт : 448 Кбит/сек
Каналы : 6 каналов
Расположение каналов : Front: L C R, Side: L R, LFE
Частота : 48,0 КГц
Битовая глубина : 16 бит
Метод сжатия : С потерями
Задержка видео : -509 мс.
Размер потока : 46,0 Мбайт (4%)
Текст #1
Идентификатор : 189 (0xBD)-33 (0x21)
Формат : RLE
Формат/Информация : Run-length encoding
Режим смешивания : DVD-Video
Продолжительность : 14 м.
Задержка видео : 5 с. 873 мс.
Текст #2
Идентификатор : 189 (0xBD)-34 (0x22)
Формат : RLE
Формат/Информация : Run-length encoding
Режим смешивания : DVD-Video
Продолжительность : 14 м.
Задержка видео : 5 с. 739 мс.
Меню
Общее
Полное имя : D:\Hero_2002\VIDEO_TS\VTS_01_4.VOB
Формат : MPEG-PS
Размер файла : 1024 Мбайт
Продолжительность : 14 м.
Общий поток : 9965 Кбит/сек
Видео
Идентификатор : 224 (0xE0)
Формат : MPEG Video
Версия формата : Version 2
Профиль формата : Main@Main
Параметр BVOP формата : Да
Параметр матрицы формата : Выборочная
Параметр GOP формата : M=3, N=12
Продолжительность : 14 м.
Битрейт : 8000 Кбит/сек
Ширина : 720 пикселей
Высота : 480 пикселей
Соотношение сторон : 16:9
Частота кадров : 23,976 кадра/сек
Стандарт вещания : NTSC
Цветовое пространство : YUV
Субдискретизация насыщенности : 4:2:0
Битовая глубина : 8 бит
Тип развёртки : Прогрессивная
Порядок развёртки : 2:3 Pulldown
Метод сжатия : С потерями
Бит/(Пиксели*Кадры) : 0.965
TimeCode_FirstFrame : 00:43:02:11
TimeCode_Source : Group of pictures header
Размер потока : 819 Мбайт (80%)
Аудио #1
Идентификатор : 189 (0xBD)-128 (0x80)
Формат : AC-3
Формат/Информация : Audio Coding 3
Расширение режима : CM (complete main)
Параметр Endianness формата : Big
Режим смешивания : DVD-Video
Продолжительность : 14 м.
Вид битрейта : Постоянный
Битрейт : 448 Кбит/сек
Каналы : 6 каналов
Расположение каналов : Front: L C R, Side: L R, LFE
Частота : 48,0 КГц
Битовая глубина : 16 бит
Метод сжатия : С потерями
Задержка видео : -425 мс.
Размер потока : 46,0 Мбайт (4%)
Аудио #2
Идентификатор : 189 (0xBD)-129 (0x81)
Формат : AC-3
Формат/Информация : Audio Coding 3
Расширение режима : CM (complete main)
Параметр Endianness формата : Big
Режим смешивания : DVD-Video
Продолжительность : 14 м.
Вид битрейта : Постоянный
Битрейт : 448 Кбит/сек
Каналы : 6 каналов
Расположение каналов : Front: L C R, Side: L R, LFE
Частота : 48,0 КГц
Битовая глубина : 16 бит
Метод сжатия : С потерями
Задержка видео : -425 мс.
Размер потока : 46,0 Мбайт (4%)
Аудио #3
Идентификатор : 189 (0xBD)-130 (0x82)
Формат : AC-3
Формат/Информация : Audio Coding 3
Расширение режима : CM (complete main)
Параметр Endianness формата : Big
Режим смешивания : DVD-Video
Продолжительность : 14 м.
Вид битрейта : Постоянный
Битрейт : 448 Кбит/сек
Каналы : 6 каналов
Расположение каналов : Front: L C R, Side: L R, LFE
Частота : 48,0 КГц
Битовая глубина : 16 бит
Метод сжатия : С потерями
Задержка видео : -457 мс.
Размер потока : 46,0 Мбайт (4%)
Аудио #4
Идентификатор : 189 (0xBD)-131 (0x83)
Формат : AC-3
Формат/Информация : Audio Coding 3
Расширение режима : CM (complete main)
Параметр Endianness формата : Big
Режим смешивания : DVD-Video
Продолжительность : 14 м.
Вид битрейта : Постоянный
Битрейт : 448 Кбит/сек
Каналы : 6 каналов
Расположение каналов : Front: L C R, Side: L R, LFE
Частота : 48,0 КГц
Битовая глубина : 16 бит
Метод сжатия : С потерями
Задержка видео : -457 мс.
Размер потока : 46,0 Мбайт (4%)
Текст #1
Идентификатор : 189 (0xBD)-33 (0x21)
Формат : RLE
Формат/Информация : Run-length encoding
Режим смешивания : DVD-Video
Продолжительность : 14 м.
Задержка видео : 12 с.
Текст #2
Идентификатор : 189 (0xBD)-34 (0x22)
Формат : RLE
Формат/Информация : Run-length encoding
Режим смешивания : DVD-Video
Продолжительность : 14 м.
Задержка видео : 11 с.
Меню
Общее
Полное имя : D:\Hero_2002\VIDEO_TS\VTS_01_5.VOB
Формат : MPEG-PS
Размер файла : 1024 Мбайт
Продолжительность : 14 м.
Общий поток : 9972 Кбит/сек
Видео
Идентификатор : 224 (0xE0)
Формат : MPEG Video
Версия формата : Version 2
Профиль формата : Main@Main
Параметр BVOP формата : Да
Параметр матрицы формата : Выборочная
Параметр GOP формата : Variable
Продолжительность : 14 м.
Битрейт : 8000 Кбит/сек
Ширина : 720 пикселей
Высота : 480 пикселей
Соотношение сторон : 16:9
Частота кадров : 23,976 кадра/сек
Стандарт вещания : NTSC
Цветовое пространство : YUV
Субдискретизация насыщенности : 4:2:0
Битовая глубина : 8 бит
Тип развёртки : Прогрессивная
Порядок развёртки : 2:3 Pulldown
Метод сжатия : С потерями
Бит/(Пиксели*Кадры) : 0.965
TimeCode_FirstFrame : 00:57:23:18
TimeCode_Source : Group of pictures header
Размер потока : 819 Мбайт (80%)
Аудио #1
Идентификатор : 189 (0xBD)-128 (0x80)
Формат : AC-3
Формат/Информация : Audio Coding 3
Расширение режима : CM (complete main)
Параметр Endianness формата : Big
Режим смешивания : DVD-Video
Продолжительность : 14 м.
Вид битрейта : Постоянный
Битрейт : 448 Кбит/сек
Каналы : 6 каналов
Расположение каналов : Front: L C R, Side: L R, LFE
Частота : 48,0 КГц
Битовая глубина : 16 бит
Метод сжатия : С потерями
Задержка видео : -487 мс.
Размер потока : 46,0 Мбайт (4%)
Аудио #2
Идентификатор : 189 (0xBD)-129 (0x81)
Формат : AC-3
Формат/Информация : Audio Coding 3
Расширение режима : CM (complete main)
Параметр Endianness формата : Big
Режим смешивания : DVD-Video
Продолжительность : 14 м.
Вид битрейта : Постоянный
Битрейт : 448 Кбит/сек
Каналы : 6 каналов
Расположение каналов : Front: L C R, Side: L R, LFE
Частота : 48,0 КГц
Битовая глубина : 16 бит
Метод сжатия : С потерями
Задержка видео : -487 мс.
Размер потока : 46,0 Мбайт (4%)
Аудио #3
Идентификатор : 189 (0xBD)-130 (0x82)
Формат : AC-3
Формат/Информация : Audio Coding 3
Расширение режима : CM (complete main)
Параметр Endianness формата : Big
Режим смешивания : DVD-Video
Продолжительность : 14 м.
Вид битрейта : Постоянный
Битрейт : 448 Кбит/сек
Каналы : 6 каналов
Расположение каналов : Front: L C R, Side: L R, LFE
Частота : 48,0 КГц
Битовая глубина : 16 бит
Метод сжатия : С потерями
Задержка видео : -487 мс.
Размер потока : 46,0 Мбайт (4%)
Аудио #4
Идентификатор : 189 (0xBD)-131 (0x83)
Формат : AC-3
Формат/Информация : Audio Coding 3
Расширение режима : CM (complete main)
Параметр Endianness формата : Big
Режим смешивания : DVD-Video
Продолжительность : 14 м.
Вид битрейта : Постоянный
Битрейт : 448 Кбит/сек
Каналы : 6 каналов
Расположение каналов : Front: L C R, Side: L R, LFE
Частота : 48,0 КГц
Битовая глубина : 16 бит
Метод сжатия : С потерями
Задержка видео : -487 мс.
Размер потока : 46,0 Мбайт (4%)
Текст #1
Идентификатор : 189 (0xBD)-33 (0x21)
Формат : RLE
Формат/Информация : Run-length encoding
Режим смешивания : DVD-Video
Задержка видео : 10 с.
Текст #2
Идентификатор : 189 (0xBD)-34 (0x22)
Формат : RLE
Формат/Информация : Run-length encoding
Режим смешивания : DVD-Video
Задержка видео : 9 с. 943 мс.
Меню
Общее
Полное имя : D:\Hero_2002\VIDEO_TS\VTS_01_6.VOB
Формат : MPEG-PS
Размер файла : 1024 Мбайт
Продолжительность : 14 м.
Общий поток : 9970 Кбит/сек
Видео
Идентификатор : 224 (0xE0)
Формат : MPEG Video
Версия формата : Version 2
Профиль формата : Main@Main
Параметр BVOP формата : Да
Параметр матрицы формата : Выборочная
Параметр GOP формата : Variable
Продолжительность : 14 м.
Битрейт : 8000 Кбит/сек
Ширина : 720 пикселей
Высота : 480 пикселей
Соотношение сторон : 16:9
Частота кадров : 23,976 кадра/сек
Стандарт вещания : NTSC
Цветовое пространство : YUV
Субдискретизация насыщенности : 4:2:0
Битовая глубина : 8 бит
Тип развёртки : Прогрессивная
Порядок развёртки : 2:3 Pulldown
Метод сжатия : С потерями
Бит/(Пиксели*Кадры) : 0.965
TimeCode_FirstFrame : 01:11:44:05
TimeCode_Source : Group of pictures header
Размер потока : 819 Мбайт (80%)
Аудио #1
Идентификатор : 189 (0xBD)-128 (0x80)
Формат : AC-3
Формат/Информация : Audio Coding 3
Расширение режима : CM (complete main)
Параметр Endianness формата : Big
Режим смешивания : DVD-Video
Продолжительность : 14 м.
Вид битрейта : Постоянный
Битрейт : 448 Кбит/сек
Каналы : 6 каналов
Расположение каналов : Front: L C R, Side: L R, LFE
Частота : 48,0 КГц
Битовая глубина : 16 бит
Метод сжатия : С потерями
Задержка видео : -459 мс.
Размер потока : 46,0 Мбайт (4%)
Аудио #2
Идентификатор : 189 (0xBD)-129 (0x81)
Формат : AC-3
Формат/Информация : Audio Coding 3
Расширение режима : CM (complete main)
Параметр Endianness формата : Big
Режим смешивания : DVD-Video
Продолжительность : 14 м.
Вид битрейта : Постоянный
Битрейт : 448 Кбит/сек
Каналы : 6 каналов
Расположение каналов : Front: L C R, Side: L R, LFE
Частота : 48,0 КГц
Битовая глубина : 16 бит
Метод сжатия : С потерями
Задержка видео : -459 мс.
Размер потока : 46,0 Мбайт (4%)
Аудио #3
Идентификатор : 189 (0xBD)-130 (0x82)
Формат : AC-3
Формат/Информация : Audio Coding 3
Расширение режима : CM (complete main)
Параметр Endianness формата : Big
Режим смешивания : DVD-Video
Продолжительность : 14 м.
Вид битрейта : Постоянный
Битрейт : 448 Кбит/сек
Каналы : 6 каналов
Расположение каналов : Front: L C R, Side: L R, LFE
Частота : 48,0 КГц
Битовая глубина : 16 бит
Метод сжатия : С потерями
Задержка видео : -459 мс.
Размер потока : 46,0 Мбайт (4%)
Аудио #4
Идентификатор : 189 (0xBD)-131 (0x83)
Формат : AC-3
Формат/Информация : Audio Coding 3
Расширение режима : CM (complete main)
Параметр Endianness формата : Big
Режим смешивания : DVD-Video
Продолжительность : 14 м.
Вид битрейта : Постоянный
Битрейт : 448 Кбит/сек
Каналы : 6 каналов
Расположение каналов : Front: L C R, Side: L R, LFE
Частота : 48,0 КГц
Битовая глубина : 16 бит
Метод сжатия : С потерями
Задержка видео : -459 мс.
Размер потока : 46,0 Мбайт (4%)
Текст #1
Идентификатор : 189 (0xBD)-33 (0x21)
Формат : RLE
Формат/Информация : Run-length encoding
Режим смешивания : DVD-Video
Текст #2
Идентификатор : 189 (0xBD)-34 (0x22)
Формат : RLE
Формат/Информация : Run-length encoding
Режим смешивания : DVD-Video
Меню
Общее
Полное имя : D:\Hero_2002\VIDEO_TS\VTS_01_7.VOB
Формат : MPEG-PS
Размер файла : 929 Мбайт
Продолжительность : 13 м.
Общий поток : 9963 Кбит/сек
Видео
Идентификатор : 224 (0xE0)
Формат : MPEG Video
Версия формата : Version 2
Профиль формата : Main@Main
Параметр BVOP формата : Да
Параметр матрицы формата : Выборочная
Параметр GOP формата : Variable
Продолжительность : 13 м.
Битрейт : 8000 Кбит/сек
Ширина : 720 пикселей
Высота : 480 пикселей
Соотношение сторон : 16:9
Частота кадров : 23,976 кадра/сек
Стандарт вещания : NTSC
Цветовое пространство : YUV
Субдискретизация насыщенности : 4:2:0
Битовая глубина : 8 бит
Тип развёртки : Прогрессивная
Порядок развёртки : 2:3 Pulldown
Метод сжатия : С потерями
Бит/(Пиксели*Кадры) : 0.965
TimeCode_FirstFrame : 01:26:04:25
TimeCode_Source : Group of pictures header
Размер потока : 743 Мбайт (80%)
Аудио #1
Идентификатор : 189 (0xBD)-128 (0x80)
Формат : AC-3
Формат/Информация : Audio Coding 3
Расширение режима : CM (complete main)
Параметр Endianness формата : Big
Режим смешивания : DVD-Video
Продолжительность : 13 м.
Вид битрейта : Постоянный
Битрейт : 448 Кбит/сек
Каналы : 6 каналов
Расположение каналов : Front: L C R, Side: L R, LFE
Частота : 48,0 КГц
Битовая глубина : 16 бит
Метод сжатия : С потерями
Заде
Вы не можете начинать темы
Вы не можете отвечать на сообщения
Вы не можете редактировать свои сообщения
Вы не можете удалять свои сообщения
Вы не можете голосовать в опросах
Вы не можете прикреплять файлы к сообщениям
Вы можете скачивать файлы
!ВНИМАНИЕ!

Сайт не предоставляет электронные версии произведений, а занимается лишь коллекционированием и каталогизацией ссылок, присылаемых и публикуемых на форуме нашими читателями. Если вы являетесь правообладателем какого-либо представленного материала и не желаете, чтобы ссылка на него находилась в нашем каталоге, свяжитесь с нами, и мы незамедлительно удалим ее. Файлы для обмена на трекере предоставлены пользователями сайта, и администрация не несет ответственности за их содержание. Просьба не заливать файлы, защищенные авторскими правами, а также файлы нелегального содержания!

Искали программы, игры, дополнения, музыка mp3, аниме, аудио книги, журналы? Добро пожаловать на свободный торрент трекер Torrents, у нас можно скачать бесплатно, без смс и регистрации и прочих ограничений лучшие, отборные сборки программ, игр. Скачать торрентом не составит труда даже не опытному пользователю. Раздачи ежедневно обновляются, только лучшие и качественные раздачи, подробные описания и скриншоты. Огромная коллекция программ для работы со звуком, графикой, дизайном, а так же множество плагинов и инструментов к ним с подробной инструкцией и рекомендациями. Прошивки для навигаторов, карты. Разнообразные игры, для Windows, Linux. В коллекцие есть и старые игры любых жанров, Rpg, Action, Shooter, strategy Множество дополнений, модификаций, сценариев для популярных игр в жанре экш, рпг, гонки, стратегии, логические игры. Множество аддонов и сценариев для Microsoft Flight Simulator Большая коллекция книг, учебников. Если нет возможности купить печатное издание - смело скачивайте цифровую версию книги или, быть может, журнала. Не любите читать - можно загрузить бесплатно аудикнигу. Для веб дизайнеров и программистов так же найдется множество специализированного софта, таких как: редакторы с подсветкой, среды программирования, компоненты, системы управления базами данных, разнообразные скрипты и шаблоны. Не так давно у нас появился материал для автолюбителей и владельцев мото - оригинальные и неоригинальные каталоги запчастей, книги и журналы по ремонту и обслуживанию, видеоуроки, статьи по чип тюнингу, прошивкам. Процедура получения контента элементарная, достаточно просто скачать торрент файл и добавить его в загрузку в вашем торрент клиенте. Если у вас нет специального торрент клиента, вы можете его скачать у нас.