Die Ren Stimpy Show (5) | 24 godziny (2001 - 2010) | Unsane (2018) [BluRay] [720p] [YTS.AM] 16 minutes

(Garage, Indie Rock\'n\'Roll, Punk-Blues, Amrep) Boss Hog - Дискография [6xCD] [1989-2017] (Женский аспект The Jon Spencer Blues Explosion) FLAC (tracks+.cue, tracks), lossless 

Цитировать
Boss Hog - Дискография

Жанр: Garage, Indie Rock'n'Roll, Punk-Blues
Год выпуска диска: 1989-2017
Производитель диска: Australia, US & UK
Аудио кодек: FLAC
Тип рипа: tracks+.cue, tracks
Битрейт аудио: lossless
Продолжительность: 03:48:58
Источник: Вата, Ред & Демоноид
-

1989 - Drinkin' Letchin & Lyin'

Label: Amphetamine Reptile Records
Catalog#: ARR 89176
Продолжительность: 00:22:20
Трэклист:
1. Trigger, Man
2. Pull Out
3. Spanish Fly
4. Dandelion
5. Sugar Bunny
6. Fix Me-

Adobe Audition Scan

audiochecker

AUDIOCHECKER v2.0 beta (build 457) - by Dester - opdester@freemail.hu
~~~~~~~~~~~~~~~~~~~~~~~~~~~~~~~~~~
-=== DO NOT EDIT THIS FILE! ===-
Path: ...\Boss Hog - 1989 - Drinkin' Letchin & Lyin'
1 -=- 01 Trigger Man.flac -=- CDDA (100%)
2 -=- 02 Pull Out.flac -=- CDDA (100%)
3 -=- 03 Spanish Fly.flac -=- CDDA (100%)
4 -=- 04 Dandelion.flac -=- CDDA (100%)
5 -=- 05 Sugar Bunny.flac -=- CDDA (100%)
6 -=- 06 Fix Me.flac -=- CDDA (100%)
7 -=- 07 Red Bath.flac -=- CDDA (100%)
Summary 100,00% CDDA
112587780

1990 - Cold Hands

Label: Amphetamine Reptile Records
Catalog#: GRCD 127
Продолжительность: 00:28:50
Трэклист:
1. Gerard
2. Eddy
3. Bug Purr
4. Red Bull
5. Go Wrong
6. Pete Shore
7. Domestic
8. Duchess
9. Pop Catastrophe
The first full length album originally released on Amphetamine Reptile in 1990.
This time with a slightly different lineup.
-

Exact Audio Copy

Exact Audio Copy V0.99 prebeta 5 from 4. May 2009
EAC extraction logfile from 3. March 2010, 21:41
Boss Hog / Cold Hands
Used drive : HL-DT-STDVD+-RW GSA-H73N Adapter: 1 ID: 0
Read mode : Secure
Utilize accurate stream : Yes
Defeat audio cache : Yes
Make use of C2 pointers : No
Read offset correction : 102
Overread into Lead-In and Lead-Out : No
Fill up missing offset samples with silence : Yes
Delete leading and trailing silent blocks : No
Null samples used in CRC calculations : Yes
Used interface : Native Win32 interface for Win NT & 2000
Gap handling : Appended to previous track
Used output format : User Defined Encoder
Selected bitrate : 768 kBit/s
Quality : High
Add ID3 tag : No
Command line compressor : D:\Program Files (x86)\Exact Audio Copy\FLAC\FLAC.EXE
Additional command line options : -V -8 -T "artist=%a" -T "title=%t" -T "album=%g" -T "date=%y" -T "tracknumber=%n" -T "genre=%m" %s
TOC of the extracted CD
Track | Start | Length | Start sector | End sector
---------------------------------------------------------
1 | 0:00.00 | 2:31.62 | 0 | 11386
2 | 2:31.62 | 3:13.28 | 11387 | 25889
3 | 5:45.15 | 2:26.65 | 25890 | 36904
4 | 8:12.05 | 3:20.45 | 36905 | 51949
5 | 11:32.50 | 2:54.22 | 51950 | 65021
6 | 14:26.72 | 3:08.73 | 65022 | 79194
7 | 17:35.70 | 3:07.65 | 79195 | 93284
8 | 20:43.60 | 5:05.02 | 93285 | 116161
9 | 25:48.62 | 3:00.60 | 116162 | 129721
Track 1
Filename D:\Users\Alan\Downloads\Boss Hog - Cold Hands\01 Gerard.wav
Pre-gap length 0:00:02.00
Peak level 77.1 %
Track quality 99.8 %
Test CRC E71D5BC1
Copy CRC E71D5BC1
Accurately ripped (confidence 2) [4F885778]
Copy OK
Track 2
Filename D:\Users\Alan\Downloads\Boss Hog - Cold Hands\02 Eddy.wav
Peak level 92.4 %
Track quality 99.7 %
Test CRC 11159652
Copy CRC 11159652
Accurately ripped (confidence 2) [34A9B987]
Copy OK
Track 3
Filename D:\Users\Alan\Downloads\Boss Hog - Cold Hands\03 Bug Purr.wav
Peak level 47.4 %
Track quality 100.0 %
Test CRC 471D2B21
Copy CRC 471D2B21
Accurately ripped (confidence 2) [D3CAC1B3]
Copy OK
Track 4
Filename D:\Users\Alan\Downloads\Boss Hog - Cold Hands\04 Red Bull.wav
Peak level 87.6 %
Track quality 100.0 %
Test CRC FA880418
Copy CRC FA880418
Accurately ripped (confidence 2) [B1CA2B05]
Copy OK
Track 5
Filename D:\Users\Alan\Downloads\Boss Hog - Cold Hands\05 Go Wrong.wav
Peak level 76.3 %
Track quality 100.0 %
Test CRC 24557798
Copy CRC 24557798
Accurately ripped (confidence 2) [D138AAE9]
Copy OK
Track 6
Filename D:\Users\Alan\Downloads\Boss Hog - Cold Hands\06 Pete Shore.wav
Peak level 63.2 %
Track quality 100.0 %
Test CRC B18F4DCA
Copy CRC B18F4DCA
Accurately ripped (confidence 2) [4D76EE36]
Copy OK
Track 7
Filename D:\Users\Alan\Downloads\Boss Hog - Cold Hands\07 Domestic.wav
Peak level 95.5 %
Track quality 100.0 %
Test CRC 86922891
Copy CRC 86922891
Accurately ripped (confidence 2) [E39C7C5C]
Copy OK
Track 8
Filename D:\Users\Alan\Downloads\Boss Hog - Cold Hands\08 Duchess.wav
Peak level 59.2 %
Track quality 100.0 %
Test CRC 6906ED28
Copy CRC 6906ED28
Accurately ripped (confidence 2) [810FF1ED]
Copy OK
Track 9
Filename D:\Users\Alan\Downloads\Boss Hog - Cold Hands\09 Pop Catastrophe.wav
Peak level 82.8 %
Track quality 100.0 %
Test CRC 9826EAA2
Copy CRC 9826EAA2
Accurately ripped (confidence 2) [1A49DE16]
Copy OK
All tracks accurately ripped
No errors occurred
End of status report

audiochecker

AUDIOCHECKER v2.0 beta (build 457) - by Dester - opdester@freemail.hu
~~~~~~~~~~~~~~~~~~~~~~~~~~~~~~~~~~
-=== DO NOT EDIT THIS FILE! ===-
Path: ...\Boss Hog - 1990 - Cold Hands
1 -=- 01 Gerard.flac -=- CDDA (62%)
2 -=- 02 Eddy.flac -=- CDDA (100%)
3 -=- 03 Bug Purr.flac -=- CDDA (100%)
4 -=- 04 Red Bull.flac -=- CDDA (100%)
5 -=- 05 Go Wrong.flac -=- CDDA (100%)
6 -=- 06 Pete Shore.flac -=- CDDA (100%)
7 -=- 07 Domestic.flac -=- CDDA (100%)
8 -=- 08 Duchess.flac -=- CDDA (100%)
9 -=- 09 Pop Catastrophe.flac -=- CDDA (100%)
Summary 95,78% CDDA
173903732

Cue

REM GENRE
REM DATE
REM DISCID 7706C109
REM COMMENT "ExactAudioCopy v0.99pb5"
REM COMMENT "Cue Created at http://eachelper.okamihost.com/"
PERFORMER "Boss Hog"
TITLE "Cold Hands"
FILE "01 Gerard.wav" WAVE
TRACK 01 AUDIO
TITLE "Gerard"
PERFORMER "Boss Hog"
INDEX 01 00:00:00
FILE "02 Eddy.wav" WAVE
TRACK 02 AUDIO
TITLE "Eddy"
PERFORMER "Boss Hog"
INDEX 01 00:00:00
FILE "03 Bug Purr.wav" WAVE
TRACK 03 AUDIO
TITLE "Bug Purr"
PERFORMER "Boss Hog"
INDEX 01 00:00:00
FILE "04 Red Bull.wav" WAVE
TRACK 04 AUDIO
TITLE "Red Bull"
PERFORMER "Boss Hog"
INDEX 01 00:00:00
FILE "05 Go Wrong.wav" WAVE
TRACK 05 AUDIO
TITLE "Go Wrong"
PERFORMER "Boss Hog"
INDEX 01 00:00:00
FILE "06 Pete Shore.wav" WAVE
TRACK 06 AUDIO
TITLE "Pete Shore"
PERFORMER "Boss Hog"
INDEX 01 00:00:00
FILE "07 Domestic.wav" WAVE
TRACK 07 AUDIO
TITLE "Domestic"
PERFORMER "Boss Hog"
INDEX 01 00:00:00
FILE "08 Duchess.wav" WAVE
TRACK 08 AUDIO
TITLE "Duchess"
PERFORMER "Boss Hog"
INDEX 01 00:00:00
FILE "09 Pop Catastrophe.wav" WAVE
TRACK 09 AUDIO
TITLE "Pop Catastrophe"
PERFORMER "Boss Hog"
INDEX 01 00:00:00

1993 - Girl +

Label: Amphetamine Reptile Records
Catalog#: AMREP 017
Продолжительность: 00:25:09
Трэклист:
1. Ruby
2. Some Sara
3. Cream Agent
4. The Black Betty
5. Hustler
Japanese Bonus Tracks:
6. Big Fish
7. Bunny Fly
8. Black Throat
9. Not Guilty
Credits: Horns - Frank London , Kurt Hoffman-

Exact Audio Copy

Exact Audio Copy V0.99 prebeta 5 from 4. May 2009
EAC extraction logfile from 7. March 2010, 11:40
Boss Hog / Girl+
Used drive : HL-DT-STDVD+-RW GSA-H73N Adapter: 1 ID: 0
Read mode : Secure
Utilize accurate stream : Yes
Defeat audio cache : Yes
Make use of C2 pointers : No
Read offset correction : 102
Overread into Lead-In and Lead-Out : No
Fill up missing offset samples with silence : Yes
Delete leading and trailing silent blocks : No
Null samples used in CRC calculations : Yes
Used interface : Native Win32 interface for Win NT & 2000
Gap handling : Appended to previous track
Used output format : User Defined Encoder
Selected bitrate : 768 kBit/s
Quality : High
Add ID3 tag : No
Command line compressor : D:\Program Files (x86)\Exact Audio Copy\FLAC\FLAC.EXE
Additional command line options : -V -8 -T "artist=%a" -T "title=%t" -T "album=%g" -T "date=%y" -T "tracknumber=%n" -T "genre=%m" %s
TOC of the extracted CD
Track | Start | Length | Start sector | End sector
---------------------------------------------------------
1 | 0:00.00 | 3:04.25 | 0 | 13824
2 | 3:04.25 | 2:40.37 | 13825 | 25861
3 | 5:44.62 | 2:44.63 | 25862 | 38224
4 | 8:29.50 | 2:49.02 | 38225 | 50901
5 | 11:18.52 | 2:02.63 | 50902 | 60114
6 | 13:21.40 | 1:48.17 | 60115 | 68231
7 | 15:09.57 | 4:06.60 | 68232 | 86741
8 | 19:16.42 | 4:07.63 | 86742 | 105329
9 | 23:24.30 | 1:44.10 | 105330 | 113139
Track 1
Filename D:\Users\Alan\Downloads\Boss Hog - Girl + Plus\01 Ruby.wav
Pre-gap length 0:00:02.00
Peak level 99.4 %
Track quality 100.0 %
Test CRC 25217D84
Copy CRC 25217D84
Track not present in AccurateRip database
Copy OK
Track 2
Filename D:\Users\Alan\Downloads\Boss Hog - Girl + Plus\02 Some Sara.wav
Peak level 99.8 %
Track quality 100.0 %
Test CRC A402A4E0
Copy CRC A402A4E0
Track not present in AccurateRip database
Copy OK
Track 3
Filename D:\Users\Alan\Downloads\Boss Hog - Girl + Plus\03 Cream Agent.wav
Peak level 99.6 %
Track quality 100.0 %
Test CRC CD3DD8E1
Copy CRC CD3DD8E1
Track not present in AccurateRip database
Copy OK
Track 4
Filename D:\Users\Alan\Downloads\Boss Hog - Girl + Plus\04 The Black Betty.wav
Pre-gap length 0:00:00.33
Peak level 98.8 %
Track quality 99.9 %
Test CRC 643CDA0B
Copy CRC 643CDA0B
Track not present in AccurateRip database
Copy OK
Track 5
Filename D:\Users\Alan\Downloads\Boss Hog - Girl + Plus\05 Hustler.wav
Peak level 68.6 %
Track quality 99.9 %
Test CRC F4E79339
Copy CRC F4E79339
Track not present in AccurateRip database
Copy OK
Track 6
Filename D:\Users\Alan\Downloads\Boss Hog - Girl + Plus\06 Big Fish.wav
Pre-gap length 0:00:04.66
Peak level 100.0 %
Track quality 99.9 %
Test CRC 3E8D59FE
Copy CRC 3E8D59FE
Track not present in AccurateRip database
Copy OK
Track 7
Filename D:\Users\Alan\Downloads\Boss Hog - Girl + Plus\07 Bunny Fly.wav
Pre-gap length 0:00:00.76
Peak level 100.0 %
Track quality 100.0 %
Test CRC B9565938
Copy CRC B9565938
Track not present in AccurateRip database
Copy OK
Track 8
Filename D:\Users\Alan\Downloads\Boss Hog - Girl + Plus\08 Black Throat.wav
Peak level 100.0 %
Track quality 100.0 %
Test CRC C168BA66
Copy CRC C168BA66
Track not present in AccurateRip database
Copy OK
Track 9
Filename D:\Users\Alan\Downloads\Boss Hog - Girl + Plus\09 Not Guilty.wav
Pre-gap length 0:00:00.53
Peak level 100.0 %
Track quality 100.0 %
Test CRC 5B17104D
Copy CRC 5B17104D
Track not present in AccurateRip database
Copy OK
None of the tracks are present in the AccurateRip database
No errors occurred
End of status report

audiochecker

AUDIOCHECKER v2.0 beta (build 457) - by Dester - opdester@freemail.hu
~~~~~~~~~~~~~~~~~~~~~~~~~~~~~~~~~~
-=== DO NOT EDIT THIS FILE! ===-
Path: ...\Boss Hog - 1993 - Girl +
1 -=- 01 Ruby.flac -=- CDDA (100%)
2 -=- 02 Some Sara.flac -=- CDDA (100%)
3 -=- 03 Cream Agent.flac -=- CDDA (100%)
4 -=- 04 The Black Betty.flac -=- CDDA (100%)
5 -=- 05 Hustler.flac -=- CDDA (100%)
6 -=- 06 Big Fish.flac -=- CDDA (100%)
7 -=- 07 Bunny Fly.flac -=- CDDA (100%)
8 -=- 08 Black Throat.flac -=- CDDA (100%)
9 -=- 09 Not Guilty.flac -=- CDDA (100%)
Summary 100,00% CDDA
119665444

Cue

REM GENRE Rock
REM DISCID 6305E409
REM COMMENT "ExactAudioCopy v0.99pb5"
FILE "01 Ruby.wav" WAVE
TRACK 01 AUDIO
INDEX 01 00:00:00
FILE "02 Some Sara.wav" WAVE
TRACK 02 AUDIO
INDEX 01 00:00:00
FILE "03 Cream Agent.wav" WAVE
TRACK 03 AUDIO
INDEX 01 00:00:00
TRACK 04 AUDIO
INDEX 00 02:44:38
FILE "04 The Black Betty.wav" WAVE
INDEX 01 00:00:00
FILE "05 Hustler.wav" WAVE
TRACK 05 AUDIO
INDEX 01 00:00:00
TRACK 06 AUDIO
INDEX 00 01:58:13
FILE "06 Big Fish.wav" WAVE
INDEX 01 00:00:00
TRACK 07 AUDIO
INDEX 00 01:47:35
FILE "07 Bunny Fly.wav" WAVE
INDEX 01 00:00:00
FILE "08 Black Throat.wav" WAVE
TRACK 08 AUDIO
INDEX 01 00:00:00
TRACK 09 AUDIO
INDEX 00 04:07:23
FILE "09 Not Guilty.wav" WAVE
INDEX 01 00:00:00

1995 - Boss Hog

Label: Geffen
Catalog#: 24811
Продолжительность: 00:39:24+00:10:51
Трэклист:
01 - Winn Coma
02 - Sick
03 - Beehive
04 - Ski Bunny
05 - Green Shirt
06 - I Dig You
07 - Try One
08 - What The Fuck
09 - White Sand
10 - I Idolize You
11 - Punkture
12 - Strawberry
13 - Walk In
14 - Texas
15 - Sam
Limited Edition Bonus Disc
01 - 1, 2 X U
02 - Texasville
03 - Boogie With Marce
04 - Reform-

CD 1

Лог создания рипа

Exact Audio Copy V0.99 prebeta 4 from 23. January 2008
EAC extraction logfile from 10. May 2009, 19:30
Boss Hog / Boss Hog
Used drive : HL-DT-STDVDRAM GSA-H10A Adapter: 1 ID: 1
Read mode : SecureUtilize accurate stream : YesDefeat audio cache : YesMake use of C2 pointers : No
Read offset correction : 667Overread into Lead-In and Lead-Out : NoFill up missing offset samples with silence : YesDelete leading and trailing silent blocks : NoNull samples used in CRC calculations : YesUsed interface : Native Win32 interface for Win NT & 2000Gap handling : Appended to previous track
Used output format : User Defined EncoderSelected bitrate : 128 kBit/sQuality : HighAdd ID3 tag : NoCommand line compressor : C:\Program Files\Exact Audio Copy\Flac\flac.exeAdditional command line options : -V -8 -T "artist=%a" -T "title=%t" -T "album=%g" -T "date=%y" -T "tracknumber=%n" -T "genre=%m" %s
TOC of the extracted CD
Track | Start | Length | Start sector | End sector --------------------------------------------------------- 1 | 0:00.00 | 2:17.62 | 0 | 10336 2 | 2:17.62 | 3:42.53 | 10337 | 27039 3 | 6:00.40 | 1:51.27 | 27040 | 35391 4 | 7:51.67 | 2:00.65 | 35392 | 44456 5 | 9:52.57 | 1:51.33 | 44457 | 52814 6 | 11:44.15 | 3:15.05 | 52815 | 67444 7 | 14:59.20 | 1:48.72 | 67445 | 75616 8 | 16:48.17 | 1:54.23 | 75617 | 84189 9 | 18:42.40 | 2:40.05 | 84190 | 96194 10 | 21:22.45 | 2:59.52 | 96195 | 109671 11 | 24:22.22 | 2:30.43 | 109672 | 120964 12 | 26:52.65 | 2:51.00 | 120965 | 133789 13 | 29:43.65 | 2:55.32 | 133790 | 146946 14 | 32:39.22 | 3:51.68 | 146947 | 164339 15 | 36:31.15 | 2:52.52 | 164340 | 177291
Track 1
Filename C:\EAC Rips\Boss Hog - 1995 - Boss Hog\01 - Winn Coma.wav
Pre-gap length 0:00:02.00
Peak level 97.5 % Track quality 99.9 % Test CRC A2AC2112 Copy CRC A2AC2112 Accurately ripped (confidence 1) [A3B1CE61] Copy OK
Track 2
Filename C:\EAC Rips\Boss Hog - 1995 - Boss Hog\02 - Sick.wav
Pre-gap length 0:00:00.66
Peak level 97.4 % Track quality 100.0 % Test CRC 92744BAB Copy CRC 92744BAB Accurately ripped (confidence 1) [6981EE74] Copy OK
Track 3
Filename C:\EAC Rips\Boss Hog - 1995 - Boss Hog\03 - Beehive.wav
Pre-gap length 0:00:00.40
Peak level 96.5 % Track quality 100.0 % Test CRC E275E2F8 Copy CRC E275E2F8 Accurately ripped (confidence 1) [BE162573] Copy OK
Track 4
Filename C:\EAC Rips\Boss Hog - 1995 - Boss Hog\04 - Ski Bunny.wav
Pre-gap length 0:00:00.36
Peak level 96.1 % Track quality 99.9 % Test CRC DB7A56F0 Copy CRC DB7A56F0 Accurately ripped (confidence 1) [46AF0FDC] Copy OK
Track 5
Filename C:\EAC Rips\Boss Hog - 1995 - Boss Hog\05 - Green Shirt.wav
Peak level 97.3 % Track quality 100.0 % Test CRC 1181D10A Copy CRC 1181D10A Accurately ripped (confidence 1) [795EBC40] Copy OK
Track 6
Filename C:\EAC Rips\Boss Hog - 1995 - Boss Hog\06 - I Dig You.wav
Pre-gap length 0:00:00.44
Peak level 96.4 % Track quality 100.0 % Test CRC 5C7F721A Copy CRC 5C7F721A Accurately ripped (confidence 1) [72CC6B20] Copy OK
Track 7
Filename C:\EAC Rips\Boss Hog - 1995 - Boss Hog\07 - Try One.wav
Pre-gap length 0:00:01.04
Peak level 97.7 % Track quality 100.0 % Test CRC EB2EDB11 Copy CRC EB2EDB11 Accurately ripped (confidence 1) [4DA6938A] Copy OK
Track 8
Filename C:\EAC Rips\Boss Hog - 1995 - Boss Hog\08 - What The Fuck.wav
Pre-gap length 0:00:01.33
Peak level 97.1 % Track quality 100.0 % Test CRC 9758EBB0 Copy CRC 9758EBB0 Accurately ripped (confidence 1) [711EC125] Copy OK
Track 9
Filename C:\EAC Rips\Boss Hog - 1995 - Boss Hog\09 - White Sand.wav
Pre-gap length 0:00:00.86
Peak level 96.1 % Track quality 99.9 % Test CRC E9C53049 Copy CRC E9C53049 Accurately ripped (confidence 1) [687E9052] Copy OK
Track 10
Filename C:\EAC Rips\Boss Hog - 1995 - Boss Hog\10 - I Idolize You.wav
Pre-gap length 0:00:00.53
Peak level 97.0 % Track quality 100.0 % Test CRC 40178A6D Copy CRC 40178A6D Accurately ripped (confidence 1) [B0940E73] Copy OK
Track 11
Filename C:\EAC Rips\Boss Hog - 1995 - Boss Hog\11 - Punkture.wav
Pre-gap length 0:00:01.16
Peak level 97.4 % Track quality 100.0 % Test CRC A9DBAFC6 Copy CRC A9DBAFC6 Accurately ripped (confidence 1) [BC546D62] Copy OK
Track 12
Filename C:\EAC Rips\Boss Hog - 1995 - Boss Hog\12 - Strawberry.wav
Peak level 97.0 % Track quality 99.9 % Test CRC 559A0F19 Copy CRC 559A0F19 Accurately ripped (confidence 1) [20FABC40] Copy OK
Track 13
Filename C:\EAC Rips\Boss Hog - 1995 - Boss Hog\13 - Walk In.wav
Peak level 93.7 % Track quality 100.0 % Test CRC 703DA25C Copy CRC 703DA25C Accurately ripped (confidence 1) [D069BC4E] Copy OK
Track 14
Filename C:\EAC Rips\Boss Hog - 1995 - Boss Hog\14 - Texas.wav
Pre-gap length 0:00:00.02
Peak level 97.6 % Track quality 100.0 % Test CRC 3032D3F8 Copy CRC 3032D3F8 Accurately ripped (confidence 1) [CB74D0C7] Copy OK
Track 15
Filename C:\EAC Rips\Boss Hog - 1995 - Boss Hog\15 - Sam.wav
Pre-gap length 0:00:00.24
Peak level 97.7 % Track quality 99.9 % Test CRC 9B1EC01D Copy CRC 9B1EC01D Accurately ripped (confidence 1) [06C1E55A] Copy OK
All tracks accurately ripped
No errors occurred
End of status report

Содержание индексной карты (.CUE)

REM GENRE rockREM DATE 1995REM DISCID BA093B0FREM COMMENT "ExactAudioCopy v0.99pb4"PERFORMER "Boss Hog"TITLE "Boss Hog"FILE "01 - Winn Coma.wav" WAVE  TRACK 01 AUDIO    TITLE "Winn Coma"    PERFORMER "Boss Hog"    INDEX 01 00:00:00  TRACK 02 AUDIO    TITLE "Sick"    PERFORMER "Boss Hog"    INDEX 00 02:17:12FILE "02 - Sick.wav" WAVE    INDEX 01 00:00:00  TRACK 03 AUDIO    TITLE "Beehive"    PERFORMER "Boss Hog"    INDEX 00 03:42:23FILE "03 - Beehive.wav" WAVE    INDEX 01 00:00:00  TRACK 04 AUDIO    TITLE "Ski Bunny"    PERFORMER "Boss Hog"    INDEX 00 01:51:00FILE "04 - Ski Bunny.wav" WAVE    INDEX 01 00:00:00FILE "05 - Green Shirt.wav" WAVE  TRACK 05 AUDIO    TITLE "Green Shirt"    PERFORMER "Boss Hog"    INDEX 01 00:00:00  TRACK 06 AUDIO    TITLE "I Dig You"    PERFORMER "Boss Hog"    INDEX 00 01:51:00FILE "06 - I Dig You.wav" WAVE    INDEX 01 00:00:00  TRACK 07 AUDIO    TITLE "Try One"    PERFORMER "Boss Hog"    INDEX 00 03:14:02FILE "07 - Try One.wav" WAVE    INDEX 01 00:00:00  TRACK 08 AUDIO    TITLE "What The Fuck"    PERFORMER "Boss Hog"    INDEX 00 01:47:47FILE "08 - What The Fuck.wav" WAVE    INDEX 01 00:00:00  TRACK 09 AUDIO    TITLE "White Sand"    PERFORMER "Boss Hog"    INDEX 00 01:53:33FILE "09 - White Sand.wav" WAVE    INDEX 01 00:00:00  TRACK 10 AUDIO    TITLE "I Idolize You"    PERFORMER "Boss Hog"    INDEX 00 02:39:40FILE "10 - I Idolize You.wav" WAVE    INDEX 01 00:00:00  TRACK 11 AUDIO    TITLE "Punkture"    PERFORMER "Boss Hog"    INDEX 00 02:58:40FILE "11 - Punkture.wav" WAVE    INDEX 01 00:00:00FILE "12 - Strawberry.wav" WAVE  TRACK 12 AUDIO    TITLE "Strawberry"    PERFORMER "Boss Hog"    INDEX 01 00:00:00FILE "13 - Walk In.wav" WAVE  TRACK 13 AUDIO    TITLE "Walk In"    PERFORMER "Boss Hog"    INDEX 01 00:00:00  TRACK 14 AUDIO    TITLE "Texas"    PERFORMER "Boss Hog"    INDEX 00 02:55:30FILE "14 - Texas.wav" WAVE    INDEX 01 00:00:00  TRACK 15 AUDIO    TITLE "Sam"    PERFORMER "Boss Hog"    INDEX 00 03:51:50FILE "15 - Sam.wav" WAVE    INDEX 01 00:00:00

Лог проверки качества

fooCDtect - foobar2000 + auCDtect, baralgin.
auCDtect: CD records authenticity detector, version 0.8.2Copyright (c) 2004 Oleg Berngardt. All rights reserved.Copyright (c) 2004 Alexander Djourik. All rights reserved.
mode: 0
=========================================== Track: 01. Winn Coma Quality: CDDA 100%=========================================== Track: 02. Sick Quality: CDDA 100%=========================================== Track: 03. Beehive Quality: CDDA 99%=========================================== Track: 04. Ski Bunny Quality: CDDA 100%=========================================== Track: 05. Green Shirt Quality: CDDA 99%=========================================== Track: 06. I Dig You Quality: CDDA 100%=========================================== Track: 07. Try One Quality: CDDA 100%=========================================== Track: 08. What The Fuck Quality: CDDA 100%=========================================== Track: 09. White Sand Quality: CDDA 100%=========================================== Track: 10. I Idolize You Quality: CDDA 100%=========================================== Track: 11. Punkture Quality: CDDA 100%=========================================== Track: 12. Strawberry Quality: CDDA 100%=========================================== Track: 13. Walk In Quality: CDDA 100%=========================================== Track: 14. Texas Quality: CDDA 100%=========================================== Track: 15. Sam Quality: CDDA 100%===========================================

CD 2

Лог создания рипа

Exact Audio Copy V0.99 prebeta 4 from 23. January 2008
EAC extraction logfile from 10. May 2009, 19:36
Boss Hog / Boss Hog Bonus Disc
Used drive : HL-DT-STDVDRAM GSA-H10A Adapter: 1 ID: 1
Read mode : SecureUtilize accurate stream : YesDefeat audio cache : YesMake use of C2 pointers : No
Read offset correction : 667Overread into Lead-In and Lead-Out : NoFill up missing offset samples with silence : YesDelete leading and trailing silent blocks : NoNull samples used in CRC calculations : YesUsed interface : Native Win32 interface for Win NT & 2000Gap handling : Appended to previous track
Used output format : User Defined EncoderSelected bitrate : 128 kBit/sQuality : HighAdd ID3 tag : NoCommand line compressor : C:\Program Files\Exact Audio Copy\Flac\flac.exeAdditional command line options : -V -8 -T "artist=%a" -T "title=%t" -T "album=%g" -T "date=%y" -T "tracknumber=%n" -T "genre=%m" %s
TOC of the extracted CD
Track | Start | Length | Start sector | End sector --------------------------------------------------------- 1 | 0:00.00 | 1:49.25 | 0 | 8199 2 | 1:49.25 | 4:19.42 | 8200 | 27666 3 | 6:08.67 | 2:18.30 | 27667 | 38046 4 | 8:27.22 | 2:24.15 | 38047 | 48861
Track 1
Filename C:\EAC Rips\Boss Hog - - Boss Hog Bonus Disc\01 - 1, 2 X U.wav
Pre-gap length 0:00:02.00
Peak level 97.7 % Track quality 100.0 % Test CRC D2B34B6D Copy CRC D2B34B6D Track not present in AccurateRip database Copy OK
Track 2
Filename C:\EAC Rips\Boss Hog - - Boss Hog Bonus Disc\02 - Texasville.wav
Peak level 99.9 % Track quality 100.0 % Test CRC 8DF29C54 Copy CRC 8DF29C54 Track not present in AccurateRip database Copy OK
Track 3
Filename C:\EAC Rips\Boss Hog - - Boss Hog Bonus Disc\03 - Boogie with Marce.wav
Pre-gap length 0:00:01.82
Peak level 99.9 % Track quality 100.0 % Test CRC E1B76076 Copy CRC E1B76076 Track not present in AccurateRip database Copy OK
Track 4
Filename C:\EAC Rips\Boss Hog - - Boss Hog Bonus Disc\04 - Reform.wav
Peak level 100.0 % Track quality 100.0 % Test CRC 19C3ED5E Copy CRC 19C3ED5E Track not present in AccurateRip database Copy OK
None of the tracks are present in the AccurateRip database
No errors occurred
End of status report

Содержание индексной карты (.CUE)

REM GENRE AlternativeREM DISCID 1D028B04REM COMMENT "ExactAudioCopy v0.99pb4"PERFORMER "Boss Hog"TITLE "Boss Hog Bonus Disc"FILE "01 - 1, 2 X U.wav" WAVE  TRACK 01 AUDIO    TITLE "1, 2 X U"    PERFORMER "Boss Hog"    INDEX 01 00:00:00FILE "02 - Texasville.wav" WAVE  TRACK 02 AUDIO    TITLE "Texasville"    PERFORMER "Boss Hog"    INDEX 01 00:00:00  TRACK 03 AUDIO    TITLE "Boogie with Marce"    PERFORMER "Boss Hog"    INDEX 00 04:17:55FILE "03 - Boogie with Marce.wav" WAVE    INDEX 01 00:00:00FILE "04 - Reform.wav" WAVE  TRACK 04 AUDIO    TITLE "Reform"    PERFORMER "Boss Hog"    INDEX 01 00:00:00

Лог проверки качества

fooCDtect - foobar2000 + auCDtect, baralgin.
auCDtect: CD records authenticity detector, version 0.8.2Copyright (c) 2004 Oleg Berngardt. All rights reserved.Copyright (c) 2004 Alexander Djourik. All rights reserved.
mode: 0
=========================================== Track: 01. 1, 2 X U Quality: CDDA 100%=========================================== Track: 02. Texasville Quality: CDDA 100%=========================================== Track: 03. Boogie with Marce Quality: CDDA 99%=========================================== Track: 04. Reform Quality: CDDA 100%===========================================

1999 - Whiteout

Label: City Slang
Catalog#: 20150-0
Продолжительность: 00:35:52
Трэклист:
01. Whiteout (3:07)
02. Chocolate (3:05)
03. Nursery Rhyme (3:57)
04. Stereolight (4:10)
05. Fear For You (3:30)
06. Get It While You Wait (3:42)
07. Jaguar (2:41)
08. Itchy & Scratchy (3:54)
09. Defender (3:03)
10. Trouble (2:42)
11. Monkey (1:55)-

Exact Audio Copy

Exact Audio Copy V0.99 prebeta 5 from 4. May 2009
EAC extraction logfile from 27. November 2009, 23:49
Boss Hog / Whiteout
Used drive : PLEXTOR CD-R PREMIUM Adapter: 0 ID: 0
Read mode : Secure
Utilize accurate stream : Yes
Defeat audio cache : Yes
Make use of C2 pointers : No
Read offset correction : 30
Overread into Lead-In and Lead-Out : Yes
Fill up missing offset samples with silence : Yes
Delete leading and trailing silent blocks : No
Null samples used in CRC calculations : Yes
Used interface : Native Win32 interface for Win NT & 2000
Gap handling : Appended to previous track
Used output format : User Defined Encoder
Selected bitrate : 320 kBit/s
Quality : High
Add ID3 tag : No
Command line compressor : C:\Program Files\Exact Audio Copy\Flac\flac.exe
Additional command line options : -V -8 -T "artist=%a" -T "title=%t" -T "album=%g" -T "date=%y" -T "tracknumber=%n" -T "genre=%m" %s
TOC of the extracted CD
Track | Start | Length | Start sector | End sector
---------------------------------------------------------
1 | 0:00.00 | 3:07.14 | 0 | 14038
2 | 3:07.14 | 3:05.73 | 14039 | 27986
3 | 6:13.12 | 3:57.47 | 27987 | 45808
4 | 10:10.59 | 4:10.13 | 45809 | 64571
5 | 14:20.72 | 3:30.23 | 64572 | 80344
6 | 17:51.20 | 3:42.55 | 80345 | 97049
7 | 21:34.00 | 2:41.68 | 97050 | 109192
8 | 24:15.68 | 3:54.28 | 109193 | 126770
9 | 28:10.21 | 3:03.27 | 126771 | 140522
10 | 31:13.48 | 2:42.12 | 140523 | 152684
11 | 33:55.60 | 1:55.64 | 152685 | 161373
12 | 38:23.49 | 10:55.70 | 172774 | 221968
Track 1
Filename C:\EACRips\01 Whiteout.wav
Pre-gap length 0:00:02.00
Peak level 88.1 %
Track quality 100.0 %
Test CRC 497E7238
Copy CRC 497E7238
Accurately ripped (confidence 1) [9AB01333]
Copy OK
Track 2
Filename C:\EACRips\02 Chocolate.wav
Pre-gap length 0:00:03.12
Peak level 88.6 %
Track quality 99.9 %
Test CRC 4FE0FD2F
Copy CRC 4FE0FD2F
Accurately ripped (confidence 1) [8D819FA5]
Copy OK
Track 3
Filename C:\EACRips\03 Nursery Rhyme.wav
Pre-gap length 0:00:02.73
Peak level 98.0 %
Track quality 100.0 %
Test CRC F96C4D96
Copy CRC F96C4D96
Accurately ripped (confidence 1) [C27E299E]
Copy OK
Track 4
Filename C:\EACRips\04 Stereolight.wav
Pre-gap length 0:00:02.28
Peak level 87.4 %
Track quality 100.0 %
Test CRC AB9CA2B6
Copy CRC AB9CA2B6
Accurately ripped (confidence 1) [338E3F69]
Copy OK
Track 5
Filename C:\EACRips\05 Fear For You.wav
Pre-gap length 0:00:02.00
Peak level 98.4 %
Track quality 100.0 %
Test CRC 2B7E24EC
Copy CRC 2B7E24EC
Accurately ripped (confidence 1) [5FB6CEE2]
Copy OK
Track 6
Filename C:\EACRips\06 Get It While You Wait.wav
Pre-gap length 0:00:01.45
Peak level 88.0 %
Track quality 100.0 %
Test CRC DE525A59
Copy CRC DE525A59
Accurately ripped (confidence 1) [E2F4A945]
Copy OK
Track 7
Filename C:\EACRips\07 Jaguar.wav
Pre-gap length 0:00:02.60
Peak level 98.4 %
Track quality 100.0 %
Test CRC 2672EC4F
Copy CRC 2672EC4F
Accurately ripped (confidence 1) [B73479A5]
Copy OK
Track 8
Filename C:\EACRips\08 Itchy & Scratchy.wav
Pre-gap length 0:00:01.43
Peak level 95.5 %
Track quality 100.0 %
Test CRC 79D80280
Copy CRC 79D80280
Accurately ripped (confidence 1) [89637561]
Copy OK
Track 9
Filename C:\EACRips\09 Defender.wav
Pre-gap length 0:00:02.12
Peak level 98.4 %
Track quality 100.0 %
Test CRC C92AF218
Copy CRC C92AF218
Accurately ripped (confidence 1) [FB2A3EB6]
Copy OK
Track 10
Filename C:\EACRips\10 Trouble.wav
Pre-gap length 0:00:01.63
Peak level 98.3 %
Track quality 100.0 %
Test CRC DAD6DDD6
Copy CRC DAD6DDD6
Accurately ripped (confidence 1) [61616A00]
Copy OK
Track 11
Filename C:\EACRips\11 Monkey.wav
Pre-gap length 0:00:01.59
Peak level 98.3 %
Track quality 100.0 %
Test CRC BB3E6F5D
Copy CRC BB3E6F5D
Accurately ripped (confidence 1) [0D130084]
Copy OK
All tracks accurately ripped
No errors occurred
End of status report

audiochecker

AUDIOCHECKER v2.0 beta (build 457) - by Dester - opdester@freemail.hu
~~~~~~~~~~~~~~~~~~~~~~~~~~~~~~~~~~
-=== DO NOT EDIT THIS FILE! ===-
Path: ...\Boss Hog - 1999 - Whiteout
01 -=- 01 Whiteout.flac -=- CDDA (100%)
02 -=- 02 Chocolate.flac -=- CDDA (100%)
03 -=- 03 Nursery Rhyme.flac -=- CDDA (100%)
04 -=- 04 Stereolight.flac -=- CDDA (99%)
05 -=- 05 Fear For You.flac -=- CDDA (100%)
06 -=- 06 Get It While You Wait.flac -=- CDDA (100%)
07 -=- 07 Jaguar.flac -=- CDDA (99%)
08 -=- 08 Itchy & Scratchy.flac -=- CDDA (100%)
09 -=- 09 Defender.flac -=- CDDA (100%)
10 -=- 10 Trouble.flac -=- CDDA (100%)
11 -=- 11 Monkey.flac -=- CDDA (99%)
Summary 99,73% CDDA
261027284

Cue

REM GENRE Alternative
REM DATE 1999
REM DISCID A70B8F0C
REM COMMENT "ExactAudioCopy v0.99pb5"
PERFORMER "Boss Hog"
TITLE "Whiteout"
FILE "01 Whiteout.wav" WAVE
TRACK 01 AUDIO
TITLE "Whiteout"
PERFORMER "Boss Hog"
INDEX 01 00:00:00
TRACK 02 AUDIO
TITLE "Chocolate"
PERFORMER "Boss Hog"
INDEX 00 03:04:02
FILE "02 Chocolate.wav" WAVE
INDEX 01 00:00:00
TRACK 03 AUDIO
TITLE "Nursery Rhyme"
PERFORMER "Boss Hog"
INDEX 00 03:03:00
FILE "03 Nursery Rhyme.wav" WAVE
INDEX 01 00:00:00
TRACK 04 AUDIO
TITLE "Stereolight"
PERFORMER "Boss Hog"
INDEX 00 03:55:19
FILE "04 Stereolight.wav" WAVE
INDEX 01 00:00:00
TRACK 05 AUDIO
TITLE "Fear For You"
PERFORMER "Boss Hog"
INDEX 00 04:08:13
FILE "05 Fear For You.wav" WAVE
INDEX 01 00:00:00
TRACK 06 AUDIO
TITLE "Get It While You Wait"
PERFORMER "Boss Hog"
INDEX 00 03:28:53
FILE "06 Get It While You Wait.wav" WAVE
INDEX 01 00:00:00
TRACK 07 AUDIO
TITLE "Jaguar"
PERFORMER "Boss Hog"
INDEX 00 03:39:70
FILE "07 Jaguar.wav" WAVE
INDEX 01 00:00:00
TRACK 08 AUDIO
TITLE "Itchy & Scratchy"
PERFORMER "Boss Hog"
INDEX 00 02:40:25
FILE "08 Itchy & Scratchy.wav" WAVE
INDEX 01 00:00:00
TRACK 09 AUDIO
TITLE "Defender"
PERFORMER "Boss Hog"
INDEX 00 03:52:16
FILE "09 Defender.wav" WAVE
INDEX 01 00:00:00
TRACK 10 AUDIO
TITLE "Trouble"
PERFORMER "Boss Hog"
INDEX 00 03:01:39
FILE "10 Trouble.wav" WAVE
INDEX 01 00:00:00
TRACK 11 AUDIO
TITLE "Monkey"
PERFORMER "Boss Hog"
INDEX 00 02:40:28
FILE "11 Monkey.wav" WAVE
INDEX 01 00:00:00
TRACK 12 MODEx/2xxx
TITLE "Enhanced CD"
PERFORMER "Boss Hog"
INDEX 00 01:55:64

2017 - Brood X

Label: Bronze Rat Records
Catalog#: BR51CD
Продолжительность: 00:33:27
Трэклист:
01. Billy
02. Black Eyes
03. Ground Control
04. Shh Shh Shh
05. Signal
06. Rodeo Chica
07. Elevator
08. Formula X
09. Sunday Routine
10. 17-

Лог создания рипа

Exact Audio Copy V1.1 from 23. June 2015
EAC extraction logfile from 4. May 2017, 16:05
Boss Hog / Brood X
Used drive : HL-DT-STDVDRAM GT50N Adapter: 1 ID: 0
Read mode : SecureUtilize accurate stream : YesDefeat audio cache : YesMake use of C2 pointers : No
Read offset correction : 103Overread into Lead-In and Lead-Out : NoFill up missing offset samples with silence : YesDelete leading and trailing silent blocks : NoNull samples used in CRC calculations : YesUsed interface : Native Win32 interface for Win NT & 2000Gap handling : Appended to previous track
Used output format : User Defined EncoderSelected bitrate : 1024 kBit/sQuality : HighAdd ID3 tag : NoCommand line compressor : C:\Program Files (x86)\Exact Audio Copy\Flac\flac.exeAdditional command line options : -8 -e -V -T "ARTIST=%artist%" -T "TITLE=%title%" -T "ALBUM=%albumtitle%" -T "DATE=%year%" -T "TRACKNUMBER=%tracknr%" -T "GENRE=%genre%" -T "PERFORMER=%albuminterpret%" -T "COMPOSER=%composer%" %haslyrics%--tag-from-file=LYRICS="%lyricsfile%"%haslyrics% -T "ALBUMARTIST=%albumartist%" -T "DISCNUMBER=%cdnumber%" -T "TOTALDISCS=%totalcds%" -T "TOTALTRACKS=%numtracks%" -T "COMMENT=%comment%" %source% -o %dest%
TOC of the extracted CD
Track | Start | Length | Start sector | End sector --------------------------------------------------------- 1 | 0:00.00 | 3:47.42 | 0 | 17066 2 | 3:47.42 | 3:30.16 | 17067 | 32832 3 | 7:17.58 | 2:52.50 | 32833 | 45782 4 | 10:10.33 | 3:39.44 | 45783 | 62251 5 | 13:50.02 | 2:54.33 | 62252 | 75334 6 | 16:44.35 | 2:54.24 | 75335 | 88408 7 | 19:38.59 | 2:49.17 | 88409 | 101100 8 | 22:28.01 | 3:15.14 | 101101 | 115739 9 | 25:43.15 | 3:49.65 | 115740 | 132979 10 | 29:33.05 | 3:54.53 | 132980 | 150582
Track 1
Filename C:\Rips v2\Boss Hog - Brood X (FLAC)\01 - Billy.wav
Pre-gap length 0:00:02.00
Peak level 96.6 % Extraction speed 1.2 X Track quality 100.0 % Test CRC 500372B0 Copy CRC 500372B0 Track not present in AccurateRip database Copy OK
Track 2
Filename C:\Rips v2\Boss Hog - Brood X (FLAC)\02 - Black Eyes.wav
Peak level 96.6 % Extraction speed 1.3 X Track quality 100.0 % Test CRC 2DA0E82E Copy CRC 2DA0E82E Track not present in AccurateRip database Copy OK
Track 3
Filename C:\Rips v2\Boss Hog - Brood X (FLAC)\03 - Ground Control.wav
Peak level 96.6 % Extraction speed 1.4 X Track quality 100.0 % Test CRC 228ABBD3 Copy CRC 228ABBD3 Track not present in AccurateRip database Copy OK
Track 4
Filename C:\Rips v2\Boss Hog - Brood X (FLAC)\04 - Shh Shh Shh.wav
Peak level 97.0 % Extraction speed 1.5 X Track quality 100.0 % Test CRC F6E6E342 Copy CRC F6E6E342 Track not present in AccurateRip database Copy OK
Track 5
Filename C:\Rips v2\Boss Hog - Brood X (FLAC)\05 - Signal.wav
Peak level 95.4 % Extraction speed 1.5 X Track quality 100.0 % Test CRC 2697F7B3 Copy CRC 2697F7B3 Track not present in AccurateRip database Copy OK
Track 6
Filename C:\Rips v2\Boss Hog - Brood X (FLAC)\06 - Rodeo Chica.wav
Peak level 96.6 % Extraction speed 1.6 X Track quality 100.0 % Test CRC 2892009A Copy CRC 2892009A Track not present in AccurateRip database Copy OK
Track 7
Filename C:\Rips v2\Boss Hog - Brood X (FLAC)\07 - Elevator.wav
Peak level 96.6 % Extraction speed 1.6 X Track quality 100.0 % Test CRC 0BB473B5 Copy CRC 0BB473B5 Track not present in AccurateRip database Copy OK
Track 8
Filename C:\Rips v2\Boss Hog - Brood X (FLAC)\08 - Formula X.wav
Peak level 96.6 % Extraction speed 1.5 X Track quality 99.9 % Test CRC 3F459AA3 Copy CRC 3F459AA3 Track not present in AccurateRip database Copy OK
Track 9
Filename C:\Rips v2\Boss Hog - Brood X (FLAC)\09 - Sunday Routine.wav
Peak level 96.9 % Extraction speed 1.9 X Track quality 100.0 % Test CRC D3537D20 Copy CRC D3537D20 Track not present in AccurateRip database Copy OK
Track 10
Filename C:\Rips v2\Boss Hog - Brood X (FLAC)\10 - 17.wav
Peak level 96.5 % Extraction speed 1.8 X Track quality 99.9 % Test CRC 50F31BF3 Copy CRC 50F31BF3 Track not present in AccurateRip database Copy OK
None of the tracks are present in the AccurateRip database
No errors occurred
End of status report
---- CUETools DB Plugin V2.1.6
[CTDB TOCID: sdXyha9sl9fwi.th.nOIHH8lwLk-] foundSubmit result: sdXyha9sl9fwi.th.nOIHH8lwLk- has been confirmedTrack | CTDB Status 1 | (1/1) Accurately ripped 2 | (1/1) Accurately ripped 3 | (1/1) Accurately ripped 4 | (1/1) Accurately ripped 5 | (1/1) Accurately ripped 6 | (1/1) Accurately ripped 7 | (1/1) Accurately ripped 8 | (1/1) Accurately ripped 9 | (1/1) Accurately ripped 10 | (1/1) Accurately ripped
==== Log checksum 3F904AE7A6413DD5A5962A9970C342A4889B021157A363C44DA4EB0D3F44764E ====

Содержание индексной карты (.CUE)

REM DATE 2017REM DISCID 7207D70AREM COMMENT "ExactAudioCopy v1.1"PERFORMER "Boss Hog"TITLE "Brood X"FILE "01 - Billy.wav" WAVE  TRACK 01 AUDIO    TITLE "Billy"    PERFORMER "Boss Hog"    ISRC USA3D1710021    INDEX 01 00:00:00FILE "02 - Black Eyes.wav" WAVE  TRACK 02 AUDIO    TITLE "Black Eyes"    PERFORMER "Boss Hog"    ISRC USA3D1710022    INDEX 01 00:00:00FILE "03 - Ground Control.wav" WAVE  TRACK 03 AUDIO    TITLE "Ground Control"    PERFORMER "Boss Hog"    ISRC USA3D1710023    INDEX 01 00:00:00FILE "04 - Shh Shh Shh.wav" WAVE  TRACK 04 AUDIO    TITLE "Shh Shh Shh"    PERFORMER "Boss Hog"    ISRC USA3D1710024    INDEX 01 00:00:00FILE "05 - Signal.wav" WAVE  TRACK 05 AUDIO    TITLE "Signal"    PERFORMER "Boss Hog"    ISRC USA3D1710025    INDEX 01 00:00:00FILE "06 - Rodeo Chica.wav" WAVE  TRACK 06 AUDIO    TITLE "Rodeo Chica"    PERFORMER "Boss Hog"    ISRC USA3D1710026    INDEX 01 00:00:00FILE "07 - Elevator.wav" WAVE  TRACK 07 AUDIO    TITLE "Elevator"    PERFORMER "Boss Hog"    ISRC USA3D1710027    INDEX 01 00:00:00FILE "08 - Formula X.wav" WAVE  TRACK 08 AUDIO    TITLE "Formula X"    PERFORMER "Boss Hog"    ISRC USA3D1710028    INDEX 01 00:00:00FILE "09 - Sunday Routine.wav" WAVE  TRACK 09 AUDIO    TITLE "Sunday Routine"    PERFORMER "Boss Hog"    ISRC USA3D1710029    INDEX 01 00:00:00FILE "10 - 17.wav" WAVE  TRACK 10 AUDIO    TITLE "17"    PERFORMER "Boss Hog"    ISRC USA3D1710030    INDEX 01 00:00:00

Лог проверки качества

fooCDtect - foobar2000 + auCDtect, baralgin.
auCDtect: CD records authenticity detector, version 0.8.2Copyright (c) 2004 Oleg Berngardt. All rights reserved.Copyright (c) 2004 Alexander Djourik. All rights reserved.
mode: 0
=========================================== Track: 01. Billy Quality: CDDA 100%=========================================== Track: 02. Black Eyes Quality: CDDA 99%=========================================== Track: 03. Ground Control Quality: CDDA 100%=========================================== Track: 04. Shh Shh Shh Quality: CDDA 99%=========================================== Track: 05. Signal Quality: CDDA 100%=========================================== Track: 06. Rodeo Chica Quality: CDDA 100%=========================================== Track: 07. Elevator Quality: CDDA 100%=========================================== Track: 08. Formula X Quality: CDDA 100%=========================================== Track: 09. Sunday Routine Quality: CDDA 100%=========================================== Track: 10. 17 Quality: CDDA 100%===========================================

Bio

Boss Hog
Cristina Martinez - вокал
Jon Spencer - вокал/гитара
Jerry Teel - гитара
Kurt Wolf - гитара
Pete Shore - бас
Jens Jurgensen - бас
Charlie Ondras - барабаны
Hollis Queens - барабаны
Mark Boyce - клавиши
Звёздный блюз-панк ансамбль из Нью Йорка, Boss Hog, управляем командой "муж-жена", состоящей из вокалистки Кристины Мартинез и вокалиста/гитариста Джона Спенсера, который до этого играл в легендарной культовой банде Pussy Galore. Этот дуэт сформировал Boss Hog, чтобы заполнить последние минуты концерта в знаменитом клубе CBGB (Нью Йорк). После того как Мартинез дала их дебютное шоу в живую, группа начала зарабатывать всё возрастающую известность. Гитаристы Джери Тил и Курт Вульф, бассист Пит Шоре, и барабанщик Чарли Ондорас - такова расстановка участников в "Drinkin', Lechin', and Lyin'", выпущенного только на кассетах альбома 1989 года.
В начале 1990 года Spencer основал Blues Explosion, оставив Boss Hog на заднем плане. В 1993 году группа возвратилась с альбомом "Girl +", от оригинального состава остались только Мартинез и Спенсер, кроме них в записи участвовали бывший член группы Swan, Дженс Юргенсен, присвоивший себе обязанности бас-гитариста и Холлис Квинс присоеденившийся на барабанах. Успех записи в кругах поклонников независимой музыки привёл к контракту с мэйджор лэйблом Geffen, который выпустил "Boss Hog" LP в 1995 году.
Практически ничего не было слышно о Boss Hog в течении последующих пяти лет (хотя у Спенсера и Мартинез родился ребёнок), но в начале 2000 года группа наконец-то выплыла на поверхность с "Whiteout", в записи которого принимал участие бывший клавишник Goats - Марк Бойс.
Биография составлена Джейсоном Анкени.
убого переведено мной
Boss Hog. Whiteout
allmusic
-+ 2017 - Brood X. Update torrent file, pls-
Вы не можете начинать темы
Вы не можете отвечать на сообщения
Вы не можете редактировать свои сообщения
Вы не можете удалять свои сообщения
Вы не можете голосовать в опросах
Вы не можете прикреплять файлы к сообщениям
Вы можете скачивать файлы
!ВНИМАНИЕ!

Сайт не предоставляет электронные версии произведений, а занимается лишь коллекционированием и каталогизацией ссылок, присылаемых и публикуемых на форуме нашими читателями. Если вы являетесь правообладателем какого-либо представленного материала и не желаете, чтобы ссылка на него находилась в нашем каталоге, свяжитесь с нами, и мы незамедлительно удалим ее. Файлы для обмена на трекере предоставлены пользователями сайта, и администрация не несет ответственности за их содержание. Просьба не заливать файлы, защищенные авторскими правами, а также файлы нелегального содержания!

Искали программы, игры, дополнения, музыка mp3, аниме, аудио книги, журналы? Добро пожаловать на свободный торрент трекер Torrents, у нас можно скачать бесплатно, без смс и регистрации и прочих ограничений лучшие, отборные сборки программ, игр. Скачать торрентом не составит труда даже не опытному пользователю. Раздачи ежедневно обновляются, только лучшие и качественные раздачи, подробные описания и скриншоты. Огромная коллекция программ для работы со звуком, графикой, дизайном, а так же множество плагинов и инструментов к ним с подробной инструкцией и рекомендациями. Прошивки для навигаторов, карты. Разнообразные игры, для Windows, Linux. В коллекцие есть и старые игры любых жанров, Rpg, Action, Shooter, strategy Множество дополнений, модификаций, сценариев для популярных игр в жанре экш, рпг, гонки, стратегии, логические игры. Множество аддонов и сценариев для Microsoft Flight Simulator Большая коллекция книг, учебников. Если нет возможности купить печатное издание - смело скачивайте цифровую версию книги или, быть может, журнала. Не любите читать - можно загрузить бесплатно аудикнигу. Для веб дизайнеров и программистов так же найдется множество специализированного софта, таких как: редакторы с подсветкой, среды программирования, компоненты, системы управления базами данных, разнообразные скрипты и шаблоны. Не так давно у нас появился материал для автолюбителей и владельцев мото - оригинальные и неоригинальные каталоги запчастей, книги и журналы по ремонту и обслуживанию, видеоуроки, статьи по чип тюнингу, прошивкам. Процедура получения контента элементарная, достаточно просто скачать торрент файл и добавить его в загрузку в вашем торрент клиенте. Если у вас нет специального торрент клиента, вы можете его скачать у нас.