BXH năm 2016 | Doctor Who 11 | Orion PDF Author 2 v2.18

(Psychobilly) [CD] Godless Wicked Creeps - Victim Of Science - 1994, APE (image+.cue), lossless 

Цитировать
Godless Wicked Creeps / Victim Of Science
Жанр: Psychobilly
Носитель: CD
Страна-производитель диска (релиза): Германия
Год издания: 1994
Издатель (лейбл): Crazy Love Records
Номер по каталогу: CLCD 6405
Страна исполнителя (группы): Дания
Аудиокодек: APE (*.ape)
Тип рипа: image+.cue
Битрейт аудио: lossless
Продолжительность: 00:39:10
Источник (релизер): Рип с оригинального CD
Наличие сканов в содержимом раздачи: да
Треклист:
1.China Chick 3:03
2.Graveyard Blues 2:46
3.Crazy Hormones 2:44
4.Victim Of Science 2:29
5.Fyin' Hotdogs 2:08
6.Wreckin' At The Country Disco 2:16
7.Pissed Again 1:49
8.On The Road Again 2:04
9.Abyss 2:42
10.Candyman 3:45
11.Vamps 1:11
12.Agregata 5:38
13.Style Dance 2:11
14.Sunday Nights 3:42

Лог создания рипа

Exact Audio Copy V1.3 from 2. September 2016
Отчёт EAC об извлечении, выполненном 21. февраля 2018, 19:26
Victim Of Science / Godless Wicked Creeps
Дисковод: HL-DT-STDVDRAM GUB0N Adapter: 1 ID: 0
Режим чтения : ДостоверностьИспользование точного потока : ДаОтключение кэша аудио : ДаИспользование указателей C2 : Нет
Коррекция смещения при чтении : 102Способность читать области Lead-in и Lead-out : НетЗаполнение пропущенных сэмплов тишиной : ДаУдаление блоков с тишиной в начале и конце : НетПри вычислениях CRC использовались нулевые сэмплы : ДаИнтерфейс : Встроенный Win32-интерфейс для Win NT/2000
Выходной формат : Внутренние WAV-операцииФормат сэмплов : 44.100 Гц; 16 бит; стерео
TOC извлечённого CD
Трек | Старт | Длительность | Начальный сектор | Конечный сектор --------------------------------------------------------------------- 1 | 0:00.32 | 3:08.43 | 32 | 14174 2 | 3:09.00 | 2:47.70 | 14175 | 26769 3 | 5:56.70 | 2:44.17 | 26770 | 39086 4 | 8:41.12 | 2:33.63 | 39087 | 50624 5 | 11:15.00 | 2:10.65 | 50625 | 60439 6 | 13:25.65 | 2:19.32 | 60440 | 70896 7 | 15:45.22 | 1:53.28 | 70897 | 79399 8 | 17:38.50 | 2:07.20 | 79400 | 88944 9 | 19:45.70 | 2:45.37 | 88945 | 101356 10 | 22:31.32 | 3:48.23 | 101357 | 118479 11 | 26:19.55 | 1:13.60 | 118480 | 124014 12 | 27:33.40 | 5:41.35 | 124015 | 149624 13 | 33:15.00 | 2:14.60 | 149625 | 159734 14 | 35:29.60 | 3:41.40 | 159735 | 176349
Характеристики диапазона извлечения и сообщения об ошибках
Выбранный диапазон
Имя файла D:\CD\Godless Wicked Creeps-Victim Of Science\Victim Of Science - Godless Wicked Creeps.wav
Пиковый уровень 99.6 % Скорость извлечения 4.2 X Качество диапазона 100.0 % CRC теста 9932B61F CRC копии 9932B61F Копирование... OK
Ошибок не произошло
AccurateRip: сводка
Трек 1 отсутствует в базе данныхТрек 2 отсутствует в базе данныхТрек 3 отсутствует в базе данныхТрек 4 отсутствует в базе данныхТрек 5 отсутствует в базе данныхТрек 6 отсутствует в базе данныхТрек 7 отсутствует в базе данныхТрек 8 отсутствует в базе данныхТрек 9 отсутствует в базе данныхТрек 10 отсутствует в базе данныхТрек 11 отсутствует в базе данныхТрек 12 отсутствует в базе данныхТрек 13 отсутствует в базе данныхТрек 14 отсутствует в базе данных
Ни одного трека нет в базе AccurateRip
Конец отчёта
==== Контрольная сумма отчёта F8B3FA6B6FE21CF1C49C6D44A97500B0C308EC4D65D2BBDD57158E7E424ED105 ====
Вы не можете начинать темы
Вы не можете отвечать на сообщения
Вы не можете редактировать свои сообщения
Вы не можете удалять свои сообщения
Вы не можете голосовать в опросах
Вы не можете прикреплять файлы к сообщениям
Вы можете скачивать файлы
!ВНИМАНИЕ!

Сайт не предоставляет электронные версии произведений, а занимается лишь коллекционированием и каталогизацией ссылок, присылаемых и публикуемых на форуме нашими читателями. Если вы являетесь правообладателем какого-либо представленного материала и не желаете, чтобы ссылка на него находилась в нашем каталоге, свяжитесь с нами, и мы незамедлительно удалим ее. Файлы для обмена на трекере предоставлены пользователями сайта, и администрация не несет ответственности за их содержание. Просьба не заливать файлы, защищенные авторскими правами, а также файлы нелегального содержания!

Искали программы, игры, дополнения, музыка mp3, аниме, аудио книги, журналы? Добро пожаловать на свободный торрент трекер Torrents, у нас можно скачать бесплатно, без смс и регистрации и прочих ограничений лучшие, отборные сборки программ, игр. Скачать торрентом не составит труда даже не опытному пользователю. Раздачи ежедневно обновляются, только лучшие и качественные раздачи, подробные описания и скриншоты. Огромная коллекция программ для работы со звуком, графикой, дизайном, а так же множество плагинов и инструментов к ним с подробной инструкцией и рекомендациями. Прошивки для навигаторов, карты. Разнообразные игры, для Windows, Linux. В коллекцие есть и старые игры любых жанров, Rpg, Action, Shooter, strategy Множество дополнений, модификаций, сценариев для популярных игр в жанре экш, рпг, гонки, стратегии, логические игры. Множество аддонов и сценариев для Microsoft Flight Simulator Большая коллекция книг, учебников. Если нет возможности купить печатное издание - смело скачивайте цифровую версию книги или, быть может, журнала. Не любите читать - можно загрузить бесплатно аудикнигу. Для веб дизайнеров и программистов так же найдется множество специализированного софта, таких как: редакторы с подсветкой, среды программирования, компоненты, системы управления базами данных, разнообразные скрипты и шаблоны. Не так давно у нас появился материал для автолюбителей и владельцев мото - оригинальные и неоригинальные каталоги запчастей, книги и журналы по ремонту и обслуживанию, видеоуроки, статьи по чип тюнингу, прошивкам. Процедура получения контента элементарная, достаточно просто скачать торрент файл и добавить его в загрузку в вашем торрент клиенте. Если у вас нет специального торрент клиента, вы можете его скачать у нас.