(Rock\'n\'Roll) [CD] The Crickets / Buddy Holly - The "Chirping Crickets" / Buddy Holly - 2017 (Analogue), FLAC (tracks+.cue), lossless 

Цитировать
The Crickets / Buddy Holly - The "Chirping Crickets" / Buddy Holly
Жанр: Rock'n'Roll
Носитель: CD
Страна-производитель диска (релиза): США
Год издания: 2017
Издатель (лейбл): Analogue Productions
Номер по каталогу: CAPP 107-109 SA
Аудиокодек: FLAC (*.flac)
Тип рипа: tracks+.cue
Битрейт аудио: lossless
Продолжительность: 51:05
Источник (релизер): mclarenspy
Наличие сканов в содержимом раздачи: да
Треклист:
The "Chirping" Crickets
01. Oh, Boy! (2:11)
02. Not Fade Away (2:23)
03. You've Got Love (2:10)
04. Maybe Baby (2:04)
05. It's Too Late (2:25)
06. Tell Me How (2:03)
07. That'll Be the Day (2:18)
08. I'm Lookin' for Someone to Love (1:59)
09. An Empty Cup (And a Broken Date) (2:14)
10. Send Me Some Lovin' (2:36)
11. Last Night (1:56)
12. Rock Me My Baby (1:52)
Buddy Holly
13. I'm Gonna Love You Too (2:15)
14. Peggy Sue (2:32)
15. Look at Me (2:09)
16. Listen to Me (2:23)
17. Valley of Tears (2:10)
18. Ready Teddy (1:33)
19. Everyday (2:10)
20. Mailman, Bring Me No More Blues (2:14)
21. Words of Love (1:57)
22. You're So Square (Baby I Don't Care) (1:39)
23. Rave On (1:51)
24. Little Baby (2:01)
Remastered by Kevin Gray at Cohearent Audio from the original analog master tapes.

Лог создания рипа

Exact Audio Copy V1.3 from 2. September 2016
EAC extraction logfile from 2. March 2018, 10:43
The Crickets / Buddy Holly / The Chirping Crickets / Buddy Holly (2017 AP)
Used drive : PLEXTOR CD-R PREMIUM Adapter: 1 ID: 1
Read mode : SecureUtilize accurate stream : YesDefeat audio cache : YesMake use of C2 pointers : No
Read offset correction : 30Overread into Lead-In and Lead-Out : YesFill up missing offset samples with silence : YesDelete leading and trailing silent blocks : NoNull samples used in CRC calculations : YesUsed interface : Native Win32 interface for Win NT & 2000Gap handling : Appended to previous track
Used output format : User Defined EncoderSelected bitrate : 768 kBit/sQuality : HighAdd ID3 tag : NoCommand line compressor : C:\Program Files (x86)\Exact Audio Copy\FLAC\FLAC.EXEAdditional command line options : -6 -e -p -V -T "ARTIST=%artist%" -T "TITLE=%title%" -T "ALBUM=%albumtitle%" -T "DATE=%year%" -T "TRACKNUMBER=%tracknr%" -T "GENRE=%genre%" -T "PERFORMER=%albuminterpret%" -T "COMPOSER=%composer%" %haslyrics%--tag-from-file=LYRICS="%lyricsfile%"%haslyrics% -T "ALBUMARTIST=%albumartist%" -T "DISCNUMBER=%cdnumber%" -T "TOTALDISCS=%totalcds%" -T "TOTALTRACKS=%numtracks%" -T "COMMENT=%comment%" %source% -o %dest%
TOC of the extracted CD
Track | Start | Length | Start sector | End sector --------------------------------------------------------- 1 | 0:00.00 | 2:11.03 | 0 | 9827 2 | 2:11.03 | 2:23.15 | 9828 | 20567 3 | 4:34.18 | 2:10.15 | 20568 | 30332 4 | 6:44.33 | 2:03.73 | 30333 | 39630 5 | 8:48.31 | 2:24.63 | 39631 | 50493 6 | 11:13.19 | 2:02.69 | 50494 | 59712 7 | 13:16.13 | 2:17.54 | 59713 | 70041 8 | 15:33.67 | 1:59.15 | 70042 | 78981 9 | 17:33.07 | 2:14.13 | 78982 | 89044 10 | 19:47.20 | 2:36.37 | 89045 | 100781 11 | 22:23.57 | 1:55.63 | 100782 | 109469 12 | 24:19.45 | 1:51.43 | 109470 | 117837 13 | 26:11.13 | 2:15.29 | 117838 | 127991 14 | 28:26.42 | 2:32.21 | 127992 | 139412 15 | 30:58.63 | 2:08.61 | 139413 | 149073 16 | 33:07.49 | 2:23.13 | 149074 | 159811 17 | 35:30.62 | 2:10.24 | 159812 | 169585 18 | 37:41.11 | 1:33.02 | 169586 | 176562 19 | 39:14.13 | 2:09.73 | 176563 | 186310 20 | 41:24.11 | 2:14.15 | 186311 | 196375 21 | 43:38.26 | 1:57.10 | 196376 | 205160 22 | 45:35.36 | 1:38.50 | 205161 | 212560 23 | 47:14.11 | 1:51.05 | 212561 | 220890 24 | 49:05.16 | 2:00.71 | 220891 | 229961
Track 1
Filename C:\tmp\00_RIPS\01 - The Crickets - Oh, Boy!.wav
Pre-gap length 0:00:02.00
Peak level 95.2 % Extraction speed 8.2 X Track quality 100.0 % Test CRC 9BE0450A Copy CRC 9BE0450A Accurately ripped (confidence 3) [FD814584] (AR v2) Copy OK
Track 2
Filename C:\tmp\00_RIPS\02 - The Crickets - Not Fade Away.wav
Pre-gap length 0:00:01.73
Peak level 83.9 % Extraction speed 8.7 X Track quality 100.0 % Test CRC 82132F89 Copy CRC 82132F89 Accurately ripped (confidence 3) [E9AB475E] (AR v2) Copy OK
Track 3
Filename C:\tmp\00_RIPS\03 - The Crickets - You've Got Love.wav
Pre-gap length 0:00:02.18
Peak level 80.1 % Extraction speed 9.1 X Track quality 100.0 % Test CRC BA80F582 Copy CRC BA80F582 Accurately ripped (confidence 3) [3E336205] (AR v2) Copy OK
Track 4
Filename C:\tmp\00_RIPS\04 - The Crickets - Maybe Baby.wav
Pre-gap length 0:00:00.28
Peak level 88.0 % Extraction speed 9.4 X Track quality 100.0 % Test CRC 98DFE00B Copy CRC 98DFE00B Accurately ripped (confidence 3) [E9652D6C] (AR v2) Copy OK
Track 5
Filename C:\tmp\00_RIPS\05 - The Crickets - It's Too Late.wav
Pre-gap length 0:00:01.73
Peak level 77.8 % Extraction speed 9.9 X Track quality 100.0 % Test CRC BEE125BE Copy CRC BEE125BE Accurately ripped (confidence 3) [DBA41393] (AR v2) Copy OK
Track 6
Filename C:\tmp\00_RIPS\06 - The Crickets - Tell Me How.wav
Pre-gap length 0:00:01.88
Peak level 92.9 % Extraction speed 10.3 X Track quality 100.0 % Test CRC 6A82605A Copy CRC 6A82605A Accurately ripped (confidence 3) [608A0898] (AR v2) Copy OK
Track 7
Filename C:\tmp\00_RIPS\07 - The Crickets - That'll Be the Day.wav
Pre-gap length 0:00:02.98
Peak level 71.9 % Extraction speed 10.6 X Track quality 100.0 % Test CRC 28BB7CA6 Copy CRC 28BB7CA6 Accurately ripped (confidence 3) [735A44CC] (AR v2) Copy OK
Track 8
Filename C:\tmp\00_RIPS\08 - The Crickets - I'm Lookin' for Someone to Love.wav
Pre-gap length 0:00:02.24
Peak level 97.0 % Extraction speed 8.1 X Track quality 99.9 % Test CRC 9F3B18BD Copy CRC 9F3B18BD Accurately ripped (confidence 3) [08CBE2D6] (AR v2) Copy OK
Track 9
Filename C:\tmp\00_RIPS\09 - The Crickets - An Empty Cup (and a Broken Date).wav
Pre-gap length 0:00:02.57
Peak level 96.4 % Extraction speed 11.2 X Track quality 100.0 % Test CRC 4A8C483F Copy CRC 4A8C483F Accurately ripped (confidence 3) [A35F786A] (AR v2) Copy OK
Track 10
Filename C:\tmp\00_RIPS\10 - The Crickets - Send Me Some Lovin'.wav
Pre-gap length 0:00:01.68
Peak level 100.0 % Extraction speed 11.7 X Track quality 100.0 % Test CRC 9C9AE0DD Copy CRC 9C9AE0DD Accurately ripped (confidence 3) [01E18976] (AR v2) Copy OK
Track 11
Filename C:\tmp\00_RIPS\11 - The Crickets - Last Night.wav
Pre-gap length 0:00:01.88
Peak level 76.6 % Extraction speed 8.7 X Track quality 99.9 % Test CRC 9DE4CE12 Copy CRC 9DE4CE12 Accurately ripped (confidence 3) [592150AC] (AR v2) Copy OK
Track 12
Filename C:\tmp\00_RIPS\12 - The Crickets - Rock Me My Baby.wav
Pre-gap length 0:00:01.86
Peak level 82.6 % Extraction speed 8.4 X Track quality 99.9 % Test CRC 1440CBEF Copy CRC 1440CBEF Accurately ripped (confidence 3) [AC9016E4] (AR v2) Copy OK
Track 13
Filename C:\tmp\00_RIPS\13 - Buddy Holly - I'm Gonna Love You Too.wav
Pre-gap length 0:00:02.30
Peak level 68.2 % Extraction speed 12.3 X Track quality 100.0 % Test CRC 549005E4 Copy CRC 549005E4 Accurately ripped (confidence 3) [EFBDA85C] (AR v2) Copy OK
Track 14
Filename C:\tmp\00_RIPS\14 - Buddy Holly - Peggy Sue.wav
Pre-gap length 0:00:01.81
Peak level 89.9 % Extraction speed 12.7 X Track quality 100.0 % Test CRC E09DD9D3 Copy CRC E09DD9D3 Accurately ripped (confidence 3) [C09C7338] (AR v2) Copy OK
Track 15
Filename C:\tmp\00_RIPS\15 - Buddy Holly - Look at Me.wav
Pre-gap length 0:00:02.10
Peak level 53.9 % Extraction speed 9.6 X Track quality 99.9 % Test CRC B964DAAC Copy CRC B964DAAC Accurately ripped (confidence 3) [5B94F6F5] (AR v2) Copy OK
Track 16
Filename C:\tmp\00_RIPS\16 - Buddy Holly - Listen to Me.wav
Pre-gap length 0:00:01.93
Peak level 48.9 % Extraction speed 13.0 X Track quality 100.0 % Test CRC E6EE2F7A Copy CRC E6EE2F7A Accurately ripped (confidence 3) [6DAB2FB1] (AR v2) Copy OK
Track 17
Filename C:\tmp\00_RIPS\17 - Buddy Holly - Valley of Tears.wav
Pre-gap length 0:00:02.22
Peak level 61.3 % Extraction speed 13.2 X Track quality 100.0 % Test CRC A4448C06 Copy CRC A4448C06 Accurately ripped (confidence 3) [B7FDCF78] (AR v2) Copy OK
Track 18
Filename C:\tmp\00_RIPS\18 - Buddy Holly - Ready Teddy.wav
Pre-gap length 0:00:01.78
Peak level 52.3 % Extraction speed 12.8 X Track quality 100.0 % Test CRC 9CC06CA0 Copy CRC 9CC06CA0 Accurately ripped (confidence 3) [E2228E27] (AR v2) Copy OK
Track 19
Filename C:\tmp\00_RIPS\19 - Buddy Holly - Everyday.wav
Pre-gap length 0:00:01.33
Peak level 58.6 % Extraction speed 13.5 X Track quality 100.0 % Test CRC 78EAB5D5 Copy CRC 78EAB5D5 Accurately ripped (confidence 3) [8064BAD9] (AR v2) Copy OK
Track 20
Filename C:\tmp\00_RIPS\20 - Buddy Holly - Mailman, Bring Me No More Blues.wav
Pre-gap length 0:00:02.16
Peak level 53.2 % Extraction speed 13.8 X Track quality 100.0 % Test CRC 8B3DE36F Copy CRC 8B3DE36F Accurately ripped (confidence 3) [5FB426ED] (AR v2) Copy OK
Track 21
Filename C:\tmp\00_RIPS\21 - Buddy Holly - Words of Love.wav
Pre-gap length 0:00:02.25
Peak level 52.1 % Extraction speed 13.6 X Track quality 100.0 % Test CRC DA6D2544 Copy CRC DA6D2544 Accurately ripped (confidence 3) [9B602C79] (AR v2) Copy OK
Track 22
Filename C:\tmp\00_RIPS\22 - Buddy Holly - You're so Square (Baby I Don't Care).wav
Pre-gap length 0:00:01.96
Peak level 73.1 % Extraction speed 13.4 X Track quality 100.0 % Test CRC D803FB1A Copy CRC D803FB1A Accurately ripped (confidence 3) [3A4BFDE9] (AR v2) Copy OK
Track 23
Filename C:\tmp\00_RIPS\23 - Buddy Holly - Rave On.wav
Pre-gap length 0:00:02.41
Peak level 59.2 % Extraction speed 13.8 X Track quality 100.0 % Test CRC 2CF30C2D Copy CRC 2CF30C2D Accurately ripped (confidence 3) [2193B652] (AR v2) Copy OK
Track 24
Filename C:\tmp\00_RIPS\24 - Buddy Holly - Little Baby.wav
Pre-gap length 0:00:02.01
Peak level 53.1 % Extraction speed 15.2 X Track quality 100.0 % Test CRC D29F981B Copy CRC D29F981B Accurately ripped (confidence 3) [76A25C08] (AR v2) Copy OK
All tracks accurately ripped
No errors occurred
End of status report
---- CUETools DB Plugin V2.1.6
[CTDB TOCID: EG8UYTkoq.qEU4ntmi1JAg_g9oM-] foundSubmit result: EG8UYTkoq.qEU4ntmi1JAg_g9oM- has been confirmedTrack | CTDB Status 1 | (1/1) Accurately ripped 2 | (1/1) Accurately ripped 3 | (1/1) Accurately ripped 4 | (1/1) Accurately ripped 5 | (1/1) Accurately ripped 6 | (1/1) Accurately ripped 7 | (1/1) Accurately ripped 8 | (1/1) Accurately ripped 9 | (1/1) Accurately ripped 10 | (1/1) Accurately ripped 11 | (1/1) Accurately ripped 12 | (1/1) Accurately ripped 13 | (1/1) Accurately ripped 14 | (1/1) Accurately ripped 15 | (1/1) Accurately ripped 16 | (1/1) Accurately ripped 17 | (1/1) Accurately ripped 18 | (1/1) Accurately ripped 19 | (1/1) Accurately ripped 20 | (1/1) Accurately ripped 21 | (1/1) Accurately ripped 22 | (1/1) Accurately ripped 23 | (1/1) Accurately ripped 24 | (1/1) Accurately ripped
==== Log checksum 1C9F109455EB039E8E298F01C476298905CAD2C6BB40BAD8576350ED5207D904 ====

Содержание индексной карты (.CUE)

REM GENRE "Rock & Roll"REM DATE 2017REM DISCID 660BFA18REM COMMENT "ExactAudioCopy v1.3"PERFORMER "The Crickets & Buddy Holly"TITLE "The Chirping Crickets, Buddy Holly"FILE "01 - The Crickets - Oh, Boy!.wav" WAVE  TRACK 01 AUDIO    TITLE "Oh, Boy!"    PERFORMER "The Crickets"    INDEX 01 00:00:00  TRACK 02 AUDIO    TITLE "Not Fade Away"    PERFORMER "The Crickets"    INDEX 00 02:09:23FILE "02 - The Crickets - Not Fade Away.wav" WAVE    INDEX 01 00:00:00  TRACK 03 AUDIO    TITLE "You've Got Love"    PERFORMER "The Crickets"    INDEX 00 02:21:01FILE "03 - The Crickets - You've Got Love.wav" WAVE    INDEX 01 00:00:00  TRACK 04 AUDIO    TITLE "Maybe Baby"    PERFORMER "The Crickets"    INDEX 00 02:09:69FILE "04 - The Crickets - Maybe Baby.wav" WAVE    INDEX 01 00:00:00  TRACK 05 AUDIO    TITLE "It's Too Late"    PERFORMER "The Crickets"    INDEX 00 02:02:18FILE "05 - The Crickets - It's Too Late.wav" WAVE    INDEX 01 00:00:00  TRACK 06 AUDIO    TITLE "Tell Me How"    PERFORMER "The Crickets"    INDEX 00 02:22:72FILE "06 - The Crickets - Tell Me How.wav" WAVE    INDEX 01 00:00:00  TRACK 07 AUDIO    TITLE "That'll Be the Day"    PERFORMER "The Crickets"    INDEX 00 01:59:70FILE "07 - The Crickets - That'll Be the Day.wav" WAVE    INDEX 01 00:00:00  TRACK 08 AUDIO    TITLE "I'm Lookin' for Someone to Love"    PERFORMER "The Crickets"    INDEX 00 02:15:36FILE "08 - The Crickets - I'm Lookin' for Someone to Love.wav" WAVE    INDEX 01 00:00:00  TRACK 09 AUDIO    TITLE "An Empty Cup (And a Broken Date)"    PERFORMER "The Crickets"    INDEX 00 01:56:47FILE "09 - The Crickets - An Empty Cup (And a Broken Date).wav" WAVE    INDEX 01 00:00:00  TRACK 10 AUDIO    TITLE "Send Me Some Lovin'"    PERFORMER "The Crickets"    INDEX 00 02:12:37FILE "10 - The Crickets - Send Me Some Lovin'.wav" WAVE    INDEX 01 00:00:00  TRACK 11 AUDIO    TITLE "Last Night"    PERFORMER "The Crickets"    INDEX 00 02:34:46FILE "11 - The Crickets - Last Night.wav" WAVE    INDEX 01 00:00:00  TRACK 12 AUDIO    TITLE "Rock Me My Baby"    PERFORMER "The Crickets"    INDEX 00 01:53:73FILE "12 - The Crickets - Rock Me My Baby.wav" WAVE    INDEX 01 00:00:00  TRACK 13 AUDIO    TITLE "I'm Gonna Love You Too"    PERFORMER "Buddy Holly"    INDEX 00 01:49:20FILE "13 - Buddy Holly - I'm Gonna Love You Too.wav" WAVE    INDEX 01 00:00:00  TRACK 14 AUDIO    TITLE "Peggy Sue"    PERFORMER "Buddy Holly"    INDEX 00 02:13:43FILE "14 - Buddy Holly - Peggy Sue.wav" WAVE    INDEX 01 00:00:00  TRACK 15 AUDIO    TITLE "Look at Me"    PERFORMER "Buddy Holly"    INDEX 00 02:30:13FILE "15 - Buddy Holly - Look at Me.wav" WAVE    INDEX 01 00:00:00  TRACK 16 AUDIO    TITLE "Listen to Me"    PERFORMER "Buddy Holly"    INDEX 00 02:06:66FILE "16 - Buddy Holly - Listen to Me.wav" WAVE    INDEX 01 00:00:00  TRACK 17 AUDIO    TITLE "Valley of Tears"    PERFORMER "Buddy Holly"    INDEX 00 02:20:71FILE "17 - Buddy Holly - Valley of Tears.wav" WAVE    INDEX 01 00:00:00  TRACK 18 AUDIO    TITLE "Ready Teddy"    PERFORMER "Buddy Holly"    INDEX 00 02:08:40FILE "18 - Buddy Holly - Ready Teddy.wav" WAVE    INDEX 01 00:00:00  TRACK 19 AUDIO    TITLE "Everyday"    PERFORMER "Buddy Holly"    INDEX 00 01:31:52FILE "19 - Buddy Holly - Everyday.wav" WAVE    INDEX 01 00:00:00  TRACK 20 AUDIO    TITLE "Mailman, Bring Me No More Blues"    PERFORMER "Buddy Holly"    INDEX 00 02:07:61FILE "20 - Buddy Holly - Mailman, Bring Me No More Blues.wav" WAVE    INDEX 01 00:00:00  TRACK 21 AUDIO    TITLE "Words of Love"    PERFORMER "Buddy Holly"    INDEX 00 02:11:71FILE "21 - Buddy Holly - Words of Love.wav" WAVE    INDEX 01 00:00:00  TRACK 22 AUDIO    TITLE "You're So Square (Baby I Don't Care)"    PERFORMER "Buddy Holly"    INDEX 00 01:55:13FILE "22 - Buddy Holly - You're So Square (Baby I Don't Care).wav" WAVE    INDEX 01 00:00:00  TRACK 23 AUDIO    TITLE "Rave On"    PERFORMER "Buddy Holly"    INDEX 00 01:36:19FILE "23 - Buddy Holly - Rave On.wav" WAVE    INDEX 01 00:00:00  TRACK 24 AUDIO    TITLE "Little Baby"    PERFORMER "Buddy Holly"    INDEX 00 01:49:04FILE "24 - Buddy Holly - Little Baby.wav" WAVE    INDEX 01 00:00:00

Отчет CUETools

[CUETools log; Date: 16.04.2018 23:16:55; Version: 2.1.5][CTDB TOCID: EG8UYTkoq.qEU4ntmi1JAg_g9oM-] found.Track | CTDB Status  1   | (5/5) Accurately ripped  2   | (5/5) Accurately ripped  3   | (5/5) Accurately ripped  4   | (5/5) Accurately ripped  5   | (5/5) Accurately ripped  6   | (5/5) Accurately ripped  7   | (5/5) Accurately ripped  8   | (5/5) Accurately ripped  9   | (5/5) Accurately ripped 10   | (5/5) Accurately ripped 11   | (5/5) Accurately ripped 12   | (5/5) Accurately ripped 13   | (5/5) Accurately ripped 14   | (5/5) Accurately ripped 15   | (5/5) Accurately ripped 16   | (5/5) Accurately ripped 17   | (5/5) Accurately ripped 18   | (5/5) Accurately ripped 19   | (5/5) Accurately ripped 20   | (5/5) Accurately ripped 21   | (5/5) Accurately ripped 22   | (5/5) Accurately ripped 23   | (5/5) Accurately ripped 24   | (5/5) Accurately ripped[AccurateRip ID: 002d051c-03092c8a-660bfa18] found.Track   [  CRC   |   V2   ] Status 01     [08c2b012|fd814584] (0+3/3) Accurately ripped 02     [f504ca4a|e9ab475e] (0+3/3) Accurately ripped 03     [9b5ee049|3e336205] (0+3/3) Accurately ripped 04     [eaf9ee87|e9652d6c] (0+3/3) Accurately ripped 05     [053d0277|dba41393] (0+3/3) Accurately ripped 06     [7b1e0ce4|608a0898] (0+3/3) Accurately ripped 07     [cbe73cc5|735a44cc] (0+3/3) Accurately ripped 08     [aacbe54f|08cbe2d6] (0+3/3) Accurately ripped 09     [76dfe62c|a35f786a] (0+3/3) Accurately ripped 10     [247c84ed|01e18976] (0+3/3) Accurately ripped 11     [cd643163|592150ac] (0+3/3) Accurately ripped 12     [9824adc1|ac9016e4] (0+3/3) Accurately ripped 13     [e90a420c|efbda85c] (0+3/3) Accurately ripped 14     [2524551f|c09c7338] (0+3/3) Accurately ripped 15     [a3162245|5b94f6f5] (0+3/3) Accurately ripped 16     [864a20ce|6dab2fb1] (0+3/3) Accurately ripped 17     [1bf5411f|b7fdcf78] (0+3/3) Accurately ripped 18     [bae8476d|e2228e27] (0+3/3) Accurately ripped 19     [9b8c433c|8064bad9] (0+3/3) Accurately ripped 20     [afcdd86d|5fb426ed] (0+3/3) Accurately ripped 21     [ddd6c86f|9b602c79] (0+3/3) Accurately ripped 22     [5384717c|3a4bfde9] (0+3/3) Accurately ripped 23     [f43888e4|2193b652] (0+3/3) Accurately ripped 24     [3cdaeb8d|76a25c08] (0+3/3) Accurately ripped
Track Peak [ CRC32 ] [W/O NULL] [ LOG ] -- 100,0 [2F1EAB63] [3861B2B5] 01 95,2 [9BE0450A] [7D14B4E8] CRC32 02 83,9 [82132F89] [7DB469D2] CRC32 03 80,1 [BA80F582] [1712B7EC] CRC32 04 88,0 [98DFE00B] [59726DFA] CRC32 05 77,8 [BEE125BE] [6E882CA0] CRC32 06 92,9 [6A82605A] [352857F5] CRC32 07 71,9 [28BB7CA6] [0451E120] CRC32 08 97,0 [9F3B18BD] [52653003] CRC32 09 96,4 [4A8C483F] [43429D97] CRC32 10 100,0 [9C9AE0DD] [144C979F] CRC32 11 76,6 [9DE4CE12] [700D8708] CRC32 12 82,6 [1440CBEF] [59D5DEE7] CRC32 13 68,2 [549005E4] [1800F0C6] CRC32 14 89,9 [E09DD9D3] [938278D2] CRC32 15 53,9 [B964DAAC] [C739C513] CRC32 16 48,9 [E6EE2F7A] [50D79545] CRC32 17 61,3 [A4448C06] [54A22AD3] CRC32 18 52,3 [9CC06CA0] [86813FA5] CRC32 19 58,6 [78EAB5D5] [4AF787DA] CRC32 20 53,2 [8B3DE36F] [202BDEDD] CRC32 21 52,1 [DA6D2544] [C6D161E8] CRC32 22 73,1 [D803FB1A] [4449B373] CRC32 23 59,2 [2CF30C2D] [506CE8D0] CRC32 24 53,1 [D29F981B] [3D9C8379] CRC32

Об альбоме (сборнике)

"The variety in Holly's first two albums reveal why he's an icon of American popular music. There's no self pity or pathos in his voice, just an unmistable clear tone and that wild hiccup. Almost every cut has some striking characteristic, like the wordless, swaying harmonies in 'Words of Love.' He walks between raw rock 'n' roll and a polished pop sound, and even in his most sentimental songs he's believable. Keven Gray mastered this mono SACD (preceeded by last year's LP versions) from the original master tapes and, due to the limitations of the sources, did as good as could be expected. Erick Labson's 2004 remasters for Geffen are too compressed and bright, and the bass is artificially prominent. Steve Hoffman stayed faithful to the first-generation masters he used for his 1985 compilation on MCA, From the Original Master Tapes. Though it's not a track-for-track match, I mention it because it's held in high regard by collectors, and the SACD bests it with a more spacious soundstage. I have an early pressing of Coral's 1959 The Buddy Holly Story, and the SACD is equally well-balanced while offering even better vocal presence." — Music = 4/5; Sonics = 3.5/5 — Stephen Estep, The Absolute Sound, May-June 2018.
"Amazing largesse from the label: Chad Kassem says the albums had too-short running times to issue as separate SACDs, so he created the most desirable two-on-one rock 'n' roll SACD ever. This is the essence of Buddy Holly and The Crickets, two of the three albums released during his lifetime and containing 'Oh Boy!,' 'Not Fade Away,' 'Rave On,' 'Words Of Love,' 'That'll Be The Day,' 'I'm Gonna Love You Too,' 'Everyday' and 17 others that didn't just inspire but empowered the entire British Invasion, from The Beatles to The Hollies to The Searchers to The Stones. This pair of milestones from 1957-8 is as responsible as any body of work for shaping the path music followed from then onwards. Utterly magnificent." — Sound Quality: 95% — Ken Kessler, Hi Fi News, April 2018
This is a musical duo to be reckoned with. For this Hybrid SACD we've included two of the greatest albums in the Buddy Holly canon for a can't-miss package for rock 'n' roll history buffs and music fans of all stripes.
One of rock's greatest albums is the debut album by the Crickets and the only one featuring Buddy Holly released during his lifetime. The Chirping Crickets contains the group's number one single "That'll Be the Day" and its Top Ten hit "Oh, Boy!." Other Crickets classics include "Not Fade Away," "Maybe Baby," and "I'm Looking for Someone to Love."
Three months after the release of The Chirping Crickets came the self-titled 1958 classic. It was Buddy's last album released prior to the plane crash in Iowa that struck him down in 1959 at age 22. The album Buddy Holly features the Top Ten smash "Peggy Sue" plus several songs that went on to be standards: "I'm Gonna Love You Too," "Listen To Me," "Everyday," "Words of Love," and "Rave On."
These are among the best rock 'n' roll songs of the 1950s or ever, making this SACD a collectible of truly historic and memorable tunes — "ranking with Elvis Presley and Meet the Beatles," writes AllMusic.
Born Charles Hardin Holley on September 7, 1936, in Lubbock, Texas, Holly was nicknamed "Buddy" by his mother. She felt that his given name was too big for her little boy. "Holly," the altered form of his last name, would later result from a misspelling in his first recording contract. Holly learned to play piano and fiddle at an early age, while his older brothers taught him the basics of guitar.
In early 1956, Holly and his band began recording demos and singles in Nashville under the name Buddy Holly and the Three Tunes, but the group's lineup was later revised and dubbed The Crickets. Holly wrote and recorded his breakthrough hit, "That'll Be the Day," with The Crickets in 1957. The song's title and refrain are a reference to a line uttered by John Wayne in the 1956 film "The Searchers." Between August 1957 and August 1958, Holly and the Crickets charted seven different Top 40 singles.
Composer and singer John Fogerty, of Creedence Clearwater Revival fame, inducted Buddy Holly into the Rock And Roll Hall of Fame at the 1986 Hall of Fame induction ceremony. What Buddy Holly meant to him, Fogerty said, was destiny calling. Fogerty, 12, bought "That'll Be The Day" and soon began dreaming of forming his own combo, like the group of musicians — The Crickets — he saw on the album cover. And in Liverpool, England, "the same thing was going on with four other guys. They named their group The Beatles, because Buddy Holly's group was called The Crickets.
"We are, each of us, made up of the people we love and the people we admire," Fogerty, said. "We take those reflections, and hopefully, grow."
Holly's talented life was cut short in a plane crash on Feb. 3, 1959, that also claimed the lives of Ritchie Valens and J.P. "The Big Bopper" Richardson. This SACD is a tribute to what was, and what might have been a lengthy pioneering musical career.
Вы не можете начинать темы
Вы не можете отвечать на сообщения
Вы не можете редактировать свои сообщения
Вы не можете удалять свои сообщения
Вы не можете голосовать в опросах
Вы не можете прикреплять файлы к сообщениям
Вы можете скачивать файлы
!ВНИМАНИЕ!

Сайт не предоставляет электронные версии произведений, а занимается лишь коллекционированием и каталогизацией ссылок, присылаемых и публикуемых на форуме нашими читателями. Если вы являетесь правообладателем какого-либо представленного материала и не желаете, чтобы ссылка на него находилась в нашем каталоге, свяжитесь с нами, и мы незамедлительно удалим ее. Файлы для обмена на трекере предоставлены пользователями сайта, и администрация не несет ответственности за их содержание. Просьба не заливать файлы, защищенные авторскими правами, а также файлы нелегального содержания!

Искали программы, игры, дополнения, музыка mp3, аниме, аудио книги, журналы? Добро пожаловать на свободный торрент трекер Torrents, у нас можно скачать бесплатно, без смс и регистрации и прочих ограничений лучшие, отборные сборки программ, игр. Скачать торрентом не составит труда даже не опытному пользователю. Раздачи ежедневно обновляются, только лучшие и качественные раздачи, подробные описания и скриншоты. Огромная коллекция программ для работы со звуком, графикой, дизайном, а так же множество плагинов и инструментов к ним с подробной инструкцией и рекомендациями. Прошивки для навигаторов, карты. Разнообразные игры, для Windows, Linux. В коллекцие есть и старые игры любых жанров, Rpg, Action, Shooter, strategy Множество дополнений, модификаций, сценариев для популярных игр в жанре экш, рпг, гонки, стратегии, логические игры. Множество аддонов и сценариев для Microsoft Flight Simulator Большая коллекция книг, учебников. Если нет возможности купить печатное издание - смело скачивайте цифровую версию книги или, быть может, журнала. Не любите читать - можно загрузить бесплатно аудикнигу. Для веб дизайнеров и программистов так же найдется множество специализированного софта, таких как: редакторы с подсветкой, среды программирования, компоненты, системы управления базами данных, разнообразные скрипты и шаблоны. Не так давно у нас появился материал для автолюбителей и владельцев мото - оригинальные и неоригинальные каталоги запчастей, книги и журналы по ремонту и обслуживанию, видеоуроки, статьи по чип тюнингу, прошивкам. Процедура получения контента элементарная, достаточно просто скачать торрент файл и добавить его в загрузку в вашем торрент клиенте. Если у вас нет специального торрент клиента, вы можете его скачать у нас.

La Vida Publica de Jesus 9 | Carpenter's Human Neuroanatomy Medical 2171 Pages 0683067524 | EZ CD Audio Converter Ultimate 6.0.5.1 Final + Crack