Eps10 Genius - Season 1 (2017) | The.Big.Bang.Theory.S12E07.XviD-AFG[TGx] | Very Cavallari

(Rock\'n\'Roll, Pop Rock) [CD] The Everly Brothers - The Very Best Of The Everly Brothers - 1964 (1990), FLAC (tracks+.cue), lossless 

Цитировать
The Everly Brothers - The Very Best Of The Everly Brothers
Жанр: Rock'n'Roll, Pop Rock
Носитель: CD
Страна-производитель диска (релиза): US
Год издания: 1990
Издатель (лейбл): Warner Bros. Records
Номер по каталогу: ‎1554-2
Страна исполнителя (группы): US
Аудиокодек: FLAC (*.flac)
Тип рипа: tracks+.cue
Битрейт аудио: lossless
Продолжительность: 00:28:55
Источник (релизер): DC hub
Наличие сканов в содержимом раздачи: нет
Треклист:
01. Bye Bye Love
02. ('Til) I Kissed You
03. Wake Up Little Susie
04. Crying In The Rain
05. Walk Right Back
06. Cathy's Clown
07. Bird Dog
08. All I Have To Do Is Dream
09. Devoted To You
10. Lucille
11. So Sad (To Watch Good Love Go Bad)
12. Ebony Eyes

Лог создания рипа

Exact Audio Copy V1.0 beta 3 from 29. August 2011
EAC extraction logfile from 31. October 2013, 10:08
Everly Brothers / The Very Best of The Everly Brothers
Used drive : HL-DT-STDVDRAM GE20LU10 Adapter: 3 ID: 0
Read mode : SecureUtilize accurate stream : YesDefeat audio cache : YesMake use of C2 pointers : No
Read offset correction : 667Overread into Lead-In and Lead-Out : NoFill up missing offset samples with silence : YesDelete leading and trailing silent blocks : NoNull samples used in CRC calculations : YesUsed interface : Native Win32 interface for Win NT & 2000Gap handling : Appended to previous track
Used output format : User Defined EncoderSelected bitrate : 128 kBit/sQuality : HighAdd ID3 tag : NoCommand line compressor : C:\Program Files\Exact Audio Copy\Flac\flac.exeAdditional command line options : -8 -V -T "ARTIST=%artist%" -T "TITLE=%title%" -T "ALBUM=%albumtitle%" -T "DATE=%year%" -T "TRACKNUMBER=%tracknr%" -T "TOTALTRACKS=%numtracks%" -T "GENRE=%genre%" -T "ALBUMARTIST=%albumartist%" -T "ALBUM ARTIST=%albumartist%" -T "COMMENT=EAC Secure Mode, Test & Copy, AccurateRip, FLAC -8" %source%
TOC of the extracted CD
Track | Start | Length | Start sector | End sector --------------------------------------------------------- 1 | 0:00.33 | 2:18.02 | 33 | 10384 2 | 2:18.35 | 2:24.05 | 10385 | 21189 3 | 4:42.40 | 2:04.15 | 21190 | 30504 4 | 6:46.55 | 2:02.00 | 30505 | 39654 5 | 8:48.55 | 2:20.73 | 39655 | 50227 6 | 11:09.53 | 2:26.47 | 50228 | 61224 7 | 13:36.25 | 2:18.10 | 61225 | 71584 8 | 15:54.35 | 2:24.70 | 71585 | 82454 9 | 18:19.30 | 2:25.05 | 82455 | 93334 10 | 20:44.35 | 2:34.25 | 93335 | 104909 11 | 23:18.60 | 2:36.63 | 104910 | 116672 12 | 25:55.48 | 3:04.37 | 116673 | 130509
Track 1
Filename D:\EAC_FLAC\The Everly Brothers - The Very Best Of The Everly Brothers\01 - Bye Bye Love.wav
Pre-gap length 0:00:02.33
Peak level 88.3 % Extraction speed 0.9 X Track quality 100.0 % Test CRC BFF0E4A8 Copy CRC BFF0E4A8 Accurately ripped (confidence 15) [B059BCA2] (AR v2) Copy OK
Track 2
Filename D:\EAC_FLAC\The Everly Brothers - The Very Best Of The Everly Brothers\02 - ('Til) I Kissed You.wav
Pre-gap length 0:00:02.65
Peak level 100.0 % Extraction speed 0.8 X Track quality 99.9 % Test CRC A607E928 Copy CRC A607E928 Accurately ripped (confidence 15) [958AA691] (AR v2) Copy OK
Track 3
Filename D:\EAC_FLAC\The Everly Brothers - The Very Best Of The Everly Brothers\03 - Wake Up Little Susie.wav
Pre-gap length 0:00:02.05
Peak level 99.7 % Extraction speed 1.0 X Track quality 100.0 % Test CRC A4D26DC3 Copy CRC A4D26DC3 Accurately ripped (confidence 15) [03880745] (AR v2) Copy OK
Track 4
Filename D:\EAC_FLAC\The Everly Brothers - The Very Best Of The Everly Brothers\04 - Crying In The Rain.wav
Pre-gap length 0:00:02.62
Peak level 94.4 % Extraction speed 1.0 X Track quality 100.0 % Test CRC 6B1D22D3 Copy CRC 6B1D22D3 Accurately ripped (confidence 15) [79FDA710] (AR v2) Copy OK
Track 5
Filename D:\EAC_FLAC\The Everly Brothers - The Very Best Of The Everly Brothers\05 - Walk Right Back.wav
Pre-gap length 0:00:03.27
Peak level 91.3 % Extraction speed 1.1 X Track quality 100.0 % Test CRC C6EC8430 Copy CRC C6EC8430 Accurately ripped (confidence 15) [0CB03858] (AR v2) Copy OK
Track 6
Filename D:\EAC_FLAC\The Everly Brothers - The Very Best Of The Everly Brothers\06 - Cathy's Clown.wav
Pre-gap length 0:00:03.13
Peak level 100.0 % Extraction speed 1.2 X Track quality 100.0 % Test CRC 0003ED1F Copy CRC 0003ED1F Accurately ripped (confidence 14) [FD8FC933] (AR v2) Copy OK
Track 7
Filename D:\EAC_FLAC\The Everly Brothers - The Very Best Of The Everly Brothers\07 - Bird Dog.wav
Pre-gap length 0:00:03.47
Peak level 100.0 % Extraction speed 1.0 X Track quality 99.9 % Test CRC 8D4CB2E1 Copy CRC 8D4CB2E1 Accurately ripped (confidence 15) [4C5F5AC1] (AR v2) Copy OK
Track 8
Filename D:\EAC_FLAC\The Everly Brothers - The Very Best Of The Everly Brothers\08 - All I Have To Do Is Dream.wav
Pre-gap length 0:00:03.50
Peak level 84.7 % Extraction speed 1.3 X Track quality 100.0 % Test CRC B8E74913 Copy CRC B8E74913 Accurately ripped (confidence 15) [4BF169E4] (AR v2) Copy OK
Track 9
Filename D:\EAC_FLAC\The Everly Brothers - The Very Best Of The Everly Brothers\09 - Devoted To You.wav
Pre-gap length 0:00:03.30
Peak level 77.9 % Extraction speed 1.1 X Track quality 99.9 % Test CRC 6609A27E Copy CRC 6609A27E Accurately ripped (confidence 15) [6392BBB4] (AR v2) Copy OK
Track 10
Filename D:\EAC_FLAC\The Everly Brothers - The Very Best Of The Everly Brothers\10 - Lucille.wav
Pre-gap length 0:00:03.25
Peak level 90.6 % Extraction speed 1.2 X Track quality 99.9 % Test CRC 6808F423 Copy CRC 6808F423 Accurately ripped (confidence 15) [ED16A885] (AR v2) Copy OK
Track 11
Filename D:\EAC_FLAC\The Everly Brothers - The Very Best Of The Everly Brothers\11 - So Sad (To Watch Good Love Go Bad).wav
Pre-gap length 0:00:04.27
Peak level 96.2 % Extraction speed 1.5 X Track quality 100.0 % Test CRC 4C13C13E Copy CRC 4C13C13E Accurately ripped (confidence 15) [B6DF2CEF] (AR v2) Copy OK
Track 12
Filename D:\EAC_FLAC\The Everly Brothers - The Very Best Of The Everly Brothers\12 - Ebony Eyes.wav
Pre-gap length 0:00:03.53
Peak level 85.6 % Extraction speed 1.6 X Track quality 100.0 % Test CRC FEEEC1C5 Copy CRC FEEEC1C5 Accurately ripped (confidence 15) [E3591971] (AR v2) Copy OK
All tracks accurately ripped
No errors occurred
End of status report
==== Log checksum 4EE6B02CA83B25844B216C687ECE098281DC0B63B97721F0316A883598F64F82 ====

Содержание индексной карты (.CUE)

REM GENRE Folk-RockREM DATE 1964REM DISCID 8306CC0CREM COMMENT "ExactAudioCopy v1.0b3"PERFORMER "Everly Brothers"TITLE "The Very Best of The Everly Brothers"FILE "01 - Bye Bye Love.wav" WAVE  TRACK 01 AUDIO    TITLE "Bye Bye Love"    PERFORMER "Everly Brothers"    PREGAP 00:00:33    INDEX 01 00:00:00  TRACK 02 AUDIO    TITLE "('Til) I Kissed You"    PERFORMER "Everly Brothers"    INDEX 00 02:15:12FILE "02 - ('Til) I Kissed You.wav" WAVE    INDEX 01 00:00:00  TRACK 03 AUDIO    TITLE "Wake Up Little Susie"    PERFORMER "Everly Brothers"    INDEX 00 02:22:00FILE "03 - Wake Up Little Susie.wav" WAVE    INDEX 01 00:00:00  TRACK 04 AUDIO    TITLE "Crying In The Rain"    PERFORMER "Everly Brothers"    INDEX 00 02:01:28FILE "04 - Crying In The Rain.wav" WAVE    INDEX 01 00:00:00  TRACK 05 AUDIO    TITLE "Walk Right Back"    PERFORMER "Everly Brothers"    INDEX 00 01:58:48FILE "05 - Walk Right Back.wav" WAVE    INDEX 01 00:00:00  TRACK 06 AUDIO    TITLE "Cathy's Clown"    PERFORMER "Everly Brothers"    INDEX 00 02:17:60FILE "06 - Cathy's Clown.wav" WAVE    INDEX 01 00:00:00  TRACK 07 AUDIO    TITLE "Bird Dog"    PERFORMER "Everly Brothers"    INDEX 00 02:23:00FILE "07 - Bird Dog.wav" WAVE    INDEX 01 00:00:00  TRACK 08 AUDIO    TITLE "All I Have To Do Is Dream"    PERFORMER "Everly Brothers"    INDEX 00 02:14:35FILE "08 - All I Have To Do Is Dream.wav" WAVE    INDEX 01 00:00:00  TRACK 09 AUDIO    TITLE "Devoted To You"    PERFORMER "Everly Brothers"    INDEX 00 02:21:40FILE "09 - Devoted To You.wav" WAVE    INDEX 01 00:00:00  TRACK 10 AUDIO    TITLE "Lucille"    PERFORMER "Everly Brothers"    INDEX 00 02:21:55FILE "10 - Lucille.wav" WAVE    INDEX 01 00:00:00  TRACK 11 AUDIO    TITLE "So Sad (To Watch Good Love Go Bad)"    PERFORMER "Everly Brothers"    INDEX 00 02:29:73FILE "11 - So Sad (To Watch Good Love Go Bad).wav" WAVE    INDEX 01 00:00:00  TRACK 12 AUDIO    TITLE "Ebony Eyes"    PERFORMER "Everly Brothers"    INDEX 00 02:33:10FILE "12 - Ebony Eyes.wav" WAVE    INDEX 01 00:00:00

Лог проверки качества

AUDIOCHECKER v2.0 beta (build 457) - by Dester - opdester@freemail.hu~~~~~~~~~~~~~~~~~~~~~~~~~~~~~~~~~~-=== DO NOT EDIT THIS FILE! ===-
Path: ...\[1964] The Very Best Of (1990 Release)
01 -=- 01 - Bye Bye Love.flac -=- CDDA (100%)02 -=- 02 - ('Til) I Kissed You.flac -=- CDDA (100%)03 -=- 03 - Wake Up Little Susie.flac -=- CDDA (100%)04 -=- 04 - Crying in the Rain.flac -=- CDDA (100%)05 -=- 05 - Walk Right Back.flac -=- CDDA (100%)06 -=- 06 - Cathy's Clown.flac -=- CDDA (100%)07 -=- 07 - Bird Dog.flac -=- CDDA (99%)08 -=- 08 - All I Have to Do Is Dream.flac -=- CDDA (100%)09 -=- 09 - Devoted to You.flac -=- CDDA (100%)10 -=- 10 - Lucille.flac -=- CDDA (99%)11 -=- 11 - So Sad (To Watch Good Love Go Bad).flac -=- CDDA (100%)12 -=- 12 - Ebony Eyes.flac -=- CDDA (100%)
Summary 99,83% CDDA
191493204
Доп. информация:
Copyright (c) – Warner Bros. Records Inc.
Manufactured By – WEA Manufacturing
Barcode: 0 8122-79764-1 5
Вы не можете начинать темы
Вы не можете отвечать на сообщения
Вы не можете редактировать свои сообщения
Вы не можете удалять свои сообщения
Вы не можете голосовать в опросах
Вы не можете прикреплять файлы к сообщениям
Вы можете скачивать файлы
!ВНИМАНИЕ!

Сайт не предоставляет электронные версии произведений, а занимается лишь коллекционированием и каталогизацией ссылок, присылаемых и публикуемых на форуме нашими читателями. Если вы являетесь правообладателем какого-либо представленного материала и не желаете, чтобы ссылка на него находилась в нашем каталоге, свяжитесь с нами, и мы незамедлительно удалим ее. Файлы для обмена на трекере предоставлены пользователями сайта, и администрация не несет ответственности за их содержание. Просьба не заливать файлы, защищенные авторскими правами, а также файлы нелегального содержания!

Искали программы, игры, дополнения, музыка mp3, аниме, аудио книги, журналы? Добро пожаловать на свободный торрент трекер Torrents, у нас можно скачать бесплатно, без смс и регистрации и прочих ограничений лучшие, отборные сборки программ, игр. Скачать торрентом не составит труда даже не опытному пользователю. Раздачи ежедневно обновляются, только лучшие и качественные раздачи, подробные описания и скриншоты. Огромная коллекция программ для работы со звуком, графикой, дизайном, а так же множество плагинов и инструментов к ним с подробной инструкцией и рекомендациями. Прошивки для навигаторов, карты. Разнообразные игры, для Windows, Linux. В коллекцие есть и старые игры любых жанров, Rpg, Action, Shooter, strategy Множество дополнений, модификаций, сценариев для популярных игр в жанре экш, рпг, гонки, стратегии, логические игры. Множество аддонов и сценариев для Microsoft Flight Simulator Большая коллекция книг, учебников. Если нет возможности купить печатное издание - смело скачивайте цифровую версию книги или, быть может, журнала. Не любите читать - можно загрузить бесплатно аудикнигу. Для веб дизайнеров и программистов так же найдется множество специализированного софта, таких как: редакторы с подсветкой, среды программирования, компоненты, системы управления базами данных, разнообразные скрипты и шаблоны. Не так давно у нас появился материал для автолюбителей и владельцев мото - оригинальные и неоригинальные каталоги запчастей, книги и журналы по ремонту и обслуживанию, видеоуроки, статьи по чип тюнингу, прошивкам. Процедура получения контента элементарная, достаточно просто скачать торрент файл и добавить его в загрузку в вашем торрент клиенте. Если у вас нет специального торрент клиента, вы можете его скачать у нас.