Viber Messenger | डाउनलोड APK | Google Play सेवाएं

(Surf, Rock & Roll, Rockabilly) [CD] Red Elvises - Live In Moscow & The Best Of Kick-Ass (2CD) - 2005, FLAC (image+.cue), lossless 

Цитировать
Red Elvises / Live In Moscow & The Best Of Kick-Ass (2CD)
Жанр: Surf, Rock & Roll, Rockabilly
Носитель: CD
Страна-производитель диска (релиза): Россия
Год издания: 2005
Издатель (лейбл): BRP Records
Страна исполнителя (группы): США-Россия
Аудиокодек: FLAC (*.flac)
Тип рипа: image+.cue
Битрейт аудио: lossless
Источник (релизер): Свой диск
Наличие сканов в содержимом раздачи: да

CD1. Live In Moscow (22.08.2004)

Номер по каталогу: BRP 040-2
Продолжительность: 00:51:10
Треклист:
1. Love Pipe
2. Boogie Woogie On The Beach
3. Night Butterfly
4. Love Rocket
5. Strip Joint Is Closed
6. Sad Cowboy Song
7. Blue Moon
8. I Wanna See You Belly Dance
9. My Love Is Killing Me

Лог создания рипа

Exact Audio Copy V1.3 from 2. September 2016
Отчёт EAC об извлечении, выполненном 11. мая 2018, 14:30
Red Elvises / CD1 - Live In Moscow
Дисковод: ATAPI iHAS122 C Adapter: 1 ID: 0
Режим чтения : ДостоверностьИспользование точного потока : ДаОтключение кэша аудио : ДаИспользование указателей C2 : Нет
Коррекция смещения при чтении : 6Способность читать области Lead-in и Lead-out : НетЗаполнение пропущенных сэмплов тишиной : ДаУдаление блоков с тишиной в начале и конце : НетПри вычислениях CRC использовались нулевые сэмплы : ДаИнтерфейс : Встроенный Win32-интерфейс для Win NT/2000
Выходной формат : Пользовательский кодировщикВыбранный битрейт : 768 kBit/sКачество : ВысокийДобавление ID3-тега : НетУтилита сжатия : C:\Program Files\Exact Audio Copy\FLAC\FLAC.EXEДополнительные параметры : -6 -V -T "ARTIST=%artist%" -T "TITLE=%title%" -T "ALBUM=%albumtitle%" -T "DATE=%year%" -T "TRACKNUMBER=%tracknr%" -T "GENRE=%genre%" -T "COMMENT=%comment%" -T "BAND=%albuminterpret%" -T "ALBUMARTIST=%albuminterpret%" -T "COMPOSER=%composer%" %haslyrics%--tag-from-file=LYRICS="%lyricsfile%"%haslyrics% -T "DISCNUMBER=%cdnumber%" -T "TOTALDISCS=%totalcds%" -T "TOTALTRACKS=%numtracks%" %hascover%--picture="%coverfile%"%hascover% %source% -o %dest%
TOC извлечённого CD
Трек | Старт | Длительность | Начальный сектор | Конечный сектор --------------------------------------------------------------------- 1 | 0:00.00 | 4:01.16 | 0 | 18090 2 | 4:01.16 | 2:54.29 | 18091 | 31169 3 | 6:55.45 | 6:25.68 | 31170 | 60112 4 | 13:21.38 | 4:46.24 | 60113 | 81586 5 | 18:07.62 | 5:22.12 | 81587 | 105748 6 | 23:29.74 | 8:55.71 | 105749 | 145944 7 | 32:25.70 | 4:36.74 | 145945 | 166718 8 | 37:02.69 | 5:47.28 | 166719 | 192771 9 | 42:50.22 | 8:19.52 | 192772 | 230248
Характеристики диапазона извлечения и сообщения об ошибках
Выбранный диапазон
Имя файла D:\Музыка\Red Elvises - Live In Moscow & The Best of Kick-Ass (2005) [2CD]\Red Elvises - CD1 - Live In Moscow.wav
Пиковый уровень 100.0 % Скорость извлечения 5.7 X Качество диапазона 99.9 % CRC теста 9261FF38 CRC копии 9261FF38 Копирование... OK
Ошибок не произошло
AccurateRip: сводка
Трек 1 отсутствует в базе данныхТрек 2 отсутствует в базе данныхТрек 3 отсутствует в базе данныхТрек 4 отсутствует в базе данныхТрек 5 отсутствует в базе данныхТрек 6 отсутствует в базе данныхТрек 7 отсутствует в базе данныхТрек 8 отсутствует в базе данныхТрек 9 отсутствует в базе данных
Ни одного трека нет в базе AccurateRip
Конец отчёта
---- CUETools DB Plugin V2.1.6
[CTDB TOCID: s3akHkSxfEjiyt.ytpLvOVXxSzM-] disk not present in databaseSubmit result: s3akHkSxfEjiyt.ytpLvOVXxSzM- has been uploaded

CD2. The Best Of Kick-Ass

Номер по каталогу: BRP 040-1
Продолжительность: 00:52:24
Треклист:
1. Boogie On The Beach
2. Sunshine
3. Night Butterfly
4. Siberia
5. Groovie
6. Rocketman
7. Red Lips, Red Eyes, Red Stockings
8. Spacecowboy
9. My Love Is Killing Me
10. Love Rocket
11. I Wanna See You Bellydance
12. I Will Come Back
13. Love Pipe
14. Strip Joint Is Closed

Лог создания рипа

Exact Audio Copy V1.3 from 2. September 2016
Отчёт EAC об извлечении, выполненном 11. мая 2018, 14:51
Red Elvises / CD2 - The Best Of Kick-Ass
Дисковод: ATAPI iHAS122 C Adapter: 1 ID: 0
Режим чтения : ДостоверностьИспользование точного потока : ДаОтключение кэша аудио : ДаИспользование указателей C2 : Нет
Коррекция смещения при чтении : 6Способность читать области Lead-in и Lead-out : НетЗаполнение пропущенных сэмплов тишиной : ДаУдаление блоков с тишиной в начале и конце : НетПри вычислениях CRC использовались нулевые сэмплы : ДаИнтерфейс : Встроенный Win32-интерфейс для Win NT/2000
Выходной формат : Пользовательский кодировщикВыбранный битрейт : 768 kBit/sКачество : ВысокийДобавление ID3-тега : НетУтилита сжатия : C:\Program Files\Exact Audio Copy\FLAC\FLAC.EXEДополнительные параметры : -6 -V -T "ARTIST=%artist%" -T "TITLE=%title%" -T "ALBUM=%albumtitle%" -T "DATE=%year%" -T "TRACKNUMBER=%tracknr%" -T "GENRE=%genre%" -T "COMMENT=%comment%" -T "BAND=%albuminterpret%" -T "ALBUMARTIST=%albuminterpret%" -T "COMPOSER=%composer%" %haslyrics%--tag-from-file=LYRICS="%lyricsfile%"%haslyrics% -T "DISCNUMBER=%cdnumber%" -T "TOTALDISCS=%totalcds%" -T "TOTALTRACKS=%numtracks%" %hascover%--picture="%coverfile%"%hascover% %source% -o %dest%
TOC извлечённого CD
Трек | Старт | Длительность | Начальный сектор | Конечный сектор --------------------------------------------------------------------- 1 | 0:00.00 | 2:48.18 | 0 | 12617 2 | 2:48.18 | 4:11.65 | 12618 | 31507 3 | 7:00.08 | 4:02.26 | 31508 | 49683 4 | 11:02.34 | 3:30.71 | 49684 | 65504 5 | 14:33.30 | 3:26.50 | 65505 | 81004 6 | 18:00.05 | 3:15.74 | 81005 | 95703 7 | 21:16.04 | 2:46.19 | 95704 | 108172 8 | 24:02.23 | 4:16.05 | 108173 | 127377 9 | 28:18.28 | 5:47.39 | 127378 | 153441 10 | 34:05.67 | 3:50.30 | 153442 | 170721 11 | 37:56.22 | 4:04.25 | 170722 | 189046 12 | 42:00.47 | 3:21.60 | 189047 | 204181 13 | 45:22.32 | 3:17.49 | 204182 | 219005 14 | 48:40.06 | 4:14.30 | 219006 | 238085
Характеристики диапазона извлечения и сообщения об ошибках
Выбранный диапазон
Имя файла D:\Музыка\Red Elvises - Live In Moscow & The Best of Kick-Ass (2005) [2CD]\Red Elvises - CD2 - The Best Of Kick-Ass.wav
Пиковый уровень 100.0 % Скорость извлечения 5.8 X Качество диапазона 100.0 % CRC теста ABFF10DF CRC копии ABFF10DF Копирование... OK
Ошибок не произошло
AccurateRip: сводка
Трек 1 отсутствует в базе данныхТрек 2 отсутствует в базе данныхТрек 3 отсутствует в базе данныхТрек 4 отсутствует в базе данныхТрек 5 отсутствует в базе данныхТрек 6 отсутствует в базе данныхТрек 7 отсутствует в базе данныхТрек 8 отсутствует в базе данныхТрек 9 отсутствует в базе данныхТрек 10 отсутствует в базе данныхТрек 11 отсутствует в базе данныхТрек 12 отсутствует в базе данныхТрек 13 отсутствует в базе данныхТрек 14 отсутствует в базе данных
Ни одного трека нет в базе AccurateRip
Конец отчёта
---- CUETools DB Plugin V2.1.6
[CTDB TOCID: ZN4yDXILKEo0BOk_CwlKpVMCBcs-] disk not present in databaseSubmit result: ZN4yDXILKEo0BOk_CwlKpVMCBcs- has been uploaded

Состав

Igor Yuzov - Guitar, Vocals
Oleg Bernov - Bass, Vocals
Craig Pilo - Drums, Vocals
Vladimir Kuznetsov - Sax, Accordion
Dmitry Popov - Keyboards, Vocals
Artiom Zhuliev - Sax, Vocals
Вы не можете начинать темы
Вы не можете отвечать на сообщения
Вы не можете редактировать свои сообщения
Вы не можете удалять свои сообщения
Вы не можете голосовать в опросах
Вы не можете прикреплять файлы к сообщениям
Вы можете скачивать файлы
!ВНИМАНИЕ!

Сайт не предоставляет электронные версии произведений, а занимается лишь коллекционированием и каталогизацией ссылок, присылаемых и публикуемых на форуме нашими читателями. Если вы являетесь правообладателем какого-либо представленного материала и не желаете, чтобы ссылка на него находилась в нашем каталоге, свяжитесь с нами, и мы незамедлительно удалим ее. Файлы для обмена на трекере предоставлены пользователями сайта, и администрация не несет ответственности за их содержание. Просьба не заливать файлы, защищенные авторскими правами, а также файлы нелегального содержания!

Искали программы, игры, дополнения, музыка mp3, аниме, аудио книги, журналы? Добро пожаловать на свободный торрент трекер Torrents, у нас можно скачать бесплатно, без смс и регистрации и прочих ограничений лучшие, отборные сборки программ, игр. Скачать торрентом не составит труда даже не опытному пользователю. Раздачи ежедневно обновляются, только лучшие и качественные раздачи, подробные описания и скриншоты. Огромная коллекция программ для работы со звуком, графикой, дизайном, а так же множество плагинов и инструментов к ним с подробной инструкцией и рекомендациями. Прошивки для навигаторов, карты. Разнообразные игры, для Windows, Linux. В коллекцие есть и старые игры любых жанров, Rpg, Action, Shooter, strategy Множество дополнений, модификаций, сценариев для популярных игр в жанре экш, рпг, гонки, стратегии, логические игры. Множество аддонов и сценариев для Microsoft Flight Simulator Большая коллекция книг, учебников. Если нет возможности купить печатное издание - смело скачивайте цифровую версию книги или, быть может, журнала. Не любите читать - можно загрузить бесплатно аудикнигу. Для веб дизайнеров и программистов так же найдется множество специализированного софта, таких как: редакторы с подсветкой, среды программирования, компоненты, системы управления базами данных, разнообразные скрипты и шаблоны. Не так давно у нас появился материал для автолюбителей и владельцев мото - оригинальные и неоригинальные каталоги запчастей, книги и журналы по ремонту и обслуживанию, видеоуроки, статьи по чип тюнингу, прошивкам. Процедура получения контента элементарная, достаточно просто скачать торрент файл и добавить его в загрузку в вашем торрент клиенте. Если у вас нет специального торрент клиента, вы можете его скачать у нас.