Bounce – Number 67 | Nhạc Phim Remix-Top Nhạc Gây Nghiện Lồng Phim Hay Nhất 2019-EDM Đẳng Cấp | Running Man Episode 102

(Beat, Surf, Garage Rock) [CD] Emy Jackson - The Emy Jackson Album - 1996 (Japan Edition), FLAC (tracks+.cue), lossless 

Цитировать
Emy Jackson - The Emy Jackson Album
Жанр: Beat, Surf, Garage Rock
Носитель: CD
Страна-производитель диска (релиза): Япония
Год издания: 1996
Издатель (лейбл): Nippon Columbia
Номер по каталогу: COCA-13946
Аудиокодек: FLAC (*.flac)
Тип рипа: tracks+.cue
Битрейт аудио: lossless
Продолжительность: 51:38
Источник (релизер): mvns
Наличие сканов в содержимом раздачи: да
Треклист:
01. Crying in a Storm (2:47)
02. Pretend (2:54)
03. I Gave All My Love to You (3:30)
04. Crying in a Chapel (2:19)
05. Little White Clouds That Cried (2:48)
06. Don't Break My Heart (2:26)
07. Say Yes My Boy (2:28)
08. If I Gave My Heart to You (2:23)
09. Tears A Go Go (2:44)
10. I Went to Your Wedding (2:02)
11. Frankie (2:02)
12. Suddenly I'm Alone (2:52)
13. Blue Christmas (2:19)
14. I Saw Mammy Kissing Santa Claus (1:54)
15. You Don't Know Baby (2:49)
16. Heart Full of Tears (3:02)
17. Angel Fish (2:39)
18. Don't Say Good-Bye (2:44)
19. Love Is Crazy Sports Car (2:49)
20. One Way Kiss (2:07)

Лог создания рипа

X Lossless Decoder version 20170729 (150.3)
XLD extraction logfile from 2018-05-11 21:24:56 -0700
Emy Jackson / 涙の太陽
Used drive : TSSTcorp CDDVDW SE-218CB (revision MF00)Media type : Pressed CD
Ripper mode : XLD Secure RipperDisable audio cache : OK for the drive with a cache less than 1375KiBMake use of C2 pointers : NORead offset correction : 6Max retry count : 100Gap status : Analyzed, Appended (except HTOA)
TOC of the extracted CD Track | Start | Length | Start sector | End sector --------------------------------------------------------- 1 | 00:00:00 | 02:47:12 | 0 | 12536 2 | 02:47:12 | 02:54:10 | 12537 | 25596 3 | 05:41:22 | 03:30:35 | 25597 | 41381 4 | 09:11:57 | 02:18:45 | 41382 | 51776 5 | 11:30:27 | 02:48:20 | 51777 | 64396 6 | 14:18:47 | 02:26:03 | 64397 | 75349 7 | 16:44:50 | 02:28:17 | 75350 | 86466 8 | 19:12:67 | 02:22:55 | 86467 | 97171 9 | 21:35:47 | 02:44:10 | 97172 | 109481 10 | 24:19:57 | 02:01:63 | 109482 | 118619 11 | 26:21:45 | 02:02:37 | 118620 | 127806 12 | 28:24:07 | 02:52:03 | 127807 | 140709 13 | 31:16:10 | 02:18:50 | 140710 | 151109 14 | 33:34:60 | 01:54:35 | 151110 | 159694 15 | 35:29:20 | 02:48:42 | 159695 | 172336 16 | 38:17:62 | 03:02:33 | 172337 | 186019 17 | 41:20:20 | 02:38:42 | 186020 | 197911 18 | 43:58:62 | 02:43:68 | 197912 | 210204 19 | 46:42:55 | 02:49:27 | 210205 | 222906 20 | 49:32:07 | 02:07:08 | 222907 | 232439
AccurateRip Summary Disc not found in AccurateRip DB.
All Tracks Album gain : -5.39 dB Peak : 1.000000 Statistics Read error : 0 Jitter error (maybe fixed) : 0 Retry sector count : 0 Damaged sector count : 0
Track 01 Filename : /Volumes/Multimedia/XLD/Emy Jackson - (1994) 涙の太陽 [FLAC]/01 - Emy Jackson - Crying In A Story.flac Pre-gap length : 00:02:00
Track gain : -5.79 dB Peak : 0.931000 CRC32 hash (test run) : 5BBC203E CRC32 hash : 5BBC203E CRC32 hash (skip zero) : 1E692533 AccurateRip v1 signature : 75C143E1 AccurateRip v2 signature : 0868F1F1 ->Track not present in AccurateRip database. Statistics Read error : 0 Jitter error (maybe fixed) : 0 Retry sector count : 0 Damaged sector count : 0
Track 02 Filename : /Volumes/Multimedia/XLD/Emy Jackson - (1994) 涙の太陽 [FLAC]/02 - Emy Jackson - Pretend.flac Pre-gap length : 00:03:00
Track gain : -4.40 dB Peak : 0.989960 CRC32 hash (test run) : 0A01D796 CRC32 hash : 0A01D796 CRC32 hash (skip zero) : 2AAC24A1 AccurateRip v1 signature : ED135A13 AccurateRip v2 signature : 061B19C8 ->Track not present in AccurateRip database. Statistics Read error : 0 Jitter error (maybe fixed) : 0 Retry sector count : 0 Damaged sector count : 0
Track 03 Filename : /Volumes/Multimedia/XLD/Emy Jackson - (1994) 涙の太陽 [FLAC]/03 - Emy Jackson - I Gave All My Love To You.flac Pre-gap length : 00:01:30
Track gain : -2.68 dB Peak : 1.000000 CRC32 hash (test run) : A39435C1 CRC32 hash : A39435C1 CRC32 hash (skip zero) : 6BB21EC9 AccurateRip v1 signature : A009AE1A AccurateRip v2 signature : B5995105 ->Track not present in AccurateRip database. Statistics Read error : 0 Jitter error (maybe fixed) : 0 Retry sector count : 0 Damaged sector count : 0
Track 04 Filename : /Volumes/Multimedia/XLD/Emy Jackson - (1994) 涙の太陽 [FLAC]/04 - Emy Jackson - Crying In A Chapel.flac Pre-gap length : 00:01:62
Track gain : -4.43 dB Peak : 0.993378 CRC32 hash (test run) : B67911F3 CRC32 hash : B67911F3 CRC32 hash (skip zero) : EE440BB5 AccurateRip v1 signature : DF276D9A AccurateRip v2 signature : 5C7E99B5 ->Track not present in AccurateRip database. Statistics Read error : 0 Jitter error (maybe fixed) : 0 Retry sector count : 0 Damaged sector count : 0
Track 05 Filename : /Volumes/Multimedia/XLD/Emy Jackson - (1994) 涙の太陽 [FLAC]/05 - Emy Jackson - Little White Clouds That Cried.flac Pre-gap length : 00:01:00
Track gain : -3.57 dB Peak : 0.801086 CRC32 hash (test run) : 7821319F CRC32 hash : 7821319F CRC32 hash (skip zero) : 263015E0 AccurateRip v1 signature : FA38A556 AccurateRip v2 signature : 80302006 ->Track not present in AccurateRip database. Statistics Read error : 0 Jitter error (maybe fixed) : 0 Retry sector count : 0 Damaged sector count : 0
Track 06 Filename : /Volumes/Multimedia/XLD/Emy Jackson - (1994) 涙の太陽 [FLAC]/06 - Emy Jackson - Don't Break My Heart.flac Pre-gap length : 00:00:72
Track gain : -5.22 dB Peak : 0.919128 CRC32 hash (test run) : BD89B090 CRC32 hash : BD89B090 CRC32 hash (skip zero) : D61BAD06 AccurateRip v1 signature : 9B39F9C3 AccurateRip v2 signature : 746001A0 ->Track not present in AccurateRip database. Statistics Read error : 0 Jitter error (maybe fixed) : 0 Retry sector count : 0 Damaged sector count : 0
Track 07 Filename : /Volumes/Multimedia/XLD/Emy Jackson - (1994) 涙の太陽 [FLAC]/07 - Emy Jackson - Say Yes My Boy.flac Pre-gap length : 00:01:60
Track gain : -5.28 dB Peak : 0.917511 CRC32 hash (test run) : A2807B94 CRC32 hash : A2807B94 CRC32 hash (skip zero) : 575FCCF7 AccurateRip v1 signature : 1F06B0E3 AccurateRip v2 signature : BEF2F2C7 ->Track not present in AccurateRip database. Statistics Read error : 0 Jitter error (maybe fixed) : 0 Retry sector count : 0 Damaged sector count : 0
Track 08 Filename : /Volumes/Multimedia/XLD/Emy Jackson - (1994) 涙の太陽 [FLAC]/08 - Emy Jackson - If I Gave My Heart To You.flac Pre-gap length : 00:02:40
Track gain : -5.88 dB Peak : 0.869141 CRC32 hash (test run) : E4B41125 CRC32 hash : E4B41125 CRC32 hash (skip zero) : 68C0A87E AccurateRip v1 signature : B2FF9C3E AccurateRip v2 signature : DD045486 ->Track not present in AccurateRip database. Statistics Read error : 0 Jitter error (maybe fixed) : 0 Retry sector count : 0 Damaged sector count : 0
Track 09 Filename : /Volumes/Multimedia/XLD/Emy Jackson - (1994) 涙の太陽 [FLAC]/09 - Emy Jackson - Tears A Go Go.flac Pre-gap length : 00:02:20
Track gain : -5.49 dB Peak : 0.990021 CRC32 hash (test run) : F51ED369 CRC32 hash : F51ED369 CRC32 hash (skip zero) : 6200CD19 AccurateRip v1 signature : CE2F083C AccurateRip v2 signature : D600CE31 ->Track not present in AccurateRip database. Statistics Read error : 0 Jitter error (maybe fixed) : 0 Retry sector count : 0 Damaged sector count : 0
Track 10 Filename : /Volumes/Multimedia/XLD/Emy Jackson - (1994) 涙の太陽 [FLAC]/10 - Emy Jackson - I Went To Your Wedding.flac Pre-gap length : 00:01:02
Track gain : -5.89 dB Peak : 0.950714 CRC32 hash (test run) : 1AB20233 CRC32 hash : 1AB20233 CRC32 hash (skip zero) : 7CB7A66B AccurateRip v1 signature : 3FADD6D7 AccurateRip v2 signature : 8C23B5D8 ->Track not present in AccurateRip database. Statistics Read error : 0 Jitter error (maybe fixed) : 0 Retry sector count : 0 Damaged sector count : 0
Track 11 Filename : /Volumes/Multimedia/XLD/Emy Jackson - (1994) 涙の太陽 [FLAC]/11 - Emy Jackson - Frankie.flac Pre-gap length : 00:01:52
Track gain : -6.01 dB Peak : 0.855164 CRC32 hash (test run) : C8E7532A CRC32 hash : C8E7532A CRC32 hash (skip zero) : B609B703 AccurateRip v1 signature : A70988D0 AccurateRip v2 signature : 19E80684 ->Track not present in AccurateRip database. Statistics Read error : 0 Jitter error (maybe fixed) : 0 Retry sector count : 0 Damaged sector count : 0
Track 12 Filename : /Volumes/Multimedia/XLD/Emy Jackson - (1994) 涙の太陽 [FLAC]/12 - Emy Jackson - Suddenly I'm Alone.flac Pre-gap length : 00:02:30
Track gain : -5.73 dB Peak : 0.857544 CRC32 hash (test run) : 87441AAC CRC32 hash : 87441AAC CRC32 hash (skip zero) : E0B6CE6B AccurateRip v1 signature : 0D03B5BF AccurateRip v2 signature : 0555D92B ->Track not present in AccurateRip database. Statistics Read error : 0 Jitter error (maybe fixed) : 0 Retry sector count : 0 Damaged sector count : 0
Track 13 Filename : /Volumes/Multimedia/XLD/Emy Jackson - (1994) 涙の太陽 [FLAC]/13 - Emy Jackson - Blue Christmas.flac Pre-gap length : 00:02:55
Track gain : -5.87 dB Peak : 0.932007 CRC32 hash (test run) : 2F7483D5 CRC32 hash : 2F7483D5 CRC32 hash (skip zero) : 8040AF43 AccurateRip v1 signature : 6D64FC44 AccurateRip v2 signature : 24D8812D ->Track not present in AccurateRip database. Statistics Read error : 0 Jitter error (maybe fixed) : 0 Retry sector count : 0 Damaged sector count : 0
Track 14 Filename : /Volumes/Multimedia/XLD/Emy Jackson - (1994) 涙の太陽 [FLAC]/14 - Emy Jackson - I Saw Mammy Kissing Santa Claus.flac Pre-gap length : 00:02:17
Track gain : -3.35 dB Peak : 0.990051 CRC32 hash (test run) : 811D3F89 CRC32 hash : 811D3F89 CRC32 hash (skip zero) : 8A82D0CA AccurateRip v1 signature : 60E9EA3A AccurateRip v2 signature : 5F46E46F ->Track not present in AccurateRip database. Statistics Read error : 0 Jitter error (maybe fixed) : 0 Retry sector count : 0 Damaged sector count : 0
Track 15 Filename : /Volumes/Multimedia/XLD/Emy Jackson - (1994) 涙の太陽 [FLAC]/15 - Emy Jackson - You Don't Know Baby.flac Pre-gap length : 00:02:47
Track gain : -7.64 dB Peak : 0.989899 CRC32 hash (test run) : 840B7F04 CRC32 hash : 840B7F04 CRC32 hash (skip zero) : 9133C6E0 AccurateRip v1 signature : BE9016E6 AccurateRip v2 signature : E8F5D8FC ->Track not present in AccurateRip database. Statistics Read error : 0 Jitter error (maybe fixed) : 0 Retry sector count : 0 Damaged sector count : 0
Track 16 Filename : /Volumes/Multimedia/XLD/Emy Jackson - (1994) 涙の太陽 [FLAC]/16 - Emy Jackson - Heart Full Of Tears.flac Pre-gap length : 00:02:52
Track gain : -5.18 dB Peak : 0.952881 CRC32 hash (test run) : E6A3AD5B CRC32 hash : E6A3AD5B CRC32 hash (skip zero) : 8507B1C6 AccurateRip v1 signature : F2804B9F AccurateRip v2 signature : DA89BFC6 ->Track not present in AccurateRip database. Statistics Read error : 0 Jitter error (maybe fixed) : 0 Retry sector count : 0 Damaged sector count : 0
Track 17 Filename : /Volumes/Multimedia/XLD/Emy Jackson - (1994) 涙の太陽 [FLAC]/17 - Emy Jackson - Angel Fish.flac Pre-gap length : 00:02:17
Track gain : -3.27 dB Peak : 0.999969 CRC32 hash (test run) : DD488AE5 CRC32 hash : DD488AE5 CRC32 hash (skip zero) : 61740A1F AccurateRip v1 signature : 66E23005 AccurateRip v2 signature : 357CB8E3 ->Track not present in AccurateRip database. Statistics Read error : 0 Jitter error (maybe fixed) : 0 Retry sector count : 0 Damaged sector count : 0
Track 18 Filename : /Volumes/Multimedia/XLD/Emy Jackson - (1994) 涙の太陽 [FLAC]/18 - Emy Jackson - Don't Say Good-Bye.flac Pre-gap length : 00:02:07
Track gain : -5.44 dB Peak : 0.960449 CRC32 hash (test run) : F4F0F5C7 CRC32 hash : F4F0F5C7 CRC32 hash (skip zero) : E759FDC2 AccurateRip v1 signature : 855E23D9 AccurateRip v2 signature : 83C32BA2 ->Track not present in AccurateRip database. Statistics Read error : 0 Jitter error (maybe fixed) : 0 Retry sector count : 0 Damaged sector count : 0
Track 19 Filename : /Volumes/Multimedia/XLD/Emy Jackson - (1994) 涙の太陽 [FLAC]/19 - Emy Jackson - Love Is Crazy Sports Car.flac Pre-gap length : 00:02:70
Track gain : -4.52 dB Peak : 0.956421 CRC32 hash (test run) : E9A212AA CRC32 hash : E9A212AA CRC32 hash (skip zero) : A6DB6F4D AccurateRip v1 signature : E0B7EAE4 AccurateRip v2 signature : 7AA64B70 ->Track not present in AccurateRip database. Statistics Read error : 0 Jitter error (maybe fixed) : 0 Retry sector count : 0 Damaged sector count : 0
Track 20 Filename : /Volumes/Multimedia/XLD/Emy Jackson - (1994) 涙の太陽 [FLAC]/20 - Emy Jackson - One Way Kiss.flac Pre-gap length : 00:02:42
Track gain : -6.22 dB Peak : 0.964752 CRC32 hash (test run) : 99BF2571 CRC32 hash : 99BF2571 CRC32 hash (skip zero) : 266212BC AccurateRip v1 signature : B8320740 AccurateRip v2 signature : 924E6D55 ->Track not present in AccurateRip database. Statistics Read error : 0 Jitter error (maybe fixed) : 0 Retry sector count : 0 Damaged sector count : 0
No errors occurred
End of status report
-----BEGIN XLD SIGNATURE-----jXKjnTlRA4qv6Q.Onme1mX36OwNLal0FxSo3teUdQ6i2tDVg_M7s_NAkt0eZVoui0QXrje55Sy6PFo4qpxa7JCGwFlhrHvSlYzFsQvm-----END XLD SIGNATURE-----

Содержание индексной карты (.CUE)

TITLE "The Emy Jackson Album"PERFORMER "Emy Jackson"REM GENRE "Rock"REM DATE "1996"REM DISCID 170C1B14REM REPLAYGAIN_ALBUM_GAIN -5.39 dBREM REPLAYGAIN_ALBUM_PEAK 1.000000FILE "01 - Crying in a Storm.flac" WAVE  TRACK 01 AUDIO    TITLE "Crying in a Storm"    REM REPLAYGAIN_TRACK_GAIN -5.79 dB    REM REPLAYGAIN_TRACK_PEAK 0.931000    INDEX 01 00:00:00  TRACK 02 AUDIO    TITLE "Pretend"    REM REPLAYGAIN_TRACK_GAIN -4.40 dB    REM REPLAYGAIN_TRACK_PEAK 0.989960    INDEX 00 02:44:12FILE "02 - Pretend.flac" WAVE    INDEX 01 00:00:00  TRACK 03 AUDIO    TITLE "I Gave All My Love to You"    REM REPLAYGAIN_TRACK_GAIN -2.68 dB    REM REPLAYGAIN_TRACK_PEAK 1.000000    INDEX 00 02:52:55FILE "03 - I Gave All My Love to You.flac" WAVE    INDEX 01 00:00:00  TRACK 04 AUDIO    TITLE "Crying in a Chapel"    REM REPLAYGAIN_TRACK_GAIN -4.43 dB    REM REPLAYGAIN_TRACK_PEAK 0.993378    INDEX 00 03:28:48FILE "04 - Crying in a Chapel.flac" WAVE    INDEX 01 00:00:00  TRACK 05 AUDIO    TITLE "Little White Clouds That Cried"    REM REPLAYGAIN_TRACK_GAIN -3.57 dB    REM REPLAYGAIN_TRACK_PEAK 0.801086    INDEX 00 02:17:45FILE "05 - Little White Clouds That Cried.flac" WAVE    INDEX 01 00:00:00  TRACK 06 AUDIO    TITLE "Don't Break My Heart"    REM REPLAYGAIN_TRACK_GAIN -5.22 dB    REM REPLAYGAIN_TRACK_PEAK 0.919128    INDEX 00 02:47:23FILE "06 - Don't Break My Heart.flac" WAVE    INDEX 01 00:00:00  TRACK 07 AUDIO    TITLE "Say Yes My Boy"    REM REPLAYGAIN_TRACK_GAIN -5.28 dB    REM REPLAYGAIN_TRACK_PEAK 0.917511    INDEX 00 02:24:18FILE "07 - Say Yes My Boy.flac" WAVE    INDEX 01 00:00:00  TRACK 08 AUDIO    TITLE "If I Gave My Heart to You"    REM REPLAYGAIN_TRACK_GAIN -5.88 dB    REM REPLAYGAIN_TRACK_PEAK 0.869141    INDEX 00 02:25:52FILE "08 - If I Gave My Heart to You.flac" WAVE    INDEX 01 00:00:00  TRACK 09 AUDIO    TITLE "Tears A Go Go"    REM REPLAYGAIN_TRACK_GAIN -5.49 dB    REM REPLAYGAIN_TRACK_PEAK 0.990021    INDEX 00 02:20:35FILE "09 - Tears A Go Go.flac" WAVE    INDEX 01 00:00:00  TRACK 10 AUDIO    TITLE "I Went to Your Wedding"    REM REPLAYGAIN_TRACK_GAIN -5.89 dB    REM REPLAYGAIN_TRACK_PEAK 0.950714    INDEX 00 02:43:08FILE "10 - I Went to Your Wedding.flac" WAVE    INDEX 01 00:00:00  TRACK 11 AUDIO    TITLE "Frankie"    REM REPLAYGAIN_TRACK_GAIN -6.01 dB    REM REPLAYGAIN_TRACK_PEAK 0.855164    INDEX 00 02:00:11FILE "11 - Frankie.flac" WAVE    INDEX 01 00:00:00  TRACK 12 AUDIO    TITLE "Suddenly I'm Alone"    REM REPLAYGAIN_TRACK_GAIN -5.73 dB    REM REPLAYGAIN_TRACK_PEAK 0.857544    INDEX 00 02:00:07FILE "12 - Suddenly I'm Alone.flac" WAVE    INDEX 01 00:00:00  TRACK 13 AUDIO    TITLE "Blue Christmas"    REM REPLAYGAIN_TRACK_GAIN -5.87 dB    REM REPLAYGAIN_TRACK_PEAK 0.932007    INDEX 00 02:49:23FILE "13 - Blue Christmas.flac" WAVE    INDEX 01 00:00:00  TRACK 14 AUDIO    TITLE "I Saw Mammy Kissing Santa Claus"    REM REPLAYGAIN_TRACK_GAIN -3.35 dB    REM REPLAYGAIN_TRACK_PEAK 0.990051    INDEX 00 02:16:33FILE "14 - I Saw Mammy Kissing Santa Claus.flac" WAVE    INDEX 01 00:00:00  TRACK 15 AUDIO    TITLE "You Don't Know Baby"    REM REPLAYGAIN_TRACK_GAIN -7.64 dB    REM REPLAYGAIN_TRACK_PEAK 0.989899    INDEX 00 01:51:63FILE "15 - You Don't Know Baby.flac" WAVE    INDEX 01 00:00:00  TRACK 16 AUDIO    TITLE "Heart Full of Tears"    REM REPLAYGAIN_TRACK_GAIN -5.18 dB    REM REPLAYGAIN_TRACK_PEAK 0.952881    INDEX 00 02:45:65FILE "16 - Heart Full of Tears.flac" WAVE    INDEX 01 00:00:00  TRACK 17 AUDIO    TITLE "Angel Fish"    REM REPLAYGAIN_TRACK_GAIN -3.27 dB    REM REPLAYGAIN_TRACK_PEAK 0.999969    INDEX 00 03:00:16FILE "17 - Angel Fish.flac" WAVE    INDEX 01 00:00:00  TRACK 18 AUDIO    TITLE "Don't Say Good-Bye"    REM REPLAYGAIN_TRACK_GAIN -5.44 dB    REM REPLAYGAIN_TRACK_PEAK 0.960449    INDEX 00 02:36:35FILE "18 - Don't Say Good-Bye.flac" WAVE    INDEX 01 00:00:00  TRACK 19 AUDIO    TITLE "Love Is Crazy Sports Car"    REM REPLAYGAIN_TRACK_GAIN -4.52 dB    REM REPLAYGAIN_TRACK_PEAK 0.956421    INDEX 00 02:40:73FILE "19 - Love Is Crazy Sports Car.flac" WAVE    INDEX 01 00:00:00  TRACK 20 AUDIO    TITLE "One Way Kiss"    REM REPLAYGAIN_TRACK_GAIN -6.22 dB    REM REPLAYGAIN_TRACK_PEAK 0.964752    INDEX 00 02:46:60FILE "20 - One Way Kiss.flac" WAVE    INDEX 01 00:00:00

Об альбоме (сборнике)

Emy Jackson (エミー・ジャクソン) was born in Essex, England as Emy Eaton. As a teenager in Yokohama she still couldn’t read Japanese well, but her ability to speak both English and Japanese fluently landed her a job as a youth DJ for the Good Hit Parade on Radio Kanto.
In her notes to the excellent compilation Nippon Girls: Japanese Pop, Beat & Bossa Nova 1966-1970 Sheila Burgel writes:
Her DJ career was cut short when her colleague Reiko Yukawa found Jackson singing “You Are My Sunshine” whilst strumming the guitar and sent word to A&R man Akira Izumi at Columbia Records. Akira insisted that Jackson break with the cover-pops tradition and tackle original songs written by Japanese songwriters in her native language of English.
Emy gives a strong vocal on “Crying in a Storm” (涙の太陽) backed by the aptly-named Smashmen. The heavy drumming and surf-styled guitar really help elevate this song.
This was her first 45, released in April 1965. Because she was singing in English, Columbia released Emy’s records on the CBS imprint, a label for foreign artists. As ‘imported’ music these cost more than 45s of Japanese-language pop, but the allure of a Japanese teen singing in English may have helped break her first single. “Crying in a Storm” reached #4 on the chart of foreign releases in Music Life in July ’65 (ミュージック・ライフ外国盤ランキング), and #6 on the Turn Table Top 50 on October 18.
Michi Aoyama (青山ミチ) covered the song with Japanese lyrics in May of ’65, leading to competition for sales. “Crying in a Storm” was also recorded by Singapore’s Rita Chao.
Most of her songs were composed by her vocal coach Yasutoshi Nakajima. “Crying in a Storm” was composed by Nakajima in collaboration with singer Reiko Yukawa. Sheila Burgel again: “Jackson claims to have helped Reiko write the English lyrics”.
Her initial recording career was very brief, consisting of eight singles released in 1965 and 1966, always with a ballad on one side and an uptempo pop song on the other.
“Don’t Break My Heart”, the B-side to her second single, has a similar surf guitar sound to “Crying in a Storm”, and was released in May of ’65, just a month after her first. Her third single had two Chirstmas songs including the awkwardly put “I Saw Mammy Kissing Santa Claus” (sic).
Emy Jackson CBS PS You Don't Know Baby, Heart Full of TearsHer next was a good return to form, with the uptempo “You Don’t Know Baby” from February of ’66 (and in mono for some reason instead of the more typical stereo). Because these songs were written and sung in English, CBS had to make up Japanese titles for the sleeves. They made some bizarre choices. One example is giving “You Don’t Know Baby” the Japanese title 涙のゴーゴー (Namida no Go Go) which translates to “Tears a Go Go” – which happens to be the name of the A-side of her fifth single.
Other highlights of her early releases include the excellent and odd pop number, “Angel Fish” and her only vocal in Japanese, “Love Is Crazy Sports Car” (天使のいたずら) from November of ’66, which was also her last release of the 60’s. This song is now one of the highlights of Big Beat’s Nippon Girls CD.
Emy retired from the music business by 1973. She sang on another 45 in 1984, “CRYヨコハマ” (Cry Yokohama) but didn’t return fully to music until the early 1990s. In 1994 her ’60s work was collected in an expanded 20 track version of her 1967 LP,The Emy Jackson Album. Emy is still performing in Japan, and released a new CD in 2009, Timeless.
I had the opportunity to interview Ms. Jackson in January 2010:
Q. Can you tell me about how you started in music?
Emy: The director of a radio program asked me if I could sing. I picked up my guitar and sang – that’s it. I had no intention of becoming a singer.
"Crying in a Storm" at #6 in Turn Table's Top 50
“Crying in a Storm” at #6 in Turn Table’s Top 50
Q. Who were the Smashmen (the band on “Crying in a Storm”)? In particular, do you remember the guitarist’s name?
Emy: There was no band called “Smashmen” – it was a ghost band to make my songs. The players were pick up musicians chosen by Columbia records through testing procedures. The back end chorus were the MGM boys from the Philippines. Regarding the guitarist – there were so many musicians involved, I couldn’t tell you.
Q. Did singing in English limit your career at all? Why were your records were released as imports in Japan?
Emy: Singing in English did not limit my career. To get my start, English was a requirement to satisfy the foreign element of my contract. At the time there were no more openings for local contracts. Therefore, it was the idea of Columbia Records to introduce me as a foreign singer. In actuality my records were made in Japan but marketed as foreign records.
Q. Any memorable live shows or stories?
Emy: I had a performance with the Ventures in Kyoto before they became famous. I had a live performance in Kyoto Budokan that was very memorable for me.
Q. I believe you retired from music for 20 years, is that correct? How did you decide to return, and how has it been since then?
Emy: I owned a restaurant and live coffee shop, Lugano, over 35 years in the Yokohama area. I got started again, singing at Lugano after raising my children. There were many offers, because of my background – I am the first pop star in Japan that sang in English that sold a million records. It had been very tough to make a comeback due to the changes in the entertainment industry. Now I have a band, the Cadillacs – we have been performing for over 20 years now. My priority to sing was country music, but could not make a living in Japan with only country. You need to sing a variety of music to make it in Japan. I am still enjoying my singing career.
-- Chris Bishop
Вы не можете начинать темы
Вы не можете отвечать на сообщения
Вы не можете редактировать свои сообщения
Вы не можете удалять свои сообщения
Вы не можете голосовать в опросах
Вы не можете прикреплять файлы к сообщениям
Вы можете скачивать файлы
!ВНИМАНИЕ!

Сайт не предоставляет электронные версии произведений, а занимается лишь коллекционированием и каталогизацией ссылок, присылаемых и публикуемых на форуме нашими читателями. Если вы являетесь правообладателем какого-либо представленного материала и не желаете, чтобы ссылка на него находилась в нашем каталоге, свяжитесь с нами, и мы незамедлительно удалим ее. Файлы для обмена на трекере предоставлены пользователями сайта, и администрация не несет ответственности за их содержание. Просьба не заливать файлы, защищенные авторскими правами, а также файлы нелегального содержания!

Искали программы, игры, дополнения, музыка mp3, аниме, аудио книги, журналы? Добро пожаловать на свободный торрент трекер Torrents, у нас можно скачать бесплатно, без смс и регистрации и прочих ограничений лучшие, отборные сборки программ, игр. Скачать торрентом не составит труда даже не опытному пользователю. Раздачи ежедневно обновляются, только лучшие и качественные раздачи, подробные описания и скриншоты. Огромная коллекция программ для работы со звуком, графикой, дизайном, а так же множество плагинов и инструментов к ним с подробной инструкцией и рекомендациями. Прошивки для навигаторов, карты. Разнообразные игры, для Windows, Linux. В коллекцие есть и старые игры любых жанров, Rpg, Action, Shooter, strategy Множество дополнений, модификаций, сценариев для популярных игр в жанре экш, рпг, гонки, стратегии, логические игры. Множество аддонов и сценариев для Microsoft Flight Simulator Большая коллекция книг, учебников. Если нет возможности купить печатное издание - смело скачивайте цифровую версию книги или, быть может, журнала. Не любите читать - можно загрузить бесплатно аудикнигу. Для веб дизайнеров и программистов так же найдется множество специализированного софта, таких как: редакторы с подсветкой, среды программирования, компоненты, системы управления базами данных, разнообразные скрипты и шаблоны. Не так давно у нас появился материал для автолюбителей и владельцев мото - оригинальные и неоригинальные каталоги запчастей, книги и журналы по ремонту и обслуживанию, видеоуроки, статьи по чип тюнингу, прошивкам. Процедура получения контента элементарная, достаточно просто скачать торрент файл и добавить его в загрузку в вашем торрент клиенте. Если у вас нет специального торрент клиента, вы можете его скачать у нас.