(Rock\'n\'Roll) [CD] The Everly Brothers - 29 Golden Greats: Live - 2001 (2CD), FLAC (tracks+.cue), lossless 

Цитировать
The Everly Brothers / 29 Golden Greats: Live (2CD)
Жанр: Rock'n'Roll
Носитель: CD
Страна-производитель диска (релиза): Israel
Год издания: 2001
Издатель (лейбл): Prism Leisure
Номер по каталогу: PLATBX 2221
Страна исполнителя (группы): US
Аудиокодек: FLAC (*.flac)
Тип рипа: tracks+.cue
Битрейт аудио: lossless
Продолжительность: 01:43:08
Источник (релизер): Demonoid
Наличие сканов в содержимом раздачи: да
Треклист:

CD1 (00:52:03)

1. The Price Of Love
2. Walk Right Back
3. Claudette
4. Crying In The Rain
5. Love Is Strange
6. Medley
7. When Will I Be Loved
8. Bird Dog
9. Medley
10. For The Love Of Barbara Allen
11. Lightning Express
12. Put My Little Shoes On
13. Long Time Gone
14. Down In The Willow Garden
15. Step It Up And Go

Лог создания рипа

Exact Audio Copy V1.0 beta 3 from 29. August 2011
EAC extraction logfile from 8. June 2014, 15:14
Everly Brothers / 29 Golden Greats CD01 Love Ballads
Used drive : HL-DT-STDVDRAM GSA-T50L Adapter: 1 ID: 0
Read mode : Burst
Read offset correction : 667Overread into Lead-In and Lead-Out : NoFill up missing offset samples with silence : YesDelete leading and trailing silent blocks : NoNull samples used in CRC calculations : YesUsed interface : Native Win32 interface for Win NT & 2000Gap handling : Appended to previous track
Used output format : User Defined EncoderSelected bitrate : 1024 kBit/sQuality : HighAdd ID3 tag : NoCommand line compressor : C:\Program Files\Exact Audio Copy\Flac\flac.exeAdditional command line options : -8 -V -T "ARTIST=%artist%" -T "TITLE=%title%" -T "ALBUM=%albumtitle%" -T "DATE=%year%" -T "TRACKNUMBER=%tracknr%" -T "GENRE=%genre%" -T "PERFORMER=%albuminterpret%" -T "COMPOSER=%composer%" %haslyrics%--tag-from-file=LYRICS="%lyricsfile%"%haslyrics% -T "ALBUMARTIST=%albumartist%" -T "DISCNUMBER=%cdnumber%" -T "TOTALDISCS=%totalcds%" -T "TOTALTRACKS=%numtracks%" -T "COMMENT=%comment%" %source% -o %dest%
TOC of the extracted CD
Track | Start | Length | Start sector | End sector --------------------------------------------------------- 1 | 0:00.32 | 4:22.48 | 32 | 19729 2 | 4:23.05 | 3:50.35 | 19730 | 37014 3 | 8:13.40 | 2:40.20 | 37015 | 49034 4 | 10:53.60 | 3:58.65 | 49035 | 66949 5 | 14:52.50 | 4:36.65 | 66950 | 87714 6 | 19:29.40 | 6:50.27 | 87715 | 118491 7 | 26:19.67 | 3:33.70 | 118492 | 134536 8 | 29:53.62 | 2:54.55 | 134537 | 147641 9 | 32:48.42 | 6:14.00 | 147642 | 175691 10 | 39:02.42 | 1:58.45 | 175692 | 184586 11 | 41:01.12 | 1:52.00 | 184587 | 192986 12 | 42:53.12 | 2:16.50 | 192987 | 203236 13 | 45:09.62 | 2:21.60 | 203237 | 213871 14 | 47:31.47 | 3:26.53 | 213872 | 229374 15 | 50:58.25 | 1:13.62 | 229375 | 234911
Track 1
Filename C:\FLAC\01 The Price of Love.wav
Pre-gap length 0:00:02.42
Timing problem 0:01:06
Peak level 95.3 % Extraction speed 9.3 X Test CRC 54F5C429 Copy CRC 54F5C429 Accurately ripped (confidence 1) [C2934913] (AR v2) Copy finished
Track 2
Filename C:\FLAC\02 Walk Right Back.wav
Peak level 52.9 % Extraction speed 10.5 X Test CRC D9650A95 Copy CRC D9650A95 Accurately ripped (confidence 1) [D89ECE3B] (AR v2) Copy OK
Track 3
Filename C:\FLAC\03 Claudette.wav
Peak level 90.1 % Extraction speed 11.3 X Test CRC C647D29E Copy CRC C647D29E Accurately ripped (confidence 1) [F40C4921] (AR v2) Copy OK
Track 4
Filename C:\FLAC\04 Crying In The Rain.wav
Peak level 47.1 % Extraction speed 12.1 X Test CRC 51BC5E7A Copy CRC 51BC5E7A Accurately ripped (confidence 1) [A0A23955] (AR v2) Copy OK
Track 5
Filename C:\FLAC\05 Love Is Strange.wav
Peak level 100.0 % Extraction speed 12.9 X Test CRC BEA11C5B Copy CRC BEA11C5B Accurately ripped (confidence 1) [1DD1D07F] (AR v2) Copy OK
Track 6
Filename C:\FLAC\06 Medley (Take A) Message To Mary - Maybe Tomorrow - I Wonder If I Care As Much.wav
Pre-gap length 0:00:00.66
Peak level 75.7 % Extraction speed 14.2 X Test CRC 02CAD031 Copy CRC 02CAD031 Accurately ripped (confidence 1) [2EDC29E4] (AR v2) Copy OK
Track 7
Filename C:\FLAC\07 When WillI Be Loved.wav
Peak level 74.8 % Extraction speed 15.1 X Test CRC D07EE26D Copy CRC D07EE26D Accurately ripped (confidence 1) [E0EF40F2] (AR v2) Copy OK
Track 8
Filename C:\FLAC\08 Bitd Dog.wav
Peak level 74.6 % Extraction speed 15.6 X Test CRC B864A98B Copy CRC B864A98B Accurately ripped (confidence 1) [5458C432] (AR v2) Copy OK
Track 9
Filename C:\FLAC\09 Medley - Devoted To You - Ebony Eyes - Love Hurts.wav
Peak level 60.8 % Extraction speed 16.5 X Test CRC 069AD3BD Copy CRC 069AD3BD Accurately ripped (confidence 1) [72868A3B] (AR v2) Copy OK
Track 10
Filename C:\FLAC\10 For The Love Of Barbara Allen.wav
Pre-gap length 0:00:00.02
Peak level 30.3 % Extraction speed 17.0 X Test CRC 46A8BBAF Copy CRC 46A8BBAF Accurately ripped (confidence 1) [96AC2CE4] (AR v2) Copy OK
Track 11
Filename C:\FLAC\11 Lightening Express.wav
Peak level 30.7 % Extraction speed 17.3 X Test CRC C0D66013 Copy CRC C0D66013 Accurately ripped (confidence 1) [1E060FD5] (AR v2) Copy OK
Track 12
Filename C:\FLAC\12 Put My Little Shoes Away.wav
Peak level 22.6 % Extraction speed 17.7 X Test CRC DBB901CF Copy CRC DBB901CF Accurately ripped (confidence 1) [2488D9AC] (AR v2) Copy OK
Track 13
Filename C:\FLAC\13 Long Time Gone.wav
Peak level 33.8 % Extraction speed 18.0 X Test CRC 027AEA17 Copy CRC 027AEA17 Accurately ripped (confidence 1) [3ECBF305] (AR v2) Copy OK
Track 14
Filename C:\FLAC\14 Down In The Willow Garden.wav
Peak level 38.9 % Extraction speed 18.5 X Test CRC 153C9694 Copy CRC 153C9694 Accurately ripped (confidence 1) [4CCA1E81] (AR v2) Copy OK
Track 15
Filename C:\FLAC\15 Step It Up And Go.wav
Peak level 42.6 % Extraction speed 18.6 X Test CRC 04E76D0D Copy CRC 04E76D0D Accurately ripped (confidence 1) [648AABAB] (AR v2) Copy OK
All tracks accurately ripped
No errors occurred
End of status report
==== Log checksum 58B73B4D8F740DB98E7699F65E432B578C2787A90D3B139225F544178D3AC0C4 ====
------------------------------------------------------------
Exact Audio Copy V1.0 beta 3 from 29. August 2011
EAC extraction logfile from 8. June 2014, 15:14
Everly Brothers / 29 Golden Greats CD01 Love Ballads
Used drive : HL-DT-STDVDRAM GSA-T50L Adapter: 1 ID: 0
Read mode : Burst
Read offset correction : 667Overread into Lead-In and Lead-Out : NoFill up missing offset samples with silence : YesDelete leading and trailing silent blocks : NoNull samples used in CRC calculations : YesUsed interface : Native Win32 interface for Win NT & 2000Gap handling : Appended to previous track
Used output format : User Defined EncoderSelected bitrate : 1024 kBit/sQuality : HighAdd ID3 tag : NoCommand line compressor : C:\Program Files\Exact Audio Copy\Flac\flac.exeAdditional command line options : -8 -V -T "ARTIST=%artist%" -T "TITLE=%title%" -T "ALBUM=%albumtitle%" -T "DATE=%year%" -T "TRACKNUMBER=%tracknr%" -T "GENRE=%genre%" -T "PERFORMER=%albuminterpret%" -T "COMPOSER=%composer%" %haslyrics%--tag-from-file=LYRICS="%lyricsfile%"%haslyrics% -T "ALBUMARTIST=%albumartist%" -T "DISCNUMBER=%cdnumber%" -T "TOTALDISCS=%totalcds%" -T "TOTALTRACKS=%numtracks%" -T "COMMENT=%comment%" %source% -o %dest%
TOC of the extracted CD
Track | Start | Length | Start sector | End sector --------------------------------------------------------- 1 | 0:00.32 | 4:22.48 | 32 | 19729 2 | 4:23.05 | 3:50.35 | 19730 | 37014 3 | 8:13.40 | 2:40.20 | 37015 | 49034 4 | 10:53.60 | 3:58.65 | 49035 | 66949 5 | 14:52.50 | 4:36.65 | 66950 | 87714 6 | 19:29.40 | 6:50.27 | 87715 | 118491 7 | 26:19.67 | 3:33.70 | 118492 | 134536 8 | 29:53.62 | 2:54.55 | 134537 | 147641 9 | 32:48.42 | 6:14.00 | 147642 | 175691 10 | 39:02.42 | 1:58.45 | 175692 | 184586 11 | 41:01.12 | 1:52.00 | 184587 | 192986 12 | 42:53.12 | 2:16.50 | 192987 | 203236 13 | 45:09.62 | 2:21.60 | 203237 | 213871 14 | 47:31.47 | 3:26.53 | 213872 | 229374 15 | 50:58.25 | 1:13.62 | 229375 | 234911
Track 1
Filename C:\FLAC\01 The Price of Love.wav
Pre-gap length 0:00:02.42
Timing problem 0:01:06
Peak level 95.3 % Extraction speed 9.3 X Test CRC 54F5C429 Copy CRC 54F5C429 Accurately ripped (confidence 1) [C2934913] (AR v2) Copy finished
Track 2
Filename C:\FLAC\02 Walk Right Back.wav
Peak level 52.9 % Extraction speed 10.5 X Test CRC D9650A95 Copy CRC D9650A95 Accurately ripped (confidence 1) [D89ECE3B] (AR v2) Copy OK
Track 3
Filename C:\FLAC\03 Claudette.wav
Peak level 90.1 % Extraction speed 11.3 X Test CRC C647D29E Copy CRC C647D29E Accurately ripped (confidence 1) [F40C4921] (AR v2) Copy OK
Track 4
Filename C:\FLAC\04 Crying In The Rain.wav
Peak level 47.1 % Extraction speed 12.1 X Test CRC 51BC5E7A Copy CRC 51BC5E7A Accurately ripped (confidence 1) [A0A23955] (AR v2) Copy OK
Track 5
Filename C:\FLAC\05 Love Is Strange.wav
Peak level 100.0 % Extraction speed 12.9 X Test CRC BEA11C5B Copy CRC BEA11C5B Accurately ripped (confidence 1) [1DD1D07F] (AR v2) Copy OK
Track 6
Filename C:\FLAC\06 Medley (Take A) Message To Mary - Maybe Tomorrow - I Wonder If I Care As Much.wav
Pre-gap length 0:00:00.66
Peak level 75.7 % Extraction speed 14.2 X Test CRC 02CAD031 Copy CRC 02CAD031 Accurately ripped (confidence 1) [2EDC29E4] (AR v2) Copy OK
Track 7
Filename C:\FLAC\07 When WillI Be Loved.wav
Peak level 74.8 % Extraction speed 15.1 X Test CRC D07EE26D Copy CRC D07EE26D Accurately ripped (confidence 1) [E0EF40F2] (AR v2) Copy OK
Track 8
Filename C:\FLAC\08 Bitd Dog.wav
Peak level 74.6 % Extraction speed 15.6 X Test CRC B864A98B Copy CRC B864A98B Accurately ripped (confidence 1) [5458C432] (AR v2) Copy OK
Track 9
Filename C:\FLAC\09 Medley - Devoted To You - Ebony Eyes - Love Hurts.wav
Peak level 60.8 % Extraction speed 16.5 X Test CRC 069AD3BD Copy CRC 069AD3BD Accurately ripped (confidence 1) [72868A3B] (AR v2) Copy OK
Track 10
Filename C:\FLAC\10 For The Love Of Barbara Allen.wav
Pre-gap length 0:00:00.02
Peak level 30.3 % Extraction speed 17.0 X Test CRC 46A8BBAF Copy CRC 46A8BBAF Accurately ripped (confidence 1) [96AC2CE4] (AR v2) Copy OK
Track 11
Filename C:\FLAC\11 Lightening Express.wav
Peak level 30.7 % Extraction speed 17.3 X Test CRC C0D66013 Copy CRC C0D66013 Accurately ripped (confidence 1) [1E060FD5] (AR v2) Copy OK
Track 12
Filename C:\FLAC\12 Put My Little Shoes Away.wav
Peak level 22.6 % Extraction speed 17.7 X Test CRC DBB901CF Copy CRC DBB901CF Accurately ripped (confidence 1) [2488D9AC] (AR v2) Copy OK
Track 13
Filename C:\FLAC\13 Long Time Gone.wav
Peak level 33.8 % Extraction speed 18.0 X Test CRC 027AEA17 Copy CRC 027AEA17 Accurately ripped (confidence 1) [3ECBF305] (AR v2) Copy OK
Track 14
Filename C:\FLAC\14 Down In The Willow Garden.wav
Peak level 38.9 % Extraction speed 18.5 X Test CRC 153C9694 Copy CRC 153C9694 Accurately ripped (confidence 1) [4CCA1E81] (AR v2) Copy OK
Track 15
Filename C:\FLAC\15 Step It Up And Go.wav
Peak level 42.6 % Extraction speed 18.6 X Test CRC 04E76D0D Copy CRC 04E76D0D Accurately ripped (confidence 1) [648AABAB] (AR v2) Copy OK
All tracks accurately ripped
No errors occurred
End of status report
==== Log checksum 58B73B4D8F740DB98E7699F65E432B578C2787A90D3B139225F544178D3AC0C4 ====

Содержание индексной карты (.CUE)

REM GENRE "Easy Listening"REM DATE 2001REM DISCID DB0C3C0FREM COMMENT "ExactAudioCopy v1.0b3"PERFORMER "Everly Brothers"TITLE "29 Golden Greats CD01 Love Ballads"FILE "01 The Price of Love.wav" WAVE  TRACK 01 AUDIO    TITLE "The Price of Love"    PERFORMER "Everly Brothers"    PREGAP 00:00:32    INDEX 01 00:00:00FILE "02 Walk Right Back.wav" WAVE  TRACK 02 AUDIO    TITLE "Walk Right Back"    PERFORMER "Everly Brothers"    INDEX 01 00:00:00FILE "03 Claudette.wav" WAVE  TRACK 03 AUDIO    TITLE "Claudette"    PERFORMER "Everly Brothers"    INDEX 01 00:00:00FILE "04 Crying In The Rain.wav" WAVE  TRACK 04 AUDIO    TITLE "Crying In The Rain"    PERFORMER "Everly Brothers"    INDEX 01 00:00:00FILE "05 Love Is Strange.wav" WAVE  TRACK 05 AUDIO    TITLE "Love Is Strange"    PERFORMER "Everly Brothers"    INDEX 01 00:00:00  TRACK 06 AUDIO    TITLE "Medley (Take A) Message To Mary -  Maybe Tomorrow - I Wonder If I Care As Much"    PERFORMER "Everly Brothers"    INDEX 00 04:36:15FILE "06 Medley (Take A) Message To Mary -  Maybe Tomorrow - I Wonder If I Care As Much.wav" WAVE    INDEX 01 00:00:00FILE "07 When WillI Be Loved.wav" WAVE  TRACK 07 AUDIO    TITLE "When WillI Be Loved"    PERFORMER "Everly Brothers"    INDEX 01 00:00:00FILE "08 Bitd Dog.wav" WAVE  TRACK 08 AUDIO    TITLE "Bitd Dog"    PERFORMER "Everly Brothers"    INDEX 01 00:00:00FILE "09 Medley - Devoted To You - Ebony Eyes - Love Hurts.wav" WAVE  TRACK 09 AUDIO    TITLE "Medley - Devoted To You - Ebony Eyes - Love Hurts"    PERFORMER "Everly Brothers"    INDEX 01 00:00:00  TRACK 10 AUDIO    TITLE "For The Love Of Barbara Allen"    PERFORMER "Everly Brothers"    INDEX 00 06:13:73FILE "10 For The Love Of Barbara Allen.wav" WAVE    INDEX 01 00:00:00FILE "11 Lightening Express.wav" WAVE  TRACK 11 AUDIO    TITLE "Lightening Express"    PERFORMER "Everly Brothers"    INDEX 01 00:00:00FILE "12 Put My Little Shoes Away.wav" WAVE  TRACK 12 AUDIO    TITLE "Put My Little Shoes Away"    PERFORMER "Everly Brothers"    INDEX 01 00:00:00FILE "13 Long Time Gone.wav" WAVE  TRACK 13 AUDIO    TITLE "Long Time Gone"    PERFORMER "Everly Brothers"    INDEX 01 00:00:00FILE "14 Down In The Willow Garden.wav" WAVE  TRACK 14 AUDIO    TITLE "Down In The Willow Garden"    PERFORMER "Everly Brothers"    INDEX 01 00:00:00FILE "15 Step It Up And Go.wav" WAVE  TRACK 15 AUDIO    TITLE "Step It Up And Go"    PERFORMER "Everly Brothers"    INDEX 01 00:00:00

CD2 (00:51:05)

1. Cathys Clown
2. Gone Gone Gone
3. You Send Me
4. So Sad (To Watch Good Love Go Bad)
5. Baby What You Want Me To Do
6. Bye Bye Love
7. All I Have To Do Is Dream
8. Wake Up Little Susie
9. (Till) I Kissed You
10. Temptation
11. Be Bop A Lula
12. Lucille
13. Let It Be Me
14. Good Golly Miss Molly

Лог создания рипа

Exact Audio Copy V1.0 beta 3 from 29. August 2011
EAC extraction logfile from 8. June 2014, 15:50
Everly Brothers / 29 Golden Greats CD02 Rock Ballads
Used drive : HL-DT-STDVDRAM GSA-T50L Adapter: 1 ID: 0
Read mode : Burst
Read offset correction : 667Overread into Lead-In and Lead-Out : NoFill up missing offset samples with silence : YesDelete leading and trailing silent blocks : NoNull samples used in CRC calculations : YesUsed interface : Native Win32 interface for Win NT & 2000Gap handling : Appended to previous track
Used output format : User Defined EncoderSelected bitrate : 1024 kBit/sQuality : HighAdd ID3 tag : NoCommand line compressor : C:\Program Files\Exact Audio Copy\Flac\flac.exeAdditional command line options : -8 -V -T "ARTIST=%artist%" -T "TITLE=%title%" -T "ALBUM=%albumtitle%" -T "DATE=%year%" -T "TRACKNUMBER=%tracknr%" -T "GENRE=%genre%" -T "PERFORMER=%albuminterpret%" -T "COMPOSER=%composer%" %haslyrics%--tag-from-file=LYRICS="%lyricsfile%"%haslyrics% -T "ALBUMARTIST=%albumartist%" -T "DISCNUMBER=%cdnumber%" -T "TOTALDISCS=%totalcds%" -T "TOTALTRACKS=%numtracks%" -T "COMMENT=%comment%" %source% -o %dest%
TOC of the extracted CD
Track | Start | Length | Start sector | End sector --------------------------------------------------------- 1 | 0:00.32 | 2:44.38 | 32 | 12369 2 | 2:44.70 | 3:00.72 | 12370 | 25941 3 | 5:45.67 | 4:29.20 | 25942 | 46136 4 | 10:15.12 | 3:30.33 | 46137 | 61919 5 | 13:45.45 | 5:25.37 | 61920 | 86331 6 | 19:11.07 | 3:10.63 | 86332 | 100644 7 | 22:21.70 | 3:28.45 | 100645 | 116289 8 | 25:50.40 | 2:35.30 | 116290 | 127944 9 | 28:25.70 | 3:02.55 | 127945 | 141649 10 | 31:28.50 | 3:17.15 | 141650 | 156439 11 | 34:45.65 | 3:36.72 | 156440 | 172711 12 | 38:22.62 | 4:58.05 | 172712 | 195066 13 | 43:20.67 | 4:14.53 | 195067 | 214169 14 | 47:35.45 | 3:37.10 | 214170 | 230454
Track 1
Filename C:\FLAC\01 Cathy's Clown.wav
Pre-gap length 0:00:02.42
Peak level 89.1 % Extraction speed 9.1 X Test CRC 3DC43D3F Copy CRC 3DC43D3F Cannot be verified as accurate (confidence 1) [403BD31D], AccurateRip returned [DBC80CE9] (AR v2) Copy OK
Track 2
Filename C:\FLAC\02 Gone Gone Gone.wav
Peak level 89.1 % Extraction speed 9.9 X Test CRC 6FB2D098 Copy CRC 6FB2D098 Cannot be verified as accurate (confidence 1) [316C8B0C], AccurateRip returned [7E49C2DE] (AR v2) Copy OK
Track 3
Filename C:\FLAC\03 You Send Me.wav
Peak level 59.7 % Extraction speed 10.9 X Test CRC E8C9B416 Copy CRC E8C9B416 Cannot be verified as accurate (confidence 1) [8415D289], AccurateRip returned [51E41C12] (AR v2) Copy OK
Track 4
Filename C:\FLAC\04 So Sad (To Watch Good Love Go Bad).wav
Peak level 31.3 % Extraction speed 11.8 X Test CRC DD529018 Copy CRC DD529018 Cannot be verified as accurate (confidence 1) [D5BAA251], AccurateRip returned [4B79AE5E] (AR v2) Copy OK
Track 5
Filename C:\FLAC\05 Baby What Do You Want Me To Do.wav
Peak level 89.1 % Extraction speed 12.9 X Test CRC 94A04704 Copy CRC 94A04704 Cannot be verified as accurate (confidence 1) [01A43630], AccurateRip returned [CF9EFB83] (AR v2) Copy OK
Track 6
Filename C:\FLAC\06 Bye Bye Love.wav
Pre-gap length 0:00:00.40
Peak level 64.7 % Extraction speed 13.7 X Test CRC 91ED1329 Copy CRC 91ED1329 Cannot be verified as accurate (confidence 1) [60661FD5], AccurateRip returned [E56578C0] (AR v2) Copy OK
Track 7
Filename C:\FLAC\07 All I Have To Do Is Dream.wav
Peak level 47.1 % Extraction speed 14.4 X Test CRC E5A7CE28 Copy CRC E5A7CE28 Cannot be verified as accurate (confidence 1) [BBCA4384], AccurateRip returned [F7854D11] (AR v2) Copy OK
Track 8
Filename C:\FLAC\08 Wake Up Little Susie.wav
Peak level 72.4 % Extraction speed 14.9 X Test CRC 8A61E9A9 Copy CRC 8A61E9A9 Cannot be verified as accurate (confidence 1) [9102446C], AccurateRip returned [23331C7F] (AR v2) Copy OK
Track 9
Filename C:\FLAC\09 I Kissed You.wav
Pre-gap length 0:00:00.53
Peak level 85.9 % Extraction speed 15.3 X Test CRC 67C95BC4 Copy CRC 67C95BC4 Cannot be verified as accurate (confidence 1) [F53B21EC], AccurateRip returned [AEB92183] (AR v2) Copy OK
Track 10
Filename C:\FLAC\10 Temptation.wav
Peak level 89.1 % Extraction speed 16.0 X Test CRC C1FE85A6 Copy CRC C1FE85A6 Cannot be verified as accurate (confidence 1) [B9779EC9], AccurateRip returned [283A13FB] (AR v2) Copy OK
Track 11
Filename C:\FLAC\11 Be-Bop-A-Lula.wav
Pre-gap length 0:00:00.20
Peak level 57.3 % Extraction speed 16.5 X Test CRC F8608BD0 Copy CRC F8608BD0 Cannot be verified as accurate (confidence 1) [B1889646], AccurateRip returned [AD50B11F] (AR v2) Copy OK
Track 12
Filename C:\FLAC\12 Lucille.wav
Peak level 89.1 % Extraction speed 17.3 X Test CRC BAD735A9 Copy CRC BAD735A9 Cannot be verified as accurate (confidence 1) [9FBFE76A], AccurateRip returned [5FD45DBF] (AR v2) Copy OK
Track 13
Filename C:\FLAC\13 Let It Be Me.wav
Peak level 28.4 % Extraction speed 18.0 X Test CRC 1756DC25 Copy CRC 1756DC25 Cannot be verified as accurate (confidence 1) [BA887D84], AccurateRip returned [E17E7820] (AR v2) Copy OK
Track 14
Filename C:\FLAC\14 Good Golly Miss Molly.wav
Peak level 89.1 % Extraction speed 18.5 X Test CRC FAB73C4A Copy CRC FAB73C4A Cannot be verified as accurate (confidence 1) [ACC8FBB1], AccurateRip returned [D0A0B678] (AR v2) Copy OK
No tracks could be verified as accurateYou may have a different pressing from the one(s) in the database
No errors occurred
End of status report
==== Log checksum 254E2D9FE230CC919BE311A65B6DFB7AA4FAF9B68D4065CB6F8FA1E92A516765 ====

Содержание индексной карты (.CUE)

REM GENRE "Rock & Roll"REM DATE 1983REM DISCID B90C000EREM COMMENT "ExactAudioCopy v1.0b3"PERFORMER "Everly Brothers"TITLE "29 Golden Greats CD02 Rock Ballads"FILE "01 Cathy's Clown.wav" WAVE  TRACK 01 AUDIO    TITLE "Cathy's Clown"    PERFORMER "Everly Brothers"    PREGAP 00:00:32    INDEX 01 00:00:00FILE "02 Gone Gone Gone.wav" WAVE  TRACK 02 AUDIO    TITLE "Gone Gone Gone"    PERFORMER "Everly Brothers"    INDEX 01 00:00:00FILE "03 You Send Me.wav" WAVE  TRACK 03 AUDIO    TITLE "You Send Me"    PERFORMER "Everly Brothers"    INDEX 01 00:00:00FILE "04 So Sad (To Watch Good Love Go Bad).wav" WAVE  TRACK 04 AUDIO    TITLE "So Sad (To Watch Good Love Go Bad)"    PERFORMER "Everly Brothers"    INDEX 01 00:00:00FILE "05 Baby What Do You Want Me To Do.wav" WAVE  TRACK 05 AUDIO    TITLE "Baby What Do You Want Me To Do"    PERFORMER "Everly Brothers"    INDEX 01 00:00:00  TRACK 06 AUDIO    TITLE "Bye Bye Love"    PERFORMER "Everly Brothers"    INDEX 00 05:25:07FILE "06 Bye Bye Love.wav" WAVE    INDEX 01 00:00:00FILE "07 All I Have To Do Is Dream.wav" WAVE  TRACK 07 AUDIO    TITLE "All I Have To Do Is Dream"    PERFORMER "Everly Brothers"    INDEX 01 00:00:00FILE "08 Wake Up Little Susie.wav" WAVE  TRACK 08 AUDIO    TITLE "Wake Up Little Susie"    PERFORMER "Everly Brothers"    INDEX 01 00:00:00  TRACK 09 AUDIO    TITLE "I Kissed You"    PERFORMER "Everly Brothers"    INDEX 00 02:34:65FILE "09 I Kissed You.wav" WAVE    INDEX 01 00:00:00FILE "10 Temptation.wav" WAVE  TRACK 10 AUDIO    TITLE "Temptation"    PERFORMER "Everly Brothers"    INDEX 01 00:00:00  TRACK 11 AUDIO    TITLE "Be-Bop-A-Lula"    PERFORMER "Everly Brothers"    INDEX 00 03:17:00FILE "11 Be-Bop-A-Lula.wav" WAVE    INDEX 01 00:00:00FILE "12 Lucille.wav" WAVE  TRACK 12 AUDIO    TITLE "Lucille"    PERFORMER "Everly Brothers"    INDEX 01 00:00:00FILE "13 Let It Be Me.wav" WAVE  TRACK 13 AUDIO    TITLE "Let It Be Me"    PERFORMER "Everly Brothers"    INDEX 01 00:00:00FILE "14 Good Golly Miss Molly.wav" WAVE  TRACK 14 AUDIO    TITLE "Good Golly Miss Molly"    PERFORMER "Everly Brothers"    INDEX 01 00:00:00
Вы не можете начинать темы
Вы не можете отвечать на сообщения
Вы не можете редактировать свои сообщения
Вы не можете удалять свои сообщения
Вы не можете голосовать в опросах
Вы не можете прикреплять файлы к сообщениям
Вы можете скачивать файлы
!ВНИМАНИЕ!

Сайт не предоставляет электронные версии произведений, а занимается лишь коллекционированием и каталогизацией ссылок, присылаемых и публикуемых на форуме нашими читателями. Если вы являетесь правообладателем какого-либо представленного материала и не желаете, чтобы ссылка на него находилась в нашем каталоге, свяжитесь с нами, и мы незамедлительно удалим ее. Файлы для обмена на трекере предоставлены пользователями сайта, и администрация не несет ответственности за их содержание. Просьба не заливать файлы, защищенные авторскими правами, а также файлы нелегального содержания!

Искали программы, игры, дополнения, музыка mp3, аниме, аудио книги, журналы? Добро пожаловать на свободный торрент трекер Torrents, у нас можно скачать бесплатно, без смс и регистрации и прочих ограничений лучшие, отборные сборки программ, игр. Скачать торрентом не составит труда даже не опытному пользователю. Раздачи ежедневно обновляются, только лучшие и качественные раздачи, подробные описания и скриншоты. Огромная коллекция программ для работы со звуком, графикой, дизайном, а так же множество плагинов и инструментов к ним с подробной инструкцией и рекомендациями. Прошивки для навигаторов, карты. Разнообразные игры, для Windows, Linux. В коллекцие есть и старые игры любых жанров, Rpg, Action, Shooter, strategy Множество дополнений, модификаций, сценариев для популярных игр в жанре экш, рпг, гонки, стратегии, логические игры. Множество аддонов и сценариев для Microsoft Flight Simulator Большая коллекция книг, учебников. Если нет возможности купить печатное издание - смело скачивайте цифровую версию книги или, быть может, журнала. Не любите читать - можно загрузить бесплатно аудикнигу. Для веб дизайнеров и программистов так же найдется множество специализированного софта, таких как: редакторы с подсветкой, среды программирования, компоненты, системы управления базами данных, разнообразные скрипты и шаблоны. Не так давно у нас появился материал для автолюбителей и владельцев мото - оригинальные и неоригинальные каталоги запчастей, книги и журналы по ремонту и обслуживанию, видеоуроки, статьи по чип тюнингу, прошивкам. Процедура получения контента элементарная, достаточно просто скачать торрент файл и добавить его в загрузку в вашем торрент клиенте. Если у вас нет специального торрент клиента, вы можете его скачать у нас.

Höchster Preis | Vampire Cleanup Department | La Chute de Sparte