(Rock, Blues, Pop, Rock & Roll) [CD] Elvis Presley - The Searcher (The Original Soundtrack) - 2018 (3CD Deluxe Edition), FLAC (image+.cue), lossless 

Цитировать
Elvis Presley / The Searcher (The Original Soundtrack)
Жанр: Rock, Blues, Pop, Rock & Roll
Носитель: CD
Страна-производитель диска (релиза): Germany
Год издания: 2018
Издатель (лейбл): RCA, Legacy, Sony Pictures Television
Номер по каталогу: 19075806732
Страна исполнителя (группы): USA
Аудиокодек: FLAC (*.flac)
Тип рипа: image+.cue
Битрейт аудио: lossless
Продолжительность: 03:27:37
Источник (релизер): London
Наличие сканов в содержимом раздачи: да

CD 1

01. Trouble / Guitar Man (3:26) From the album Elvis (NBC TV Special) LPM-4088, released November 22, 1968
02. My Baby Left Me (2:12) Single 20/47-6540, released May 4, 1956, From the album For LP Fans Only LPM-1990, released January 23, 1959
03. Baby, What You Want Me To Do (3:03) From the 2 CD set Memories 07863 67612-2, released October 13, 1998
04. Old Shep (4:09) From the album ELVIS LPM-1382, released October 19, 1956
05. That's When Your Heartaches Begin (2:48) From the 5-album set The King Of Rock ’N’ Roll - The Complete 50’s Masters 07863 66050-2, released June 23, 1992
06. That’s All Right (1:55) Single SUN 209, released July 1954, From the album For LP Fans Only LPM-1990, released January 23, 1959
07. Blue Moon Of Kentucky (2:02) Single SUN 209, released July 1954, From the album A Date With Elvis LPM-201, released July 24, 1959
08. Fool, Fool, Fool (1:57) From the 5-album set The King Of Rock 'N’ Roll -The Complete 50’s Masters 07863 66050-2, released June 23, 1992
09. Tweedlee Dee (2:44) From the Music Works album Elvis: The First Live Recordings PB-3601, released February 1984
10. Baby Let’s Play House (2:14) Single SUN 217, released April 1955, From the album A Date With Elvis LPM-2011, released July 24, 1959
11. Good Rockin’ Tonight (2:18) Single SUN 210, released September 1954, From the album A Date With Elvis LPM-2011, released July 24, 1959
12. Trying To Get To You (2:30) From the album Elvis Presley LPM-1254, released March 31,1956 Single 20/47-6639, released August 31,1956
13. Blue Moon (2:42) From the album Elvis Presley LPM-1254, released March 23, 1956, Single 20/47-6640, released August 31,1956
14. When It Rains It Pours (2:00) From the album Elvis: A Legendary Performer Volume 4 CPLI-4848, released November 1983
15. The Valley (For Me) (2:50) From the album Elvis (NBC TV Special) LPM-4088, released November 22, 1968
16. Heartbreak Hotel (2:07) Single 20/47-6420, released January 27, 1956, From the album Elvis’ Golden Records LPM-1707,released March 21,1958, From the EP Heartbreak Hotel ЕРА-821, released April 20, 1956
17. Lawdy, Miss Clawdy (2:07) From the EP Elvis Presley EPA-830, released June 8, 1956, From the album For LP Fans Only LPM-1990, released January 23, 1959
18. Money Honey (2:35) Single 20/47-6641, released August 31, 1956, From the album Elvis Presley LPM-1254, released March 23, 1956 From the EP Heartbreak Hotel ЕРА-821, released April 20, 1956
19. Hound Dog (2:16) Single 20/47-6604, released July 13, 1956 From the album Elvis’ Golden Records LPM-1707, released March 21,1958 From the EP The Real Elvis EPA-965, released August 17, 1956
20. (There’ll Be) Peace In The Valley (For Me) (3:24) From the EP Peace In The Valley EPA-4054, released April 1957
21. Crawfish (1:49) From the EP King Creole Vol. 2 EPA-4321, released July 29, 1958 From the album King Creole LPM-1884, released September 19, 1958
22. Trouble (2:16) From the EP King Creole Vol. 2 EPA-4321, released July 29, 1958 From the album King Creole LPM-1884, released September 19, 1958
23. Farther Along (4:06) From the album How Great Thou Art LSP/LPM-3758, released February 1967
24. Mona Lisa (2:30) From the album Elvis: A Legendary Performer Volume 4 CPU-4848, released November 1983
25. Hide Thou Me (1:04) From the FTD album In A Private Moment 74321 -72666-2, released January 2000
26. Loving You (end title take 16) (2:16) From the FTD album Loving You 82876 77057-2, released January 2006
27. Lonely Man (solo version) (2:01) From the 3 CD set Collectors Gold 3113-2-R, released August 13, 1991
28. Power Of My Love (2:41) From the album From Elvis In Memphis LSP-4155, released June 17, 1969

Лог создания рипа

Exact Audio Copy V1.0 beta 6 from 9. April 2015
EAC extraction logfile from 21. June 2018, 20:56
Elvis Presley / The Searcher (The Original Soundtrack) Disc 1
Used drive : ATAPI iHAS122 C Adapter: 1 ID: 0
Read mode : SecureUtilize accurate stream : YesDefeat audio cache : YesMake use of C2 pointers : No
Read offset correction : 6Overread into Lead-In and Lead-Out : NoFill up missing offset samples with silence : YesDelete leading and trailing silent blocks : NoNull samples used in CRC calculations : YesUsed interface : Native Win32 interface for Win NT & 2000
Used output format : Internal WAV RoutinesSample format : 44.100 Hz; 16 Bit; Stereo
TOC of the extracted CD
Track | Start | Length | Start sector | End sector --------------------------------------------------------- 1 | 0:00.00 | 3:27.40 | 0 | 15564 2 | 3:27.40 | 2:13.18 | 15565 | 25557 3 | 5:40.58 | 3:04.42 | 25558 | 39399 4 | 8:45.25 | 4:10.06 | 39400 | 58155 5 | 12:55.31 | 2:50.01 | 58156 | 70906 6 | 15:45.32 | 1:56.64 | 70907 | 79670 7 | 17:42.21 | 2:03.68 | 79671 | 88963 8 | 19:46.14 | 1:56.27 | 88964 | 97690 9 | 21:42.41 | 2:45.62 | 97691 | 110127 10 | 24:28.28 | 2:16.50 | 110128 | 120377 11 | 26:45.03 | 2:13.25 | 120378 | 130377 12 | 28:58.28 | 2:32.39 | 130378 | 141816 13 | 31:30.67 | 2:43.06 | 141817 | 154047 14 | 34:13.73 | 2:02.48 | 154048 | 163245 15 | 36:16.46 | 2:51.28 | 163246 | 176098 16 | 39:07.74 | 2:08.45 | 176099 | 185743 17 | 41:16.44 | 2:09.35 | 185744 | 195453 18 | 43:26.04 | 2:35.67 | 195454 | 207145 19 | 46:01.71 | 2:17.26 | 207146 | 217446 20 | 48:19.22 | 3:22.66 | 217447 | 232662 21 | 51:42.13 | 1:50.16 | 232663 | 240928 22 | 53:32.29 | 2:18.16 | 240929 | 251294 23 | 55:50.45 | 4:06.04 | 251295 | 269748 24 | 59:56.49 | 2:32.52 | 269749 | 281200 25 | 62:29.26 | 1:06.64 | 281201 | 286214 26 | 63:36.15 | 2:18.50 | 286215 | 296614 27 | 65:54.65 | 2:03.11 | 296615 | 305850 28 | 67:58.01 | 2:38.63 | 305851 | 317763
Range status and errors
Selected range
Filename C:\Users\London\Desktop\Elvis Presley - The Searcher (The Original Soundtrack) Disc 1.wav
Peak level 100.0 % Extraction speed 9.7 X Range quality 100.0 % Test CRC 68761384 Copy CRC 68761384 Copy OK
No errors occurred
End of status report
---- CUETools DB Plugin V2.1.6
[CTDB TOCID: yifPYBH4NtSNUcw70p9v2EYveuo-] foundSubmit result: yifPYBH4NtSNUcw70p9v2EYveuo- has been confirmedTrack | CTDB Status 1 | (17/17) Accurately ripped 2 | (17/17) Accurately ripped 3 | (17/17) Accurately ripped 4 | (17/17) Accurately ripped 5 | (17/17) Accurately ripped 6 | (17/17) Accurately ripped 7 | (17/17) Accurately ripped 8 | (17/17) Accurately ripped 9 | (17/17) Accurately ripped 10 | (17/17) Accurately ripped 11 | (17/17) Accurately ripped 12 | (17/17) Accurately ripped 13 | (17/17) Accurately ripped 14 | (17/17) Accurately ripped 15 | (17/17) Accurately ripped 16 | (17/17) Accurately ripped 17 | (17/17) Accurately ripped 18 | (17/17) Accurately ripped 19 | (17/17) Accurately ripped 20 | (17/17) Accurately ripped 21 | (17/17) Accurately ripped 22 | (17/17) Accurately ripped 23 | (17/17) Accurately ripped 24 | (17/17) Accurately ripped 25 | (17/17) Accurately ripped 26 | (17/17) Accurately ripped 27 | (17/17) Accurately ripped 28 | (17/17) Accurately ripped
==== Log checksum 5D3F2F43E47B5F6242A6B64DCDD8786E3097CAF57FB4D914871D924B51CE6895 ====

Содержание индексной карты (.CUE)

REM GENRE "Rock & Roll"REM DATE 2018REM DISCID 9F108C1CREM COMMENT "ExactAudioCopy v1.0b6"PERFORMER "Elvis Presley"TITLE "The Searcher (The Original Soundtrack) Disc 1"FILE "Elvis Presley - The Searcher (The Original Soundtrack) Disc 1.flac" WAVE  TRACK 01 AUDIO    TITLE "Trouble / Guitar Man [Live]"    PERFORMER "Elvis Presley"    INDEX 01 00:00:00  TRACK 02 AUDIO    TITLE "My Baby Left Me"    PERFORMER "Elvis Presley"    INDEX 00 03:26:27    INDEX 01 03:27:40  TRACK 03 AUDIO    TITLE "Baby, What You Want Me To Do (First 'Stand-Up' Show) [Live]"    PERFORMER "Elvis Presley"    INDEX 00 05:39:65    INDEX 01 05:40:58  TRACK 04 AUDIO    TITLE "Old Shep"    PERFORMER "Elvis Presley"    INDEX 00 08:43:58    INDEX 01 08:45:25  TRACK 05 AUDIO    TITLE "That's When Your Heartaches Begin"    PERFORMER "Elvis Presley"    INDEX 00 12:54:20    INDEX 01 12:55:31  TRACK 06 AUDIO    TITLE "That's All Right"    PERFORMER "Elvis Presley"    INDEX 00 15:44:11    INDEX 01 15:45:32  TRACK 07 AUDIO    TITLE "Blue Moon of Kentucky"    PERFORMER "Elvis Presley"    INDEX 00 17:40:64    INDEX 01 17:42:21  TRACK 08 AUDIO    TITLE "Fool, Fool, Fool"    PERFORMER "Elvis Presley"    INDEX 00 19:44:64    INDEX 01 19:46:14  TRACK 09 AUDIO    TITLE "Tweedlee Dee [Live]"    PERFORMER "Elvis Presley"    INDEX 00 21:41:08    INDEX 01 21:42:41  TRACK 10 AUDIO    TITLE "Baby, Let's Play House"    PERFORMER "Elvis Presley"    INDEX 00 24:26:46    INDEX 01 24:28:28  TRACK 11 AUDIO    TITLE "Good Rockin' Tonight"    PERFORMER "Elvis Presley"    INDEX 00 26:43:30    INDEX 01 26:45:03  TRACK 12 AUDIO    TITLE "Trying to Get to You"    PERFORMER "Elvis Presley"    INDEX 00 28:56:46    INDEX 01 28:58:28  TRACK 13 AUDIO    TITLE "Blue Moon [Take 9/M]"    PERFORMER "Elvis Presley"    INDEX 00 31:29:07    INDEX 01 31:30:67  TRACK 14 AUDIO    TITLE "When It Rains, It Really Pours"    PERFORMER "Elvis Presley"    INDEX 00 34:13:04    INDEX 01 34:13:73  TRACK 15 AUDIO    TITLE "Blue Christmas [Live]"    PERFORMER "Elvis Presley"    INDEX 00 36:14:48    INDEX 01 36:16:46  TRACK 16 AUDIO    TITLE "Heartbreak Hotel"    PERFORMER "Elvis Presley"    INDEX 00 39:06:65    INDEX 01 39:07:74  TRACK 17 AUDIO    TITLE "Lawdy, Miss Clawdy"    PERFORMER "Elvis Presley"    INDEX 00 41:15:38    INDEX 01 41:16:44  TRACK 18 AUDIO    TITLE "Money Honey"    PERFORMER "Elvis Presley"    INDEX 00 43:24:15    INDEX 01 43:26:04  TRACK 19 AUDIO    TITLE "Hound Dog"    PERFORMER "Elvis Presley"    INDEX 00 46:01:12    INDEX 01 46:01:71  TRACK 20 AUDIO    TITLE "(There'll Be) Peace In the Valley (For Me)"    PERFORMER "Elvis Presley"    INDEX 00 48:18:04    INDEX 01 48:19:22  TRACK 21 AUDIO    TITLE "Crawfish"    PERFORMER "Elvis Presley"    INDEX 00 51:40:18    INDEX 01 51:42:13  TRACK 22 AUDIO    TITLE "Trouble"    PERFORMER "Elvis Presley"    INDEX 00 53:31:09    INDEX 01 53:32:29  TRACK 23 AUDIO    TITLE "Farther Along"    PERFORMER "Elvis Presley"    INDEX 00 55:48:69    INDEX 01 55:50:45  TRACK 24 AUDIO    TITLE "Mona Lisa"    PERFORMER "Elvis Presley"    INDEX 00 59:54:73    INDEX 01 59:56:49  TRACK 25 AUDIO    TITLE "Hide Thou Me"    PERFORMER "Elvis Presley"    INDEX 00 62:27:08    INDEX 01 62:29:26  TRACK 26 AUDIO    TITLE "Loving You [End Title Take 16]"    PERFORMER "Elvis Presley"    INDEX 00 63:33:62    INDEX 01 63:36:15  TRACK 27 AUDIO    TITLE "Lonely Man [Solo Version]"    PERFORMER "Elvis Presley"    INDEX 00 65:52:46    INDEX 01 65:54:65  TRACK 28 AUDIO    TITLE "Power of My Love"    PERFORMER "Elvis Presley"    INDEX 00 67:56:14    INDEX 01 67:58:01

DR Log

foobar2000 1.3.13 / Замер динамического диапазона (DR) 1.1.1Дата отчёта:  2018-06-22 13:44:07
--------------------------------------------------------------------------------Анализ: Elvis Presley / The Searcher (The Original Soundtrack) Disc 1--------------------------------------------------------------------------------
DR Пики RMS Продолжительность трека--------------------------------------------------------------------------------DR9 -0.30 дБ -12.55 дБ 3:28 01-Trouble / Guitar Man [Live]DR11 -0.95 дБ -13.57 дБ 2:13 02-My Baby Left MeDR12 0.00 дБ -12.85 дБ 3:05 03-Baby, What You Want Me To Do (First 'Stand-Up' Show) [Live]DR12 -0.63 дБ -16.85 дБ 4:10 04-Old ShepDR17 0.00 дБ -21.60 дБ 2:50 05-That's When Your Heartaches BeginDR11 -1.37 дБ -14.09 дБ 1:57 06-That's All RightDR8 -3.67 дБ -13.65 дБ 2:04 07-Blue Moon of KentuckyDR9 -1.28 дБ -13.32 дБ 1:56 08-Fool, Fool, FoolDR10 -0.41 дБ -13.44 дБ 2:46 09-Tweedlee Dee [Live]DR12 -0.07 дБ -14.26 дБ 2:17 10-Baby, Let's Play HouseDR12 -0.55 дБ -14.73 дБ 2:13 11-Good Rockin' TonightDR12 -0.16 дБ -12.99 дБ 2:33 12-Trying to Get to YouDR10 -0.76 дБ -17.81 дБ 2:43 13-Blue Moon [Take 9/M]DR15 -0.56 дБ -17.99 дБ 2:03 14-When It Rains, It Really PoursDR10 -1.40 дБ -13.98 дБ 2:51 15-Blue Christmas [Live]DR14 -0.17 дБ -16.27 дБ 2:09 16-Heartbreak HotelDR11 -0.46 дБ -13.09 дБ 2:09 17-Lawdy, Miss ClawdyDR14 -0.12 дБ -16.13 дБ 2:36 18-Money HoneyDR9 -2.28 дБ -12.93 дБ 2:17 19-Hound DogDR12 -1.75 дБ -17.03 дБ 3:23 20-(There'll Be) Peace In the Valley (For Me)DR13 -0.88 дБ -16.54 дБ 1:50 21-CrawfishDR11 -1.24 дБ -15.09 дБ 2:18 22-TroubleDR12 -0.65 дБ -15.63 дБ 4:06 23-Farther AlongDR10 -1.05 дБ -13.35 дБ 2:33 24-Mona LisaDR9 -1.32 дБ -16.15 дБ 1:07 25-Hide Thou MeDR14 -1.13 дБ -20.13 дБ 2:19 26-Loving You [End Title Take 16]DR10 -1.18 дБ -15.46 дБ 2:03 27-Lonely Man [Solo Version]DR12 0.00 дБ -15.22 дБ 2:39 28-Power of My Love--------------------------------------------------------------------------------
Количество треков: 28Реальные значения DR: DR11
Частота: 44100 ГцКаналов: 2Разрядность: 16Битрейт: 554 кбит/сКодек: FLAC================================================================================

CD 2

01. Milky White Way (2:14) Single 447-0652, released February 15, 1966 From the album His Hand In Mine LSP/LPM-2328, released November 23, 1960
02. A Mess Of Blues (2:40) Single 47/61-7777, released July 5, I960 From the album Elvis’ Gold Records Volume 4 LSP/LPM-3921, released January 22, 1968
03. Fame And Fortune (2:30) Single 47/61-7740, released March 23, I960 From the album Elvis’ Golden Records Volume 3 LSP/LPM-2765, released August 12, 1963
04. Love Me Tender / Witchcraft (duet with Frank Sinatra) (1:42) Recorded March 26, 1960 at the Fontainebleau Hotel, Miami, FL From the 5-album set From Nashville To Memphis 07863 66160-2, released September 28, 1993
05. Like A Baby (2:42) From the album Elvis Is Back LSP/LPM-2231, released April 8, 1960
06. Are You Lonesome Tonight? (3:06) Single 47/61 -7810, released November 1, 1960 From the album Elvis’ Golden Records Volume 3 LSP/LPM-2765, released August 12, 1963
07. It’s Now Or Never (3:16) Single 47/61-7777, released July 5, I960 From the album Elvis’ Golden Records Volume 3 LSP/LPM-2765, released August 12, 1963
08. Wooden Heart (2:03) Single 447-0720, released November 3, 1964 Single 447-0650, released October 1965 From the album G.l. Blues LSP/LPM-2256, released September 23, 1960
09. Swing Down Sweet Chariot (2:34) Single 447-0652, released February 15, 1966 From the album His Hand In Mine LSP/LPM-2328, released November 23, I960
10. Reconsider Baby (3:39) From the album Elvis Is Back LSP/LPM-2231, released April 8, 1960
11. Bossa Nova Baby (2:02) Single 47-8243, released October 1, 1963 From the album Fun In Acapulco LSP/LPM-2756, released November 15, 1963
12. C'mon Everybody (2:18) From the EP Viva Las Vegas EPA-4382, released May 1964 From the album С'mon Everybody CAL-2518, released July 1971
13. Tomorrow Is A Long Time (5:22) From the album Spinout LSP/LPM-3702, released October 24, 1966
14. Take My Hand, Precious Lord (3:17) From the EP Peace In The Valley EPA-4054, released April 1957
15. Run On (2:24) From the album How Great Thou Art LSP/LPM-3758, released February 1967
16. Baby What You Want Me To Do (3:21) From the 2 CD set Memories 07863 67612-2, released October 13, 1998
17. Suspicious Minds (take 6) (3:15) From the FTD album Memphis Sessions 74321-89293-2, released October 2001
18. Baby Let’s Play House (rehearsal) (1:07) From the 4-album set Platinum: A Life In Music 07863 67469-2, released July 15, 1997
19. Words (rehearsal) (3:05) From the FTD album One Night In Vegas 74321 81234-2, January 2001
20. That’s All Right (2:22) From the FTD album One Night In Vegas 74321 81234-2, January 2001
21. Never Been To Spain (3:35) From the album Elvis As Recorded At Madison Square Garden LSP-4776, released June 1972
22. An American Trilogy (4:20) From the 2 LP set Aloha From Hawaii Via Satellite VPSX-6089, released February 2, 1973
23. You Gave Me A Mountain (3:19) From the 2 LP set Aloha From Hawaii Via Satellite VPSX-6089, released February 2, 1973
24. Burning Love (rehearsal version) (3:11) From the FTD album Elvis On Tour - The Rehearsals 82876 66397-2, released December 2004
25. Separate Ways (rehearsal version) (3:26) From the FTD album Elvis On Tour - The Rehearsals 82876 66397-2, released December 2004
26. Hurt (take 5) (2:10) From the 4-album set Today, Tomorrow & Forever 07863 661 15-2, released June 25, 2002
27. If I Can Dream (3:20) From the album Elvis (NBC TV Special) LPM-4088, released November 22, 1968

Лог создания рипа

Exact Audio Copy V1.0 beta 6 from 9. April 2015
EAC extraction logfile from 21. June 2018, 17:46
Elvis Presley / The Searcher (The Original Soundtrack) Disc 2
Used drive : ATAPI iHAS122 C Adapter: 1 ID: 0
Read mode : SecureUtilize accurate stream : YesDefeat audio cache : YesMake use of C2 pointers : No
Read offset correction : 6Overread into Lead-In and Lead-Out : NoFill up missing offset samples with silence : YesDelete leading and trailing silent blocks : NoNull samples used in CRC calculations : YesUsed interface : Native Win32 interface for Win NT & 2000
Used output format : Internal WAV RoutinesSample format : 44.100 Hz; 16 Bit; Stereo
TOC of the extracted CD
Track | Start | Length | Start sector | End sector --------------------------------------------------------- 1 | 0:00.00 | 2:15.37 | 0 | 10161 2 | 2:15.37 | 2:41.51 | 10162 | 22287 3 | 4:57.13 | 2:31.39 | 22288 | 33651 4 | 7:28.52 | 1:43.40 | 33652 | 41416 5 | 9:12.17 | 2:40.31 | 41417 | 53447 6 | 11:52.48 | 3:08.27 | 53448 | 67574 7 | 15:01.00 | 3:17.06 | 67575 | 82355 8 | 18:18.06 | 2:05.04 | 82356 | 91734 9 | 20:23.10 | 2:33.30 | 91735 | 103239 10 | 22:56.40 | 3:40.41 | 103240 | 119780 11 | 26:37.06 | 2:03.67 | 119781 | 129072 12 | 28:40.73 | 2:19.33 | 129073 | 139530 13 | 31:00.31 | 5:23.18 | 139531 | 163773 14 | 36:23.49 | 3:19.15 | 163774 | 178713 15 | 39:42.64 | 2:24.10 | 178714 | 189523 16 | 42:06.74 | 3:23.65 | 189524 | 204813 17 | 45:30.64 | 3:18.17 | 204814 | 219680 18 | 48:49.06 | 1:09.41 | 219681 | 224896 19 | 49:58.47 | 3:06.67 | 224897 | 238913 20 | 53:05.39 | 2:24.33 | 238914 | 249746 21 | 55:29.72 | 3:37.15 | 249747 | 266036 22 | 59:07.12 | 4:22.31 | 266037 | 285717 23 | 63:29.43 | 3:21.59 | 285718 | 300851 24 | 66:51.27 | 3:12.54 | 300852 | 315305 25 | 70:04.06 | 3:28.26 | 315306 | 330931 26 | 73:32.32 | 2:09.40 | 330932 | 340646 27 | 75:41.72 | 3:20.25 | 340647 | 355671
Range status and errors
Selected range
Filename C:\Users\London\Desktop\Elvis Presley - The Searcher (The Original Soundtrack) Disc 2.wav
Peak level 100.0 % Extraction speed 9.9 X Range quality 99.9 % Test CRC 45A960EB Copy CRC 45A960EB Copy OK
No errors occurred
End of status report
---- CUETools DB Plugin V2.1.6
[CTDB TOCID: LE6SxQ9ceU6hPN0ZDPHJWFl0.ow-] foundSubmit result: LE6SxQ9ceU6hPN0ZDPHJWFl0.ow- has been confirmedTrack | CTDB Status 1 | (16/16) Accurately ripped 2 | (16/16) Accurately ripped 3 | (16/16) Accurately ripped 4 | (16/16) Accurately ripped 5 | (16/16) Accurately ripped 6 | (16/16) Accurately ripped 7 | (16/16) Accurately ripped 8 | (16/16) Accurately ripped 9 | (16/16) Accurately ripped 10 | (16/16) Accurately ripped 11 | (16/16) Accurately ripped 12 | (16/16) Accurately ripped 13 | (16/16) Accurately ripped 14 | (16/16) Accurately ripped 15 | (16/16) Accurately ripped 16 | (16/16) Accurately ripped 17 | (16/16) Accurately ripped 18 | (16/16) Accurately ripped 19 | (16/16) Accurately ripped 20 | (16/16) Accurately ripped 21 | (16/16) Accurately ripped 22 | (16/16) Accurately ripped 23 | (16/16) Accurately ripped 24 | (16/16) Accurately ripped 25 | (16/16) Accurately ripped 26 | (16/16) Accurately ripped 27 | (16/16) Accurately ripped
==== Log checksum 1C72B247B126AEA7243581F33D686A8BE36AB0CCFDF11E1B396A36413200FAFA ====

Содержание индексной карты (.CUE)

REM GENRE "Rock & Roll"REM DATE 2018REM DISCID 6712861BREM COMMENT "ExactAudioCopy v1.0b6"PERFORMER "Elvis Presley"TITLE "The Searcher (The Original Soundtrack) Disc 2"FILE "Elvis Presley - The Searcher (The Original Soundtrack) Disc 2.flac" WAVE  TRACK 01 AUDIO    TITLE "Milky White Way"    PERFORMER "Elvis Presley"    INDEX 01 00:00:00  TRACK 02 AUDIO    TITLE "A Mess of Blues"    PERFORMER "Elvis Presley"    INDEX 00 02:14:13    INDEX 01 02:15:37  TRACK 03 AUDIO    TITLE "Fame and Fortune"    PERFORMER "Elvis Presley"    INDEX 00 04:56:16    INDEX 01 04:57:13  TRACK 04 AUDIO    TITLE "Witchcraft / Love Me Tender [Digitally Remastered]"    PERFORMER "Elvis Presley"    INDEX 00 07:27:49    INDEX 01 07:28:52  TRACK 05 AUDIO    TITLE "Like a Baby"    PERFORMER "Elvis Presley"    INDEX 00 09:10:74    INDEX 01 09:12:17  TRACK 06 AUDIO    TITLE "Are You Lonesome Tonight?"    PERFORMER "Elvis Presley"    INDEX 00 11:51:23    INDEX 01 11:52:48  TRACK 07 AUDIO    TITLE "It's Now or Never"    PERFORMER "Elvis Presley"    INDEX 00 14:59:06    INDEX 01 15:01:00  TRACK 08 AUDIO    TITLE "Wooden Heart"    PERFORMER "Elvis Presley"    INDEX 00 18:16:61    INDEX 01 18:18:06  TRACK 09 AUDIO    TITLE "Swing Down Sweet Chariot"    PERFORMER "Elvis Presley"    INDEX 00 20:21:40    INDEX 01 20:23:10  TRACK 10 AUDIO    TITLE "Reconsider Baby"    PERFORMER "Elvis Presley"    INDEX 00 22:55:25    INDEX 01 22:56:40  TRACK 11 AUDIO    TITLE "Bossa Nova Baby"    PERFORMER "Elvis Presley"    INDEX 00 26:35:67    INDEX 01 26:37:06  TRACK 12 AUDIO    TITLE "C'mon Everybody"    PERFORMER "Elvis Presley"    INDEX 00 28:39:60    INDEX 01 28:40:73  TRACK 13 AUDIO    TITLE "Tomorrow Is a Long Time"    PERFORMER "Elvis Presley"    INDEX 00 30:59:17    INDEX 01 31:00:31  TRACK 14 AUDIO    TITLE "Take My Hand, Precious Lord"    PERFORMER "Elvis Presley"    INDEX 00 36:22:26    INDEX 01 36:23:49  TRACK 15 AUDIO    TITLE "Run On"    PERFORMER "Elvis Presley"    INDEX 00 39:40:51    INDEX 01 39:42:64  TRACK 16 AUDIO    TITLE "Baby What You Want Me To Do (Version 1) [Live]"    PERFORMER "Elvis Presley"    INDEX 00 42:05:40    INDEX 01 42:06:74  TRACK 17 AUDIO    TITLE "Suspicious Minds [Take 6]"    PERFORMER "Elvis Presley"    INDEX 00 45:28:43    INDEX 01 45:30:64  TRACK 18 AUDIO    TITLE "Baby, Let's Play House [Rehearsal]"    PERFORMER "Elvis Presley"    INDEX 00 48:46:44    INDEX 01 48:49:06  TRACK 19 AUDIO    TITLE "Words [Rehearsal]"    PERFORMER "Elvis Presley"    INDEX 00 49:56:49    INDEX 01 49:58:47  TRACK 20 AUDIO    TITLE "That's All Right [Live]"    PERFORMER "Elvis Presley"    INDEX 00 53:03:37    INDEX 01 53:05:39  TRACK 21 AUDIO    TITLE "Never Been to Spain [Live]"    PERFORMER "Elvis Presley"    INDEX 00 55:27:74    INDEX 01 55:29:72  TRACK 22 AUDIO    TITLE "An American Trilogy [Live at the Honolulu International Center]"    PERFORMER "Elvis Presley"    INDEX 00 59:05:08    INDEX 01 59:07:12  TRACK 23 AUDIO    TITLE "You Gave Me a Mountain [Live at the Honolulu International Center]"    PERFORMER "Elvis Presley"    INDEX 00 63:27:40    INDEX 01 63:29:43  TRACK 24 AUDIO    TITLE "Burning Love [Rehearsal Version]"    PERFORMER "Elvis Presley"    INDEX 00 66:49:07    INDEX 01 66:51:27  TRACK 25 AUDIO    TITLE "Separate Ways [Rehearsal Version]"    PERFORMER "Elvis Presley"    INDEX 00 70:02:11    INDEX 01 70:04:06  TRACK 26 AUDIO    TITLE "Hurt [Alt. Take 5]"    PERFORMER "Elvis Presley"    INDEX 00 73:30:03    INDEX 01 73:32:32  TRACK 27 AUDIO    TITLE "If I Can Dream [Stereo Mix]"    PERFORMER "Elvis Presley"    INDEX 00 75:40:45    INDEX 01 75:41:72

DR Log

foobar2000 1.3.13 / Замер динамического диапазона (DR) 1.1.1Дата отчёта:  2018-06-21 17:50:58
--------------------------------------------------------------------------------Анализ: Elvis Presley / The Searcher (The Original Soundtrack) Disc 2--------------------------------------------------------------------------------
DR Пики RMS Продолжительность трека--------------------------------------------------------------------------------DR9 -1.17 дБ -12.38 дБ 2:15 01-Milky White WayDR11 -0.62 дБ -13.46 дБ 2:42 02-A Mess of BluesDR9 -1.81 дБ -12.76 дБ 2:32 03-Fame and FortuneDR8 -1.88 дБ -11.76 дБ 1:44 04-Witchcraft / Love Me Tender [Digitally Remastered]DR10 -1.99 дБ -14.67 дБ 2:40 05-Like a BabyDR13 -0.14 дБ -15.28 дБ 3:08 06-Are You Lonesome Tonight?DR10 -0.89 дБ -13.19 дБ 3:17 07-It's Now or NeverDR10 -2.95 дБ -14.29 дБ 2:05 08-Wooden HeartDR10 -0.08 дБ -12.81 дБ 2:33 09-Swing Down Sweet ChariotDR11 -0.62 дБ -14.70 дБ 3:41 10-Reconsider BabyDR10 -1.60 дБ -14.05 дБ 2:04 11-Bossa Nova BabyDR12 -1.25 дБ -15.50 дБ 2:19 12-C'mon EverybodyDR12 -0.68 дБ -14.04 дБ 5:23 13-Tomorrow Is a Long TimeDR12 -2.27 дБ -18.26 дБ 3:19 14-Take My Hand, Precious LordDR10 -0.69 дБ -14.15 дБ 2:24 15-Run OnDR13 0.00 дБ -14.24 дБ 3:24 16-Baby What You Want Me To Do (Version 1) [Live]DR8 -2.94 дБ -12.23 дБ 3:18 17-Suspicious Minds [Take 6]DR9 -1.01 дБ -13.11 дБ 1:10 18-Baby, Let's Play House [Rehearsal]DR12 -0.05 дБ -15.95 дБ 3:07 19-Words [Rehearsal]DR11 -0.89 дБ -13.87 дБ 2:24 20-That's All Right [Live]DR13 -0.02 дБ -15.30 дБ 3:37 21-Never Been to Spain [Live]DR11 -0.16 дБ -16.55 дБ 4:22 22-An American Trilogy [Live at the Honolulu International Center]DR10 -0.29 дБ -14.43 дБ 3:22 23-You Gave Me a Mountain [Live at the Honolulu International Center]DR12 -0.02 дБ -14.92 дБ 3:13 24-Burning Love [Rehearsal Version]DR11 -1.38 дБ -15.62 дБ 3:28 25-Separate Ways [Rehearsal Version]DR11 -0.10 дБ -14.73 дБ 2:10 26-Hurt [Alt. Take 5]DR10 -0.64 дБ -12.81 дБ 3:20 27-If I Can Dream [Stereo Mix]--------------------------------------------------------------------------------
Количество треков: 27Реальные значения DR: DR11
Частота: 44100 ГцКаналов: 2Разрядность: 16Битрейт: 787 кбит/сКодек: FLAC================================================================================

CD 3


01. Mike McCready - Dissolution 2 (2:28) Produced by Mike McCready
02. Satisfied - The Blackwood Brothers Quartet (2: II) Blackwood Brothers Quartet single #1172, released 1951
03. That’s All Right - Arthur “Big Boy” Crudup (2:53) RCA Victor single 20-2205, released April 1947
04. She May Be Yours But She Comes To See Me Sometimes - Joe Hill Louis (3:01) Sun single 178, released January 30, 1953
05. Mystery Train - Little Junior’s Blue Flames (2:22) Sun single 192, released November 1953
06. Smokestack Lightning - Howlin’ Wolf (3:04) Chess single 1618, released March 1956
07. Rock-A-My Soul - The Blackwood Brothers (2:27) From the album Keys To The Kingdom RCA Camden CAL 618, released 1962
08. Just Walkin’ In The Rain - The Prisonaires (2:46) Sun single 186, released July 1953
09. Rocket 88 - Jackie Brenston and his Delta Cats (2:47) Chess single 1458, released April 1951
10. Write Me A Letter - The Ravens (2:51) National single 9038, released October 1947 From the album Stompin’ At The Savoy: Harlem Nocturne, 1944-1947
11. Blue Moon Of Kentucky - Bill Monroe (3:01) Columbia single 37888, released September 1947
12. Ain’t That Right - Eddie Snow (2:36) Sun single 226, released August 1955
13. Just Walkin’ In The Rain - Johnnie Ray (2:38) Columbia single 4-40729, released July 16, 1956
14. Home Sweet Home - Gladys Presley (1:06) Previously unreleased
15. Blowin’ in The Wind - Odetta (4:09) From the album Odetta Sings Dylan RCA Victor LSP-3324, released 1965
16. Tomorrow Is A Long Time - Odetta (6:18) From the album Odetta Sings Dylan RCA Victor LS P-3 324, released 1965
17. The Weight - The Staple Singers (4:33) From the album Soul Folk In Action Stax Records SCD-8561-2, released 1968
18. Heartbreak Hotel - The Orlons (2:31) Cameo single CA-506, released May 1964
19. Wooden Heart - Tom Petty and the Heartbreakers (2:09) From the Tom Petty and the Heartbreakers box set Playback MCA MCAD6-11375, released November 1995
20. Rebound - Mike McCready (1:33) Produced by Mike McCready

Лог создания рипа

Exact Audio Copy V1.0 beta 6 from 9. April 2015
EAC extraction logfile from 22. June 2018, 13:34
Various Artists / Elvis Presley: The Searcher (The Original Soundtrack) Disc 3
Used drive : ATAPI iHAS122 C Adapter: 1 ID: 0
Read mode : SecureUtilize accurate stream : YesDefeat audio cache : YesMake use of C2 pointers : No
Read offset correction : 6Overread into Lead-In and Lead-Out : NoFill up missing offset samples with silence : YesDelete leading and trailing silent blocks : NoNull samples used in CRC calculations : YesUsed interface : Native Win32 interface for Win NT & 2000
Used output format : Internal WAV RoutinesSample format : 44.100 Hz; 16 Bit; Stereo
TOC of the extracted CD
Track | Start | Length | Start sector | End sector --------------------------------------------------------- 1 | 0:00.00 | 2:29.66 | 0 | 11240 2 | 2:29.66 | 2:12.68 | 11241 | 21208 3 | 4:42.59 | 2:54.26 | 21209 | 34284 4 | 7:37.10 | 3:01.47 | 34285 | 47906 5 | 10:38.57 | 2:23.63 | 47907 | 58694 6 | 13:02.45 | 3:06.33 | 58695 | 72677 7 | 16:09.03 | 2:28.64 | 72678 | 83841 8 | 18:37.67 | 2:48.56 | 83842 | 96497 9 | 21:26.48 | 2:48.66 | 96498 | 109163 10 | 24:15.39 | 2:52.67 | 109164 | 122130 11 | 27:08.31 | 3:02.37 | 122131 | 135817 12 | 30:10.68 | 2:37.69 | 135818 | 147661 13 | 32:48.62 | 2:39.50 | 147662 | 159636 14 | 35:28.37 | 1:08.18 | 159637 | 164754 15 | 36:36.55 | 4:10.72 | 164755 | 183576 16 | 40:47.52 | 6:20.15 | 183577 | 212091 17 | 47:07.67 | 4:34.09 | 212092 | 232650 18 | 51:42.01 | 2:32.17 | 232651 | 244067 19 | 54:14.18 | 2:10.60 | 244068 | 253877 20 | 56:25.03 | 1:33.31 | 253878 | 260883
Range status and errors
Selected range
Filename C:\Users\London\Desktop\Various Artists - Elvis Presley- The Searcher (The Original Soundtrack) Disc 3.wav
Peak level 100.0 % Extraction speed 8.8 X Range quality 100.0 % Test CRC 99AEB026 Copy CRC 99AEB026 Copy OK
No errors occurred
End of status report
---- CUETools DB Plugin V2.1.6
[CTDB TOCID: Iqj.2tvu3ZjL5rmZ.xKFuO5WsXs-] foundSubmit result: already submittedTrack | CTDB Status 1 | (14/14) Accurately ripped 2 | (14/14) Accurately ripped 3 | (14/14) Accurately ripped 4 | (14/14) Accurately ripped 5 | (14/14) Accurately ripped 6 | (14/14) Accurately ripped 7 | (14/14) Accurately ripped 8 | (14/14) Accurately ripped 9 | (14/14) Accurately ripped 10 | (14/14) Accurately ripped 11 | (14/14) Accurately ripped 12 | (14/14) Accurately ripped 13 | (14/14) Accurately ripped 14 | (14/14) Accurately ripped 15 | (14/14) Accurately ripped 16 | (14/14) Accurately ripped 17 | (14/14) Accurately ripped 18 | (14/14) Accurately ripped 19 | (14/14) Accurately ripped 20 | (14/14) Accurately ripped
==== Log checksum 1950181FA0E5AECE1C43707407F62EA0CE50FE4B5CDA98E22EF84576DBD6BEAB ====

Содержание индексной карты (.CUE)

REM GENRE "Rock & Roll"REM DATE 2018REM DISCID 1E0D9614REM COMMENT "ExactAudioCopy v1.0b6"PERFORMER "Various Artists"TITLE "Elvis Presley: The Searcher (The Original Soundtrack) Disc 3"FILE "Various Artists - Elvis Presley- The Searcher (The Original Soundtrack) Disc 3.flac" WAVE  TRACK 01 AUDIO    TITLE "Dissolution 2"    PERFORMER "Mike McCready"    INDEX 01 00:00:00  TRACK 02 AUDIO    TITLE "Satisfied"    PERFORMER "The Blackwood Brothers Quartet"    INDEX 00 02:28:41    INDEX 01 02:29:66  TRACK 03 AUDIO    TITLE "That's All Right"    PERFORMER "Arthur 'Big Boy' Crudup"    INDEX 00 04:40:70    INDEX 01 04:42:59  TRACK 04 AUDIO    TITLE "She May Be Yours (But She Comes To See Me Sometime)"    PERFORMER "Joe Hill Louis"    INDEX 00 07:36:09    INDEX 01 07:37:10  TRACK 05 AUDIO    TITLE "Mystery Train"    PERFORMER "Little Junior's Blue Flames"    INDEX 00 10:36:53    INDEX 01 10:38:57  TRACK 06 AUDIO    TITLE "Smokestack Lightnin'"    PERFORMER "Howlin' Wolf"    INDEX 00 13:00:58    INDEX 01 13:02:45  TRACK 07 AUDIO    TITLE "Rock-A-My Soul"    PERFORMER "The Blackwood Brothers Quartet"    INDEX 00 16:06:74    INDEX 01 16:09:03  TRACK 08 AUDIO    TITLE "Just Walkin' In The Rain"    PERFORMER "The Prisonaires"    INDEX 00 18:36:39    INDEX 01 18:37:67  TRACK 09 AUDIO    TITLE "Rocket '88"    PERFORMER "Jackie Brenston & His Delta Cats"    INDEX 00 21:24:46    INDEX 01 21:26:48  TRACK 10 AUDIO    TITLE "Write Me a Letter"    PERFORMER "The Ravens"    INDEX 00 24:13:62    INDEX 01 24:15:39  TRACK 11 AUDIO    TITLE "Blue Moon of Kentucky"    PERFORMER "Bill Monroe & his Blue Grass Boys"    INDEX 00 27:06:28    INDEX 01 27:08:31  TRACK 12 AUDIO    TITLE "Ain't That Right"    PERFORMER "Eddie Snow"    INDEX 00 30:09:71    INDEX 01 30:10:68  TRACK 13 AUDIO    TITLE "Just Walkin' in the Rain"    PERFORMER "Johnnie Ray"    INDEX 00 32:46:58    INDEX 01 32:48:62  TRACK 14 AUDIO    TITLE "Home Sweet Home"    PERFORMER "Gladys Presley"    INDEX 00 35:27:09    INDEX 01 35:28:37  TRACK 15 AUDIO    TITLE "Blowin' In the Wind"    PERFORMER "Odetta"    INDEX 00 36:34:56    INDEX 01 36:36:55  TRACK 16 AUDIO    TITLE "Tomorrow Is a Long Time"    PERFORMER "Odetta"    INDEX 00 40:46:01    INDEX 01 40:47:52  TRACK 17 AUDIO    TITLE "The Weight"    PERFORMER "The Staple Singers"    INDEX 00 47:06:22    INDEX 01 47:07:67  TRACK 18 AUDIO    TITLE "Heartbreak Hotel"    PERFORMER "The Orlons"    INDEX 00 51:41:09    INDEX 01 51:42:01  TRACK 19 AUDIO    TITLE "Wooden Heart"    PERFORMER "Tom Petty & The Heartbreakers"    INDEX 00 54:13:23    INDEX 01 54:14:18  TRACK 20 AUDIO    TITLE "Rebound"    PERFORMER "Mike McCready"    INDEX 00 56:23:42    INDEX 01 56:25:03

DR Log

foobar2000 1.3.13 / Замер динамического диапазона (DR) 1.1.1Дата отчёта:  2018-06-22 13:42:54
--------------------------------------------------------------------------------Анализ: Arthur 'Big Boy' Crudup / Elvis Presley: The Searcher (The Original Soundtrack) Disc 3 (1) Bill Monroe & his Blue Grass Boys / Elvis Presley: The Searcher (The Original Soundtrack) Disc 3 (2) Eddie Snow / Elvis Presley: The Searcher (The Original Soundtrack) Disc 3 (3) Gladys Presley / Elvis Presley: The Searcher (The Original Soundtrack) Disc 3 (4)--------------------------------------------------------------------------------
DR Пики RMS Продолжительность трека--------------------------------------------------------------------------------DR13 -0.34 дБ -15.31 дБ 2:54 03-That's All RightDR12 -0.07 дБ -14.31 дБ 3:02 11-Blue Moon of KentuckyDR11 -0.13 дБ -12.73 дБ 2:38 12-Ain't That RightDR10 -7.30 дБ -21.39 дБ 1:08 14-Home Sweet Home--------------------------------------------------------------------------------
Количество треков: 4Реальные значения DR: DR12
Частота: 44100 ГцКаналов: 2Разрядность: 16Битрейт: 633 кбит/сКодек: FLAC================================================================================
--------------------------------------------------------------------------------Анализ: Howlin' Wolf / Elvis Presley: The Searcher (The Original Soundtrack) Disc 3 (1) Jackie Brenston & His Delta Cats / Elvis Presley: The Searcher (The Original Soundtrack) Disc 3 (2)--------------------------------------------------------------------------------
DR Пики RMS Продолжительность трека--------------------------------------------------------------------------------DR11 -0.06 дБ -14.13 дБ 3:06 06-Smokestack Lightnin'DR9 -2.30 дБ -13.08 дБ 2:49 09-Rocket '88--------------------------------------------------------------------------------
Количество треков: 2Реальные значения DR: DR10
Частота: 44100 ГцКаналов: 2Разрядность: 16Битрейт: 633 кбит/сКодек: FLAC================================================================================
--------------------------------------------------------------------------------Анализ: Joe Hill Louis / Elvis Presley: The Searcher (The Original Soundtrack) Disc 3 (1) Johnnie Ray / Elvis Presley: The Searcher (The Original Soundtrack) Disc 3 (2)--------------------------------------------------------------------------------
DR Пики RMS Продолжительность трека--------------------------------------------------------------------------------DR10 -2.49 дБ -13.69 дБ 3:02 04-She May Be Yours (But She Comes To See Me Sometime)DR13 0.00 дБ -14.11 дБ 2:40 13-Just Walkin' in the Rain--------------------------------------------------------------------------------
Количество треков: 2Реальные значения DR: DR11
Частота: 44100 ГцКаналов: 2Разрядность: 16Битрейт: 633 кбит/сКодек: FLAC================================================================================
--------------------------------------------------------------------------------Статистика для: 05-Mystery TrainКоличество сэмплов: 6343344Продолжительность: 2:24--------------------------------------------------------------------------------
Левый Правый
Пики: -1.23 дБ --- -1.23 дБСредний RMS: -13.19 дБ --- -13.19 дБDR канала: 10.14 дБ --- 10.14 дБ--------------------------------------------------------------------------------
Реальные значения DR: DR10
Частота: 44100 ГцКаналов: 2Разрядность: 16Битрейт: 633 кбит/сКодек: FLAC================================================================================--------------------------------------------------------------------------------Анализ: Mike McCready / Elvis Presley: The Searcher (The Original Soundtrack) Disc 3--------------------------------------------------------------------------------
DR Пики RMS Продолжительность трека--------------------------------------------------------------------------------DR11 -0.71 дБ -15.24 дБ 2:30 01-Dissolution 2DR13 -1.24 дБ -18.01 дБ 1:33 20-Rebound--------------------------------------------------------------------------------
Количество треков: 2Реальные значения DR: DR12
Частота: 44100 ГцКаналов: 2Разрядность: 16Битрейт: 633 кбит/сКодек: FLAC================================================================================
--------------------------------------------------------------------------------Анализ: Odetta / Elvis Presley: The Searcher (The Original Soundtrack) Disc 3--------------------------------------------------------------------------------
DR Пики RMS Продолжительность трека--------------------------------------------------------------------------------DR11 -0.10 дБ -14.77 дБ 4:11 15-Blowin' In the WindDR13 -0.10 дБ -15.47 дБ 6:20 16-Tomorrow Is a Long Time--------------------------------------------------------------------------------
Количество треков: 2Реальные значения DR: DR12
Частота: 44100 ГцКаналов: 2Разрядность: 16Битрейт: 633 кбит/сКодек: FLAC================================================================================
--------------------------------------------------------------------------------Анализ: The Blackwood Brothers Quartet / Elvis Presley: The Searcher (The Original Soundtrack) Disc 3 (1-2) The Orlons / Elvis Presley: The Searcher (The Original Soundtrack) Disc 3 (3)--------------------------------------------------------------------------------
DR Пики RMS Продолжительность трека--------------------------------------------------------------------------------DR12 -0.61 дБ -14.34 дБ 2:13 02-SatisfiedDR10 -1.29 дБ -13.63 дБ 2:29 07-Rock-A-My SoulDR13 0.00 дБ -13.91 дБ 2:32 18-Heartbreak Hotel--------------------------------------------------------------------------------
Количество треков: 3Реальные значения DR: DR12
Частота: 44100 ГцКаналов: 2Разрядность: 16Битрейт: 633 кбит/сКодек: FLAC================================================================================
--------------------------------------------------------------------------------Анализ: The Prisonaires / Elvis Presley: The Searcher (The Original Soundtrack) Disc 3 (1) The Ravens / Elvis Presley: The Searcher (The Original Soundtrack) Disc 3 (2) The Staple Singers / Elvis Presley: The Searcher (The Original Soundtrack) Disc 3 (3) Tom Petty & The Heartbreakers / Elvis Presley: The Searcher (The Original Soundtrack) Disc 3 (4)--------------------------------------------------------------------------------
DR Пики RMS Продолжительность трека--------------------------------------------------------------------------------DR11 -1.23 дБ -15.02 дБ 2:49 08-Just Walkin' In The RainDR11 0.00 дБ -12.60 дБ 2:53 10-Write Me a LetterDR14 -0.08 дБ -16.21 дБ 4:34 17-The WeightDR9 -3.35 дБ -13.44 дБ 2:11 19-Wooden Heart--------------------------------------------------------------------------------
Количество треков: 4Реальные значения DR: DR11
Частота: 44100 ГцКаналов: 2Разрядность: 16Битрейт: 633 кбит/сКодек: FLAC================================================================================

Об альбоме (сборнике)

19 ноября 2018 года выйдет документальный фильм канала HBO «Elvis Presley: The Searcher». В нем авторы попытались отследить и разобрать творческий путь Элвиса Пресли от блюза и госпела к статусу иконы рок-н-ролла. Также в картине подробно остановятся на борьбе музыканта со звукозаписывающими лейблами и его желании заниматься творчеством, а не коммерцией. В общем, это будет фильм больше о музыканте, чем об иконе шоу-бизнеса. Само название фильме взято из цитаты Присциллы Пресли: «Элвис был искателем». «Однажды, он сказал мне, я хочу постичь и почувствовать самую суть человеческого бытия», — вспоминает жена короля рок-н-ролла.
По этому поводу 6 апреля этого года Legacy Recordings и RCA Records выпустили официальный саундтрек картины «Elvis Presley: The Searcher». В него вошли 55 композиций Элвиса, включая редкие концертные записи и альтернативные версии известных хитов и бонусный третий диск с материалом, состоящим из песен которые оказали влияние на творчество Элвиса. Помимо тогдашних известных музыкантов, на этом диске присутствует неизданный ранее вариант песни Home Sweet Home, в исполнении мамы Элвиса Глэдис
-Раздаю до первых 5-ти скачавших, на раздачи не возвращаюсь...-
Вы не можете начинать темы
Вы не можете отвечать на сообщения
Вы не можете редактировать свои сообщения
Вы не можете удалять свои сообщения
Вы не можете голосовать в опросах
Вы не можете прикреплять файлы к сообщениям
Вы можете скачивать файлы
!ВНИМАНИЕ!

Сайт не предоставляет электронные версии произведений, а занимается лишь коллекционированием и каталогизацией ссылок, присылаемых и публикуемых на форуме нашими читателями. Если вы являетесь правообладателем какого-либо представленного материала и не желаете, чтобы ссылка на него находилась в нашем каталоге, свяжитесь с нами, и мы незамедлительно удалим ее. Файлы для обмена на трекере предоставлены пользователями сайта, и администрация не несет ответственности за их содержание. Просьба не заливать файлы, защищенные авторскими правами, а также файлы нелегального содержания!

Искали программы, игры, дополнения, музыка mp3, аниме, аудио книги, журналы? Добро пожаловать на свободный торрент трекер Torrents, у нас можно скачать бесплатно, без смс и регистрации и прочих ограничений лучшие, отборные сборки программ, игр. Скачать торрентом не составит труда даже не опытному пользователю. Раздачи ежедневно обновляются, только лучшие и качественные раздачи, подробные описания и скриншоты. Огромная коллекция программ для работы со звуком, графикой, дизайном, а так же множество плагинов и инструментов к ним с подробной инструкцией и рекомендациями. Прошивки для навигаторов, карты. Разнообразные игры, для Windows, Linux. В коллекцие есть и старые игры любых жанров, Rpg, Action, Shooter, strategy Множество дополнений, модификаций, сценариев для популярных игр в жанре экш, рпг, гонки, стратегии, логические игры. Множество аддонов и сценариев для Microsoft Flight Simulator Большая коллекция книг, учебников. Если нет возможности купить печатное издание - смело скачивайте цифровую версию книги или, быть может, журнала. Не любите читать - можно загрузить бесплатно аудикнигу. Для веб дизайнеров и программистов так же найдется множество специализированного софта, таких как: редакторы с подсветкой, среды программирования, компоненты, системы управления базами данных, разнообразные скрипты и шаблоны. Не так давно у нас появился материал для автолюбителей и владельцев мото - оригинальные и неоригинальные каталоги запчастей, книги и журналы по ремонту и обслуживанию, видеоуроки, статьи по чип тюнингу, прошивкам. Процедура получения контента элементарная, достаточно просто скачать торрент файл и добавить его в загрузку в вашем торрент клиенте. Если у вас нет специального торрент клиента, вы можете его скачать у нас.

Bokurano | Kunststoffhüllen 7S VARIO: 7er-Einteilung, schwarz, 5er-Pack | Sets | Videos | 2018