Мобильный доспех Гандам: Грозовой сектор - Бандитский цветок / Kidou Senshi Gundam Thunderbolt - Bandit Flower / Mobile Suit Gundam Thunderbolt - Bandit Flower [Movie] [Полухардсаб] [JAP+SUB] [2017, фантастика, меха, BDRip] [1080p] 

Цитировать
-Mobile Suit Gundam Thunderbolt: Bandit Flower / 機動戦士ガンダム サンダーボルト Bandit Flower- Страна: Япония
Год выпуска: 2017 г.
Жанр: фантастика, меха
Тип: Movie
Продолжительность: 90 мин.
Режиссер: Мацуо Ко
Студия: Sunrise-Перевод:
  • русские субтитры: [Zero & AleX_MytH] (внешним файлом);

-
Описание: Киноверсия второго сезона с новыми сценами.
События нового сезона разворачиваются спустя семь месяцев после окончания Однолетней войны. Остатки Княжества Зеон реформированы в Республику Зеон и продолжают сражение. После сокрушительного поражения флота «Братства Мура» и уничтожения Псайко Заку его пилот Дэрил отправляется на Землю в качестве разведчика, чтобы получить информацию о военной группе под названием «Альянс Южных Морей». Его противник Ио тоже летит на Землю, но совсем по другим причинам — он избран в качестве пилота нового прототипа мобильного доспеха «Гандам Атлас».
-Информационные ссылки: AniDB | MAL | World Art-Качество: BDRip
Тип релиза: Полухардсаб (песни)
Формат видео: MKV
Наличие линковки: Нет
Релиз/Автор рипа: Vladdrako & Kametsu [Beatrice-Raws]
Видео: x264, 1920x1080, 15.2 Mb/s, 23.976 fps, 10 bit
Аудио: JAP, FLAC, 1542 kbps, 48000 Hz, 2ch

Подробные тех. данные

GeneralUnique ID                   : 1380129800007529157918007310055469409 (0x109CDA717FCEA6156C08A9E39057161)Complete name               : C:\[Beatrice-Raws] Mobile Suit Gundam Thunderbolt - Bandit Flower [BDRip 1920x1080 x264 FLAC].mkvFormat                      : MatroskaFormat version              : Version 4 / Version 2File size                   : 10.5 GiBDuration                    : 1 h 29 minOverall bit rate mode       : VariableOverall bit rate            : 16.7 Mb/sEncoded date                : UTC 2018-06-10 11:31:21Writing application         : mkvmerge v24.0.0 ('Beyond The Pale') 64-bitWriting library             : libebml v1.3.6 + libmatroska v1.4.9
VideoID : 1Format : AVCFormat/Info : Advanced Video CodecFormat profile : High 10@L5Format settings : CABAC / 4 Ref FramesFormat settings, CABAC : YesFormat settings, ReFrames : 4 framesCodec ID : V_MPEG4/ISO/AVCDuration : 1 h 29 minBit rate : 15.2 Mb/sWidth : 1 920 pixelsHeight : 1 080 pixelsDisplay aspect ratio : 16:9Frame rate mode : ConstantFrame rate : 23.976 (24000/1001) FPSColor space : YUVChroma subsampling : 4:2:0Bit depth : 10 bitsScan type : ProgressiveBits/(Pixel*Frame) : 0.305Stream size : 9.51 GiB (91%)Title : BDRip by Vladdrako & KametsuWriting library : x264 core 152 r2851M ba24899 (DJATOM's build)Encoding settings : cabac=1 / ref=4 / deblock=1:1:-1 / analyse=0x3:0x113 / me=umh / subme=9 / psy=1 / psy_rd=1.00:0.00 / mixed_ref=1 / me_range=32 / chroma_me=1 / trellis=2 / 8x8dct=1 / cqm=0 / deadzone=21,11 / fast_pskip=1 / chroma_qp_offset=-2 / threads=34 / lookahead_threads=5 / sliced_threads=0 / nr=0 / decimate=1 / interlaced=0 / bluray_compat=0 / constrained_intra=0 / bframes=9 / b_pyramid=2 / b_adapt=2 / b_bias=0 / direct=1 / weightb=1 / open_gop=0 / weightp=2 / keyint=250 / keyint_min=23 / scenecut=40 / intra_refresh=0 / rc=crf / mbtree=0 / crf=15.0000 / qcomp=0.72 / qpmin=0 / qpmax=81 / qpstep=4 / ip_ratio=1.40 / pb_ratio=1.30 / aq=1:0.85Language : JapaneseDefault : YesForced : NoColor range : LimitedColor primaries : BT.709Transfer characteristics : BT.709Matrix coefficients : BT.709
AudioID : 2Format : FLACFormat/Info : Free Lossless Audio CodecCodec ID : A_FLACDuration : 1 h 29 minBit rate mode : VariableBit rate : 1 542 kb/sChannel(s) : 2 channelsChannel positions : Front: L RSampling rate : 48.0 kHzFrame rate : 11.719 FPS (4096 SPF)Bit depth : 24 bitsStream size : 991 MiB (9%)Title : LPCM->FLACWriting library : libFLAC 1.3.2 (UTC 2017-01-01)Language : JapaneseDefault : YesForced : No
Menu00:00:00.000 : :Part A00:19:57.863 : :Part B00:45:53.500 : :Part C01:03:33.351 : :Part D01:25:46.474 : :ED

Скриншоты

Вы не можете начинать темы
Вы не можете отвечать на сообщения
Вы не можете редактировать свои сообщения
Вы не можете удалять свои сообщения
Вы не можете голосовать в опросах
Вы не можете прикреплять файлы к сообщениям
Вы можете скачивать файлы
!ВНИМАНИЕ!

Сайт не предоставляет электронные версии произведений, а занимается лишь коллекционированием и каталогизацией ссылок, присылаемых и публикуемых на форуме нашими читателями. Если вы являетесь правообладателем какого-либо представленного материала и не желаете, чтобы ссылка на него находилась в нашем каталоге, свяжитесь с нами, и мы незамедлительно удалим ее. Файлы для обмена на трекере предоставлены пользователями сайта, и администрация не несет ответственности за их содержание. Просьба не заливать файлы, защищенные авторскими правами, а также файлы нелегального содержания!

Искали программы, игры, дополнения, музыка mp3, аниме, аудио книги, журналы? Добро пожаловать на свободный торрент трекер Torrents, у нас можно скачать бесплатно, без смс и регистрации и прочих ограничений лучшие, отборные сборки программ, игр. Скачать торрентом не составит труда даже не опытному пользователю. Раздачи ежедневно обновляются, только лучшие и качественные раздачи, подробные описания и скриншоты. Огромная коллекция программ для работы со звуком, графикой, дизайном, а так же множество плагинов и инструментов к ним с подробной инструкцией и рекомендациями. Прошивки для навигаторов, карты. Разнообразные игры, для Windows, Linux. В коллекцие есть и старые игры любых жанров, Rpg, Action, Shooter, strategy Множество дополнений, модификаций, сценариев для популярных игр в жанре экш, рпг, гонки, стратегии, логические игры. Множество аддонов и сценариев для Microsoft Flight Simulator Большая коллекция книг, учебников. Если нет возможности купить печатное издание - смело скачивайте цифровую версию книги или, быть может, журнала. Не любите читать - можно загрузить бесплатно аудикнигу. Для веб дизайнеров и программистов так же найдется множество специализированного софта, таких как: редакторы с подсветкой, среды программирования, компоненты, системы управления базами данных, разнообразные скрипты и шаблоны. Не так давно у нас появился материал для автолюбителей и владельцев мото - оригинальные и неоригинальные каталоги запчастей, книги и журналы по ремонту и обслуживанию, видеоуроки, статьи по чип тюнингу, прошивкам. Процедура получения контента элементарная, достаточно просто скачать торрент файл и добавить его в загрузку в вашем торрент клиенте. Если у вас нет специального торрент клиента, вы можете его скачать у нас.

Bob Ross - The Joy of Painting | Read more | Watch Now