Alysa King | Download The Hitman's Bodyguard Torrent | Word Beach: Connect Letters, Fun Word Search Games

(Rhythm & Blues; Rock) [CD] Rag\'n\'Bone Man - Human (Deluxe Edition) - 2017, FLAC (tracks+.cue), lossless 

Цитировать
Rag'n'Bone Man - Human (Deluxe Edition)- Жанр: Rhythm & Blues; Rock
Носитель: CD
Год издания диска: 2017
Издатель (лейбл): Sony Music
Страна: UK
Аудио кодек: FLAC (*.flac)
Тип рипа: tracks+.cue
Битрейт аудио: lossless
Продолжительность: 1:05:01
Источник (релизер): apollo.rip
Наличие сканов в содержимом раздачи: нет
Доп. информация:


01.Human (3:20)
02.Innocent Man (3:07)
03.Skin (4:00)
04.Bitter End (3:40)
05.Be The Man (3:15)
06.Love You Any Less (4:21)
07.Odetta (3:37)
08.Grace (3:31)
09.Ego (3:18)
10.Arrow (3:21)
11.As You Are (3:49)
12.Die Easy (2:32)
13.The Fire (3:42)
14.Fade To Nothing (3:43)
15.Life In Her Yet (2:53)
16.Your Way or the Rope (3:25)
17.Lay My Body Down (3:37)
18.Wolves (2:56)
19.Healed (2:56)

Лог создания рипа

Exact Audio Copy V1.1 from 23. June 2015
EAC extraction logfile from 11. February 2017, 23:14
Rag'n'Bone Man / Human (Deluxe)
Used drive : TSSTcorpDVDWBD SN-406AB Adapter: 1 ID: 0
Read mode : SecureUtilize accurate stream : YesDefeat audio cache : YesMake use of C2 pointers : No
Read offset correction : 6Overread into Lead-In and Lead-Out : NoFill up missing offset samples with silence : YesDelete leading and trailing silent blocks : NoNull samples used in CRC calculations : YesUsed interface : Native Win32 interface for Win NT & 2000Gap handling : Appended to previous track
Used output format : User Defined EncoderSelected bitrate : 1024 kBit/sQuality : HighAdd ID3 tag : NoCommand line compressor : C:\Program Files (x86)\Exact Audio Copy\FLAC\FLAC.EXEAdditional command line options : -8 -e -V -T "ARTIST=%artist%" -T "TITLE=%title%" -T "ALBUM=%albumtitle%" -T "DATE=%year%" -T "TRACKNUMBER=%tracknr%" -T "GENRE=%genre%" -T "PERFORMER=%albuminterpret%" -T "COMPOSER=%composer%" %haslyrics%--tag-from-file=LYRICS="%lyricsfile%"%haslyrics% -T "ALBUMARTIST=%albumartist%" -T "DISCNUMBER=%cdnumber%" -T "TOTALDISCS=%totalcds%" -T "TOTALTRACKS=%numtracks%" -T "COMMENT=%comment%" %source% -o %dest%
TOC of the extracted CD
Track | Start | Length | Start sector | End sector --------------------------------------------------------- 1 | 0:00.00 | 3:20.14 | 0 | 15013 2 | 3:20.14 | 3:06.49 | 15014 | 29012 3 | 6:26.63 | 3:59.47 | 29013 | 46984 4 | 10:26.35 | 3:39.39 | 46985 | 63448 5 | 14:05.74 | 3:14.41 | 63449 | 78039 6 | 17:20.40 | 4:21.11 | 78040 | 97625 7 | 21:41.51 | 3:36.53 | 97626 | 113878 8 | 25:18.29 | 3:31.05 | 113879 | 129708 9 | 28:49.34 | 3:17.68 | 129709 | 144551 10 | 32:07.27 | 3:21.25 | 144552 | 159651 11 | 35:28.52 | 3:48.39 | 159652 | 176790 12 | 39:17.16 | 2:32.26 | 176791 | 188216 13 | 41:49.42 | 3:42.00 | 188217 | 204866 14 | 45:31.42 | 3:42.71 | 204867 | 221587 15 | 49:14.38 | 2:53.24 | 221588 | 234586 16 | 52:07.62 | 3:24.53 | 234587 | 249939 17 | 55:32.40 | 3:36.61 | 249940 | 266200 18 | 59:09.26 | 2:55.49 | 266201 | 279374 19 | 62:05.00 | 2:56.15 | 279375 | 292589
Track 1
Filename C:\Users\peter\Music\Rag'n'Bone Man\01 - Human.wav
Pre-gap length 0:00:02.00
Peak level 100.0 % Extraction speed 0.9 X Track quality 99.9 % Test CRC 33CB02EB Copy CRC 33CB02EB Track not present in AccurateRip database Copy OK
Track 2
Filename C:\Users\peter\Music\Rag'n'Bone Man\02 - Innocent Man.wav
Peak level 98.4 % Extraction speed 1.2 X Track quality 100.0 % Test CRC 9011B0DB Copy CRC 9011B0DB Track not present in AccurateRip database Copy OK
Track 3
Filename C:\Users\peter\Music\Rag'n'Bone Man\03 - Skin.wav
Peak level 100.0 % Extraction speed 1.3 X Track quality 100.0 % Test CRC C1413F92 Copy CRC C1413F92 Track not present in AccurateRip database Copy OK
Track 4
Filename C:\Users\peter\Music\Rag'n'Bone Man\04 - Bitter End.wav
Peak level 100.0 % Extraction speed 1.4 X Track quality 100.0 % Test CRC 1FDDC7B3 Copy CRC 1FDDC7B3 Track not present in AccurateRip database Copy OK
Track 5
Filename C:\Users\peter\Music\Rag'n'Bone Man\05 - Be The Man.wav
Peak level 100.0 % Extraction speed 1.3 X Track quality 99.9 % Test CRC B2A64826 Copy CRC B2A64826 Track not present in AccurateRip database Copy OK
Track 6
Filename C:\Users\peter\Music\Rag'n'Bone Man\06 - Love You Any Less.wav
Peak level 100.0 % Extraction speed 1.6 X Track quality 100.0 % Test CRC 45853769 Copy CRC 45853769 Track not present in AccurateRip database Copy OK
Track 7
Filename C:\Users\peter\Music\Rag'n'Bone Man\07 - Odetta.wav
Peak level 100.0 % Extraction speed 1.7 X Track quality 100.0 % Test CRC 9CCBFC88 Copy CRC 9CCBFC88 Track not present in AccurateRip database Copy OK
Track 8
Filename C:\Users\peter\Music\Rag'n'Bone Man\08 - Grace.wav
Peak level 100.0 % Extraction speed 1.7 X Track quality 100.0 % Test CRC BECDF630 Copy CRC BECDF630 Track not present in AccurateRip database Copy OK
Track 9
Filename C:\Users\peter\Music\Rag'n'Bone Man\09 - Ego.wav
Peak level 100.0 % Extraction speed 1.8 X Track quality 100.0 % Test CRC 5CACC92C Copy CRC 5CACC92C Track not present in AccurateRip database Copy OK
Track 10
Filename C:\Users\peter\Music\Rag'n'Bone Man\10 - Arrow.wav
Peak level 100.0 % Extraction speed 1.9 X Track quality 100.0 % Test CRC 6F9B7529 Copy CRC 6F9B7529 Track not present in AccurateRip database Copy OK
Track 11
Filename C:\Users\peter\Music\Rag'n'Bone Man\11 - As You Are.wav
Peak level 100.0 % Extraction speed 2.0 X Track quality 100.0 % Test CRC 2ECB6A32 Copy CRC 2ECB6A32 Track not present in AccurateRip database Copy OK
Track 12
Filename C:\Users\peter\Music\Rag'n'Bone Man\12 - Die Easy.wav
Peak level 100.0 % Extraction speed 1.9 X Track quality 100.0 % Test CRC 8EA3E18A Copy CRC 8EA3E18A Track not present in AccurateRip database Copy OK
Track 13
Filename C:\Users\peter\Music\Rag'n'Bone Man\13 - The Fire.wav
Peak level 100.0 % Extraction speed 2.1 X Track quality 100.0 % Test CRC AE068340 Copy CRC AE068340 Track not present in AccurateRip database Copy OK
Track 14
Filename C:\Users\peter\Music\Rag'n'Bone Man\14 - Fade To Nothing.wav
Peak level 100.0 % Extraction speed 2.2 X Track quality 100.0 % Test CRC 8C6F1ECF Copy CRC 8C6F1ECF Track not present in AccurateRip database Copy OK
Track 15
Filename C:\Users\peter\Music\Rag'n'Bone Man\15 - Life In Her Yet.wav
Peak level 100.0 % Extraction speed 2.1 X Track quality 100.0 % Test CRC F5F8DDCE Copy CRC F5F8DDCE Track not present in AccurateRip database Copy OK
Track 16
Filename C:\Users\peter\Music\Rag'n'Bone Man\16 - Your Way Or The Rope.wav
Peak level 100.0 % Extraction speed 2.2 X Track quality 100.0 % Test CRC 2E14B325 Copy CRC 2E14B325 Track not present in AccurateRip database Copy OK
Track 17
Filename C:\Users\peter\Music\Rag'n'Bone Man\17 - Lay My Body Down.wav
Peak level 100.0 % Extraction speed 2.0 X Track quality 99.9 % Test CRC 31B3C42F Copy CRC 31B3C42F Track not present in AccurateRip database Copy OK
Track 18
Filename C:\Users\peter\Music\Rag'n'Bone Man\18 - Wolves.wav
Peak level 100.0 % Extraction speed 2.3 X Track quality 100.0 % Test CRC 52AFC2A0 Copy CRC 52AFC2A0 Track not present in AccurateRip database Copy OK
Track 19
Filename C:\Users\peter\Music\Rag'n'Bone Man\19 - Healed.wav
Peak level 96.5 % Extraction speed 2.3 X Track quality 100.0 % Test CRC 91934E11 Copy CRC 91934E11 Track not present in AccurateRip database Copy OK
None of the tracks are present in the AccurateRip database
No errors occurred
End of status report
---- CUETools DB Plugin V2.1.6
[CTDB TOCID: 6cPtGJzKPJQ4Ha4BQkffxyefmD0-] foundSubmit result: already submittedTrack | CTDB Status 1 | (32/32) Accurately ripped 2 | (32/32) Accurately ripped 3 | (32/32) Accurately ripped 4 | (32/32) Accurately ripped 5 | (32/32) Accurately ripped 6 | (32/32) Accurately ripped 7 | (32/32) Accurately ripped 8 | (32/32) Accurately ripped 9 | (32/32) Accurately ripped 10 | (32/32) Accurately ripped 11 | (32/32) Accurately ripped 12 | (32/32) Accurately ripped 13 | (32/32) Accurately ripped 14 | (32/32) Accurately ripped 15 | (32/32) Accurately ripped 16 | (32/32) Accurately ripped 17 | (32/32) Accurately ripped 18 | (32/32) Accurately ripped 19 | (32/32) Accurately ripped
==== Log checksum 664FC5021385491AEE9D01B39117A3B3F255AB5F56908500B25C9F6AC206E953 ====

CUE:

REM GENRE IndieREM DATE 2017REM DISCID F70F3D13REM COMMENT "ExactAudioCopy v1.1"CATALOG 0889853985524PERFORMER "Rag'n'Bone Man"TITLE "Human (Deluxe)"FILE "01 - Human.wav" WAVE  TRACK 01 AUDIO    TITLE "Human"    PERFORMER "Rag'n'Bone Man"    ISRC GBARL1600665    INDEX 01 00:00:00FILE "02 - Innocent Man.wav" WAVE  TRACK 02 AUDIO    TITLE "Innocent Man"    PERFORMER "Rag'n'Bone Man"    ISRC GBARL1601646    INDEX 01 00:00:00FILE "03 - Skin.wav" WAVE  TRACK 03 AUDIO    TITLE "Skin"    PERFORMER "Rag'n'Bone Man"    ISRC GBARL1601147    INDEX 01 00:00:00FILE "04 - Bitter End.wav" WAVE  TRACK 04 AUDIO    TITLE "Bitter End"    PERFORMER "Rag'n'Bone Man"    ISRC GBARL1601722    INDEX 01 00:00:00FILE "05 - Be The Man.wav" WAVE  TRACK 05 AUDIO    TITLE "Be The Man"    PERFORMER "Rag'n'Bone Man"    ISRC GBARL1601643    INDEX 01 00:00:00FILE "06 - Love You Any Less.wav" WAVE  TRACK 06 AUDIO    TITLE "Love You Any Less"    PERFORMER "Rag'n'Bone Man"    ISRC GBARL1601648    INDEX 01 00:00:00FILE "07 - Odetta.wav" WAVE  TRACK 07 AUDIO    TITLE "Odetta"    PERFORMER "Rag'n'Bone Man"    ISRC GBARL1601647    INDEX 01 00:00:00FILE "08 - Grace.wav" WAVE  TRACK 08 AUDIO    TITLE "Grace"    PERFORMER "Rag'n'Bone Man"    ISRC GBARL1601651    INDEX 01 00:00:00FILE "09 - Ego.wav" WAVE  TRACK 09 AUDIO    TITLE "Ego"    PERFORMER "Rag'n'Bone Man"    ISRC GBARL1601645    INDEX 01 00:00:00FILE "10 - Arrow.wav" WAVE  TRACK 10 AUDIO    TITLE "Arrow"    PERFORMER "Rag'n'Bone Man"    ISRC GBARL1601649    INDEX 01 00:00:00FILE "11 - As You Are.wav" WAVE  TRACK 11 AUDIO    TITLE "As You Are"    PERFORMER "Rag'n'Bone Man"    ISRC GBARL1601644    INDEX 01 00:00:00FILE "12 - Die Easy.wav" WAVE  TRACK 12 AUDIO    TITLE "Die Easy"    PERFORMER "Rag'n'Bone Man"    ISRC GBARL1601087    INDEX 01 00:00:00FILE "13 - The Fire.wav" WAVE  TRACK 13 AUDIO    TITLE "The Fire"    PERFORMER "Rag'n'Bone Man"    ISRC GBARL1601715    INDEX 01 00:00:00FILE "14 - Fade To Nothing.wav" WAVE  TRACK 14 AUDIO    TITLE "Fade To Nothing"    PERFORMER "Rag'n'Bone Man"    ISRC GBARL1601716    INDEX 01 00:00:00FILE "15 - Life In Her Yet.wav" WAVE  TRACK 15 AUDIO    TITLE "Life In Her Yet"    PERFORMER "Rag'n'Bone Man"    ISRC GBARL1601723    INDEX 01 00:00:00FILE "16 - Your Way Or The Rope.wav" WAVE  TRACK 16 AUDIO    TITLE "Your Way Or The Rope"    PERFORMER "Rag'n'Bone Man"    ISRC GBARL1601650    INDEX 01 00:00:00FILE "17 - Lay My Body Down.wav" WAVE  TRACK 17 AUDIO    TITLE "Lay My Body Down"    PERFORMER "Rag'n'Bone Man"    ISRC GBARL1601725    INDEX 01 00:00:00FILE "18 - Wolves.wav" WAVE  TRACK 18 AUDIO    TITLE "Wolves"    PERFORMER "Rag'n'Bone Man"    ISRC GBARL1601724    INDEX 01 00:00:00FILE "19 - Healed.wav" WAVE  TRACK 19 AUDIO    TITLE "Healed"    PERFORMER "Rag'n'Bone Man"    ISRC GBARL1600418    INDEX 01 00:00:00
Вы не можете начинать темы
Вы не можете отвечать на сообщения
Вы не можете редактировать свои сообщения
Вы не можете удалять свои сообщения
Вы не можете голосовать в опросах
Вы не можете прикреплять файлы к сообщениям
Вы можете скачивать файлы
!ВНИМАНИЕ!

Сайт не предоставляет электронные версии произведений, а занимается лишь коллекционированием и каталогизацией ссылок, присылаемых и публикуемых на форуме нашими читателями. Если вы являетесь правообладателем какого-либо представленного материала и не желаете, чтобы ссылка на него находилась в нашем каталоге, свяжитесь с нами, и мы незамедлительно удалим ее. Файлы для обмена на трекере предоставлены пользователями сайта, и администрация не несет ответственности за их содержание. Просьба не заливать файлы, защищенные авторскими правами, а также файлы нелегального содержания!

Искали программы, игры, дополнения, музыка mp3, аниме, аудио книги, журналы? Добро пожаловать на свободный торрент трекер Torrents, у нас можно скачать бесплатно, без смс и регистрации и прочих ограничений лучшие, отборные сборки программ, игр. Скачать торрентом не составит труда даже не опытному пользователю. Раздачи ежедневно обновляются, только лучшие и качественные раздачи, подробные описания и скриншоты. Огромная коллекция программ для работы со звуком, графикой, дизайном, а так же множество плагинов и инструментов к ним с подробной инструкцией и рекомендациями. Прошивки для навигаторов, карты. Разнообразные игры, для Windows, Linux. В коллекцие есть и старые игры любых жанров, Rpg, Action, Shooter, strategy Множество дополнений, модификаций, сценариев для популярных игр в жанре экш, рпг, гонки, стратегии, логические игры. Множество аддонов и сценариев для Microsoft Flight Simulator Большая коллекция книг, учебников. Если нет возможности купить печатное издание - смело скачивайте цифровую версию книги или, быть может, журнала. Не любите читать - можно загрузить бесплатно аудикнигу. Для веб дизайнеров и программистов так же найдется множество специализированного софта, таких как: редакторы с подсветкой, среды программирования, компоненты, системы управления базами данных, разнообразные скрипты и шаблоны. Не так давно у нас появился материал для автолюбителей и владельцев мото - оригинальные и неоригинальные каталоги запчастей, книги и журналы по ремонту и обслуживанию, видеоуроки, статьи по чип тюнингу, прошивкам. Процедура получения контента элементарная, достаточно просто скачать торрент файл и добавить его в загрузку в вашем торрент клиенте. Если у вас нет специального торрент клиента, вы можете его скачать у нас.