Robotech Season 2 The Masters Complete 480p [ENGLISH] [NOSUBS] [i_c] | Minecraft 1.5.2 | Sui Dhaaga | 2018 Watch Full Hindi Online - 1-3 Pre Dvd Rip

(Rock & Roll, Pop Rock, Blues Rock) [CD] Tommy Conwell & The Young Rumblers - Rumble - 1988, FLAC (tracks+.cue), lossless 

Цитировать
Tommy Conwell & The Young Rumblers / Rumble
Жанр: Rock & Roll, Pop Rock, Blues Rock
Носитель: CD
Страна-производитель диска (релиза): Canada
Год издания: 1988
Издатель (лейбл): Columbia
Номер по каталогу: CK 4418
Аудиокодек: FLAC (*.flac)
Тип рипа: tracks+.cue
Битрейт аудио: lossless
Продолжительность: 0:41:58.
Источник (релизер): clustert
Наличие сканов в содержимом раздачи: да
Треклист:
01. I'm Not Your Man [0:04:16.42]
02. Half A Heart [0:03:39.50]
03. If We Never Meet Again [0:04:43.35]
04. Love's On Fire [0:04:34.05]
05. Workout [0:03:38.33]
06. I Wanna Make You Happy [0:04:48.27]
07. Everything They Say Is True [0:03:59.03]
08. Gonna Breakdown [0:04:57.52]
09. Tell Me What You Want Me To Be [0:03:26.30]
10. Walkin' On The Water [0:03:55.13]

Лог создания рипа

Exact Audio Copy V1.0 beta 3 from 29. August 2011
Отчёт EAC об извлечении, выполненном 5. июля 2018, 22:38
Tommy Conwell & The Young Rumblers / Rumble
Дисковод: ASUS DRW-1814BLT Adapter: 5 ID: 0
Режим чтения : ДостоверностьИспользование точного потока : ДаОтключение кэша аудио : ДаИспользование указателей C2 : Нет
Коррекция смещения при чтении : 6Способность читать области Lead-in и Lead-out : НетЗаполнение пропущенных сэмплов тишиной : ДаУдаление блоков с тишиной в начале и конце : НетПри вычислениях CRC использовались нулевые сэмплы : ДаИнтерфейс : Встроенный Win32-интерфейс для Win NT/2000Обработка зазоров : Добавлено к предыдущему треку
Выходной формат : Пользовательский кодировщикВыбранный битрейт : 128 kBit/sКачество : ВысокийДобавление ID3-тега : НетУтилита сжатия : C:\Program Files\Exact Audio Copy\Flac\flac.exeДополнительные параметры : -V -8 -T "Genre=%genre%" -T "Artist=%artist%" -T "Title=%title%" -T "Album=%albumtitle%" -T "Date=%year%" -T "Tracknumber=%tracknr%" -T "Comment=EAC1.0b2 FLAC -8" %source%
TOC извлечённого CD
Трек | Старт | Длительность | Начальный сектор | Конечный сектор --------------------------------------------------------------------- 1 | 0:00.00 | 4:16.42 | 0 | 19241 2 | 4:16.42 | 3:39.50 | 19242 | 35716 3 | 7:56.17 | 4:43.35 | 35717 | 56976 4 | 12:39.52 | 4:34.05 | 56977 | 77531 5 | 17:13.57 | 3:38.33 | 77532 | 93914 6 | 20:52.15 | 4:48.27 | 93915 | 115541 7 | 25:40.42 | 3:59.03 | 115542 | 133469 8 | 29:39.45 | 4:57.52 | 133470 | 155796 9 | 34:37.22 | 3:26.30 | 155797 | 171276 10 | 38:03.52 | 3:55.13 | 171277 | 188914
Трек 1
Имя файла R:\Раздача 78\Tommy Conwell and the Young Rumblers - 1988 - Rumble\01 I'm Not Your Man .wav
Длина предзазора 0:00:02.00
Пиковый уровень 73.8 % Скорость извлечения 4.6 X Качество трека 100.0 % CRC теста B3F4B609 CRC копии B3F4B609 Трек не обнаружен в базе AccurateRip Копирование... OK
Трек 2
Имя файла R:\Раздача 78\Tommy Conwell and the Young Rumblers - 1988 - Rumble\02 Half A Heart .wav
Длина предзазора 0:00:01.05
Пиковый уровень 73.7 % Скорость извлечения 5.8 X Качество трека 100.0 % CRC теста F58C914B CRC копии F58C914B Трек не обнаружен в базе AccurateRip Копирование... OK
Трек 3
Имя файла R:\Раздача 78\Tommy Conwell and the Young Rumblers - 1988 - Rumble\03 If We Never Meet Again .wav
Длина предзазора 0:00:01.02
Пиковый уровень 69.7 % Скорость извлечения 6.6 X Качество трека 100.0 % CRC теста B52E74B1 CRC копии B52E74B1 Трек не обнаружен в базе AccurateRip Копирование... OK
Трек 4
Имя файла R:\Раздача 78\Tommy Conwell and the Young Rumblers - 1988 - Rumble\04 Love's On Fire .wav
Длина предзазора 0:00:01.00
Пиковый уровень 62.2 % Скорость извлечения 7.0 X Качество трека 100.0 % CRC теста 23B5CF23 CRC копии 23B5CF23 Трек не обнаружен в базе AccurateRip Копирование... OK
Трек 5
Имя файла R:\Раздача 78\Tommy Conwell and the Young Rumblers - 1988 - Rumble\05 Workout .wav
Длина предзазора 0:00:02.30
Пиковый уровень 67.5 % Скорость извлечения 5.4 X Качество трека 99.9 % CRC теста 1AE1BD40 CRC копии 1AE1BD40 Трек не обнаружен в базе AccurateRip Копирование... OK
Трек 6
Имя файла R:\Раздача 78\Tommy Conwell and the Young Rumblers - 1988 - Rumble\06 I Wanna Make You Happy .wav
Длина предзазора 0:00:02.63
Пиковый уровень 90.1 % Скорость извлечения 7.9 X Качество трека 100.0 % CRC теста 57ABD4B5 CRC копии 57ABD4B5 Трек не обнаружен в базе AccurateRip Копирование... OK
Трек 7
Имя файла R:\Раздача 78\Tommy Conwell and the Young Rumblers - 1988 - Rumble\07 Everything They Say Is True .wav
Длина предзазора 0:00:02.52
Пиковый уровень 90.1 % Скорость извлечения 6.1 X Качество трека 99.9 % CRC теста B53E1787 CRC копии B53E1787 Трек не обнаружен в базе AccurateRip Копирование... OK
Трек 8
Имя файла R:\Раздача 78\Tommy Conwell and the Young Rumblers - 1988 - Rumble\08 Gonna Breakdown .wav
Длина предзазора 0:00:01.55
Пиковый уровень 68.9 % Скорость извлечения 7.4 X Качество трека 100.0 % CRC теста 2F534F1A CRC копии 2F534F1A Трек не обнаружен в базе AccurateRip Копирование... OK
Трек 9
Имя файла R:\Раздача 78\Tommy Conwell and the Young Rumblers - 1988 - Rumble\09 Tell Me What You Want Me To Be .wav
Длина предзазора 0:00:01.72
Пиковый уровень 68.4 % Скорость извлечения 8.5 X Качество трека 100.0 % CRC теста 66232DB6 CRC копии 66232DB6 Трек не обнаружен в базе AccurateRip Копирование... OK
Трек 10
Имя файла R:\Раздача 78\Tommy Conwell and the Young Rumblers - 1988 - Rumble\10 Walkin' On The Water .wav
Длина предзазора 0:00:01.20
Пиковый уровень 65.1 % Скорость извлечения 9.0 X Качество трека 100.0 % CRC теста 3366FD98 CRC копии 3366FD98 Трек не обнаружен в базе AccurateRip Копирование... OK
Ни одного трека нет в базе AccurateRip
Ошибок не произошло
Конец отчёта
==== Контрольная сумма отчёта 13D8CEBA49F7E263383F2448D4A89472654826FA80AD650C13DC885644907A4E ====

Содержание индексной карты (.CUE)

REM GENRE RockREM DATE 1988REM DISCID 8709D60AREM COMMENT "ExactAudioCopy v1.0b3"PERFORMER "Tommy Conwell & The Young Rumblers"TITLE "Rumble"FILE "01 I'm Not Your Man .wav" WAVE  TRACK 01 AUDIO    TITLE "I'm Not Your Man"    PERFORMER "Tommy Conwell & The Young Rumblers"    INDEX 01 00:00:00  TRACK 02 AUDIO    TITLE "Half A Heart"    PERFORMER "Tommy Conwell & The Young Rumblers"    INDEX 00 04:15:37FILE "02 Half A Heart .wav" WAVE    INDEX 01 00:00:00  TRACK 03 AUDIO    TITLE "If We Never Meet Again"    PERFORMER "Tommy Conwell & The Young Rumblers"    INDEX 00 03:38:48FILE "03 If We Never Meet Again .wav" WAVE    INDEX 01 00:00:00  TRACK 04 AUDIO    TITLE "Love's On Fire"    PERFORMER "Tommy Conwell & The Young Rumblers"    INDEX 00 04:42:35FILE "04 Love's On Fire .wav" WAVE    INDEX 01 00:00:00  TRACK 05 AUDIO    TITLE "Workout"    PERFORMER "Tommy Conwell & The Young Rumblers"    INDEX 00 04:31:50FILE "05 Workout .wav" WAVE    INDEX 01 00:00:00  TRACK 06 AUDIO    TITLE "I Wanna Make You Happy"    PERFORMER "Tommy Conwell & The Young Rumblers"    INDEX 00 03:35:45FILE "06 I Wanna Make You Happy .wav" WAVE    INDEX 01 00:00:00  TRACK 07 AUDIO    TITLE "Everything They Say Is True"    PERFORMER "Tommy Conwell & The Young Rumblers"    INDEX 00 04:45:50FILE "07 Everything They Say Is True .wav" WAVE    INDEX 01 00:00:00  TRACK 08 AUDIO    TITLE "Gonna Breakdown"    PERFORMER "Tommy Conwell & The Young Rumblers"    INDEX 00 03:57:23FILE "08 Gonna Breakdown .wav" WAVE    INDEX 01 00:00:00  TRACK 09 AUDIO    TITLE "Tell Me What You Want Me To Be"    PERFORMER "Tommy Conwell & The Young Rumblers"    INDEX 00 04:55:55FILE "09 Tell Me What You Want Me To Be .wav" WAVE    INDEX 01 00:00:00  TRACK 10 AUDIO    TITLE "Walkin' On The Water"    PERFORMER "Tommy Conwell & The Young Rumblers"    INDEX 00 03:25:10FILE "10 Walkin' On The Water .wav" WAVE    INDEX 01 00:00:00
Вы не можете начинать темы
Вы не можете отвечать на сообщения
Вы не можете редактировать свои сообщения
Вы не можете удалять свои сообщения
Вы не можете голосовать в опросах
Вы не можете прикреплять файлы к сообщениям
Вы можете скачивать файлы
!ВНИМАНИЕ!

Сайт не предоставляет электронные версии произведений, а занимается лишь коллекционированием и каталогизацией ссылок, присылаемых и публикуемых на форуме нашими читателями. Если вы являетесь правообладателем какого-либо представленного материала и не желаете, чтобы ссылка на него находилась в нашем каталоге, свяжитесь с нами, и мы незамедлительно удалим ее. Файлы для обмена на трекере предоставлены пользователями сайта, и администрация не несет ответственности за их содержание. Просьба не заливать файлы, защищенные авторскими правами, а также файлы нелегального содержания!

Искали программы, игры, дополнения, музыка mp3, аниме, аудио книги, журналы? Добро пожаловать на свободный торрент трекер Torrents, у нас можно скачать бесплатно, без смс и регистрации и прочих ограничений лучшие, отборные сборки программ, игр. Скачать торрентом не составит труда даже не опытному пользователю. Раздачи ежедневно обновляются, только лучшие и качественные раздачи, подробные описания и скриншоты. Огромная коллекция программ для работы со звуком, графикой, дизайном, а так же множество плагинов и инструментов к ним с подробной инструкцией и рекомендациями. Прошивки для навигаторов, карты. Разнообразные игры, для Windows, Linux. В коллекцие есть и старые игры любых жанров, Rpg, Action, Shooter, strategy Множество дополнений, модификаций, сценариев для популярных игр в жанре экш, рпг, гонки, стратегии, логические игры. Множество аддонов и сценариев для Microsoft Flight Simulator Большая коллекция книг, учебников. Если нет возможности купить печатное издание - смело скачивайте цифровую версию книги или, быть может, журнала. Не любите читать - можно загрузить бесплатно аудикнигу. Для веб дизайнеров и программистов так же найдется множество специализированного софта, таких как: редакторы с подсветкой, среды программирования, компоненты, системы управления базами данных, разнообразные скрипты и шаблоны. Не так давно у нас появился материал для автолюбителей и владельцев мото - оригинальные и неоригинальные каталоги запчастей, книги и журналы по ремонту и обслуживанию, видеоуроки, статьи по чип тюнингу, прошивкам. Процедура получения контента элементарная, достаточно просто скачать торрент файл и добавить его в загрузку в вашем торрент клиенте. Если у вас нет специального торрент клиента, вы можете его скачать у нас.