Shindere Shoujo to Kodoku na Shinigami | Colors Tv Past Shows | The Housing Enforcers: ...

(R&B, Rock\'n\'Roll, Oldies, Girl Group) [CD] The Ronettes - Presenting the Fabulous Ronettes featuring Veronica - (1964) 2011, FLAC (image+.cue), lossless 

Цитировать
The Ronettes / Presenting the Fabulous Ronettes featuring Veronica
Жанр: R&B, Rock'n'Roll, Oldies, Girl Group
Носитель: CD
Страна-производитель диска (релиза): Japan
Год издания: (1964) 2011
Издатель (лейбл): Phil Spector/EMI/Sony
Номер по каталогу: SICP 4525
Аудиокодек: FLAC (*.flac)
Тип рипа: image+.cue
Битрейт аудио: lossless
Продолжительность: 00:36:40
Источник (релизер): Own CD & Rip
Наличие сканов в содержимом раздачи: да
Треклист:
01. Walking in the Rain
02. Do I Love You?
03. So Young
04. (The Best Part of) Breakin' Up
05. I Wonder
06. What'd I Say
07. Be My Baby
08. You Baby
09. Baby, I Love You
10. How Does it Feel?
11. When I Saw You
12. Chapel of Love

Лог создания рипа

Exact Audio Copy V1.3 from 2. September 2016
EAC extraction logfile from 31. July 2018, 18:56
The Ronettes / Presenting the Fabulous Ronettes featuring Veronica
Used drive : ATAPI iHAS124 F Adapter: 1 ID: 1
Read mode : SecureUtilize accurate stream : YesDefeat audio cache : YesMake use of C2 pointers : No
Read offset correction : 6Overread into Lead-In and Lead-Out : NoFill up missing offset samples with silence : YesDelete leading and trailing silent blocks : NoNull samples used in CRC calculations : YesUsed interface : Native Win32 interface for Win NT & 2000
Used output format : User Defined EncoderSelected bitrate : 1024 kBit/sQuality : HighAdd ID3 tag : NoCommand line compressor : C:\Program Files (x86)\Exact Audio Copy\Flac\flac.exeAdditional command line options : -V -6 %source% -o %dest%
TOC of the extracted CD
Track | Start | Length | Start sector | End sector --------------------------------------------------------- 1 | 0:00.00 | 3:18.46 | 0 | 14895 2 | 3:18.46 | 2:58.18 | 14896 | 28263 3 | 6:16.64 | 2:38.32 | 28264 | 40145 4 | 8:55.21 | 3:06.34 | 40146 | 54129 5 | 12:01.55 | 2:51.50 | 54130 | 67004 6 | 14:53.30 | 4:44.45 | 67005 | 88349 7 | 19:38.00 | 2:43.35 | 88350 | 100609 8 | 22:21.35 | 2:57.64 | 100610 | 113948 9 | 25:19.24 | 2:53.67 | 113949 | 126990 10 | 28:13.16 | 2:43.08 | 126991 | 139223 11 | 30:56.24 | 2:45.25 | 139224 | 151623 12 | 33:41.49 | 2:58.30 | 151624 | 165003
Range status and errors
Selected range
Filename D:\WORKING\The Ronettes - Presenting the Fabulous Ronettes featuring Veronica.wav
Peak level 100.0 % Extraction speed 5.3 X Range quality 100.0 % Test CRC 4F0D4C9D Copy CRC 4F0D4C9D Copy OK
No errors occurred
AccurateRip summary
Track 1 accurately ripped (confidence 18) [74485866] (AR v2)Track 2 accurately ripped (confidence 17) [503E81C3] (AR v2)Track 3 accurately ripped (confidence 16) [77FF5D6A] (AR v2)Track 4 accurately ripped (confidence 17) [D08B4A60] (AR v2)Track 5 accurately ripped (confidence 17) [6FE98D94] (AR v2)Track 6 accurately ripped (confidence 17) [251BFA2C] (AR v2)Track 7 accurately ripped (confidence 17) [E73624CC] (AR v2)Track 8 accurately ripped (confidence 16) [E49FB61A] (AR v2)Track 9 accurately ripped (confidence 16) [45C9F867] (AR v2)Track 10 accurately ripped (confidence 14) [3D0010BA] (AR v2)Track 11 accurately ripped (confidence 14) [2F4BC371] (AR v2)Track 12 accurately ripped (confidence 18) [0FC6ADC1] (AR v2)
All tracks accurately ripped
End of status report
---- CUETools DB Plugin V2.1.6
[CTDB TOCID: DpbZv8h.LczX1Vx70DEjIc1oinQ-] foundSubmit result: DpbZv8h.LczX1Vx70DEjIc1oinQ- has been confirmedTrack | CTDB Status 1 | (86/87) Accurately ripped 2 | (87/87) Accurately ripped 3 | (87/87) Accurately ripped 4 | (87/87) Accurately ripped 5 | (87/87) Accurately ripped 6 | (87/87) Accurately ripped 7 | (87/87) Accurately ripped 8 | (87/87) Accurately ripped 9 | (84/87) Accurately ripped 10 | (84/87) Accurately ripped 11 | (84/87) Accurately ripped 12 | (85/87) Accurately ripped
==== Log checksum FD407735F1DB4EDE85E8035CB364D242BCF1D494CDCFC36468BA1B8C0974474C ====
Вы не можете начинать темы
Вы не можете отвечать на сообщения
Вы не можете редактировать свои сообщения
Вы не можете удалять свои сообщения
Вы не можете голосовать в опросах
Вы не можете прикреплять файлы к сообщениям
Вы можете скачивать файлы
!ВНИМАНИЕ!

Сайт не предоставляет электронные версии произведений, а занимается лишь коллекционированием и каталогизацией ссылок, присылаемых и публикуемых на форуме нашими читателями. Если вы являетесь правообладателем какого-либо представленного материала и не желаете, чтобы ссылка на него находилась в нашем каталоге, свяжитесь с нами, и мы незамедлительно удалим ее. Файлы для обмена на трекере предоставлены пользователями сайта, и администрация не несет ответственности за их содержание. Просьба не заливать файлы, защищенные авторскими правами, а также файлы нелегального содержания!

Искали программы, игры, дополнения, музыка mp3, аниме, аудио книги, журналы? Добро пожаловать на свободный торрент трекер Torrents, у нас можно скачать бесплатно, без смс и регистрации и прочих ограничений лучшие, отборные сборки программ, игр. Скачать торрентом не составит труда даже не опытному пользователю. Раздачи ежедневно обновляются, только лучшие и качественные раздачи, подробные описания и скриншоты. Огромная коллекция программ для работы со звуком, графикой, дизайном, а так же множество плагинов и инструментов к ним с подробной инструкцией и рекомендациями. Прошивки для навигаторов, карты. Разнообразные игры, для Windows, Linux. В коллекцие есть и старые игры любых жанров, Rpg, Action, Shooter, strategy Множество дополнений, модификаций, сценариев для популярных игр в жанре экш, рпг, гонки, стратегии, логические игры. Множество аддонов и сценариев для Microsoft Flight Simulator Большая коллекция книг, учебников. Если нет возможности купить печатное издание - смело скачивайте цифровую версию книги или, быть может, журнала. Не любите читать - можно загрузить бесплатно аудикнигу. Для веб дизайнеров и программистов так же найдется множество специализированного софта, таких как: редакторы с подсветкой, среды программирования, компоненты, системы управления базами данных, разнообразные скрипты и шаблоны. Не так давно у нас появился материал для автолюбителей и владельцев мото - оригинальные и неоригинальные каталоги запчастей, книги и журналы по ремонту и обслуживанию, видеоуроки, статьи по чип тюнингу, прошивкам. Процедура получения контента элементарная, достаточно просто скачать торрент файл и добавить его в загрузку в вашем торрент клиенте. Если у вас нет специального торрент клиента, вы можете его скачать у нас.