Men in Black (1997) | iCollections 4.4.1 | Blackburn (2015) DVDRip Full English Movie Watch Online Watch Blackburn (2015) DVDRip Full English Movie & Download Free. English Movie Blackburn (2015) DVDRip Full Cast and Crew Details. Film Name :- Blackburn (2015) DVDRip Film Directed By :- Lauro Chartrand Film Written by -- Nastasha Baron Starring of the Film :- Emilie Ullerup, Lochlyn Munro, Mike Dopud Genres -: Horror Origin Country -- Canada Film Language -- English   Option -1 NetuTV Player 1 Option -2 WatchVideo Player 2 Option -3 Openload Player 3 Option -4 VideoMega Player 4 Option -5 Videoweed Player ...

(Psychobilly) [CD] Koffin Kats - Party Time In The End Times - 2017, APE (tracks+.cue), lossless 

Цитировать
Koffin Kats / Party Time In The End Times
Жанр: Psychobilly
Носитель: CD
Страна-производитель диска (релиза): USA
Год издания: 2017
Издатель (лейбл): Koffin Kats Records
Номер по каталогу: KKR-001
Страна исполнителя (группы): USA
Аудиокодек: APE (*.ape)
Тип рипа: tracks+.cue
Битрейт аудио: lossless
Продолжительность: 00:35:04
Источник (релизер): underground2030
Наличие сканов в содержимом раздачи: да
Треклист:
01 A Path To Wickedness
02 Witch In The Woods
03 Nasty Weather
04 Party Time In The End Times
05 No Free Rides
06 Lack Knight Satellite
07 Outrun
08 Radiator Chains
09 Dark World
10 Pigs In The Grove
11 Until The Sun Explodes
12 Doesn't Really Matter

Лог создания рипа

Exact Audio Copy V1.3 from 2. September 2016
EAC extraction logfile from 9. August 2018, 12:57
Koffin Kats / Party Time In The End Times
Used drive : HL-DT-STDVDRAM GUE1N Adapter: 1 ID: 0
Read mode : SecureUtilize accurate stream : YesDefeat audio cache : YesMake use of C2 pointers : No
Read offset correction : 6Overread into Lead-In and Lead-Out : NoFill up missing offset samples with silence : YesDelete leading and trailing silent blocks : NoNull samples used in CRC calculations : YesUsed interface : Native Win32 interface for Win NT & 2000Gap handling : Appended to previous track
Used output format : User Defined EncoderSelected bitrate : 1024 kBit/sQuality : HighAdd ID3 tag : NoCommand line compressor : C:\Program Files\Monkey's Audio x64\MAC.exeAdditional command line options : %source% %dest% -c3000
TOC of the extracted CD
Track | Start | Length | Start sector | End sector --------------------------------------------------------- 1 | 0:00.00 | 2:43.70 | 0 | 12294 2 | 2:43.70 | 3:45.07 | 12295 | 29176 3 | 6:29.02 | 2:34.15 | 29177 | 40741 4 | 9:03.17 | 2:35.14 | 40742 | 52380 5 | 11:38.31 | 2:21.69 | 52381 | 63024 6 | 14:00.25 | 3:12.57 | 63025 | 77481 7 | 17:13.07 | 3:04.28 | 77482 | 91309 8 | 20:17.35 | 3:27.15 | 91310 | 106849 9 | 23:44.50 | 2:51.15 | 106850 | 119689 10 | 26:35.65 | 3:07.00 | 119690 | 133714 11 | 29:42.65 | 2:29.70 | 133715 | 144959 12 | 32:12.60 | 2:51.31 | 144960 | 157815
Track 1
Filename D:\Koffin Kats ‎- Party Time In The End Times\01 A Path To Wickedness.wav
Pre-gap length 0:00:02.00
Peak level 98.9 % Extraction speed 1.1 X Track quality 100.0 % Test CRC 59CBDAAC Copy CRC 59CBDAAC Accurately ripped (confidence 1) [E0D3C6C8] (AR v2) Copy OK
Track 2
Filename D:\Koffin Kats ‎- Party Time In The End Times\02 Witch In The Woods.wav
Peak level 98.9 % Extraction speed 1.1 X Track quality 99.9 % Test CRC C5036B82 Copy CRC C5036B82 Accurately ripped (confidence 1) [4FDB6EE6] (AR v2) Copy OK
Track 3
Filename D:\Koffin Kats ‎- Party Time In The End Times\03 Nasty Weather.wav
Peak level 98.9 % Extraction speed 1.2 X Track quality 100.0 % Test CRC 286CEA02 Copy CRC 286CEA02 Accurately ripped (confidence 1) [8E366F47] (AR v2) Copy OK
Track 4
Filename D:\Koffin Kats ‎- Party Time In The End Times\04 Party Time In The End Times.wav
Peak level 98.9 % Extraction speed 1.3 X Track quality 100.0 % Test CRC 5F9B8CCB Copy CRC 5F9B8CCB Accurately ripped (confidence 1) [75441ECD] (AR v2) Copy OK
Track 5
Filename D:\Koffin Kats ‎- Party Time In The End Times\05 No Free Rides.wav
Peak level 99.0 % Extraction speed 1.3 X Track quality 100.0 % Test CRC FED5CE09 Copy CRC FED5CE09 Accurately ripped (confidence 1) [44D4E7C2] (AR v2) Copy OK
Track 6
Filename D:\Koffin Kats ‎- Party Time In The End Times\06 lack Knight Satellite.wav
Peak level 100.0 % Extraction speed 1.5 X Track quality 100.0 % Test CRC 9A3FA845 Copy CRC 9A3FA845 Accurately ripped (confidence 1) [AF0EA67E] (AR v2) Copy OK
Track 7
Filename D:\Koffin Kats ‎- Party Time In The End Times\07 Outrun.wav
Peak level 98.9 % Extraction speed 1.6 X Track quality 100.0 % Test CRC 28F701C6 Copy CRC 28F701C6 Accurately ripped (confidence 1) [E981B0B1] (AR v2) Copy OK
Track 8
Filename D:\Koffin Kats ‎- Party Time In The End Times\08 Radiator Chains.wav
Peak level 98.9 % Extraction speed 1.7 X Track quality 100.0 % Test CRC 4142075E Copy CRC 4142075E Accurately ripped (confidence 1) [1F6327AB] (AR v2) Copy OK
Track 9
Filename D:\Koffin Kats ‎- Party Time In The End Times\09 Dark World.wav
Peak level 98.9 % Extraction speed 1.7 X Track quality 100.0 % Test CRC 7301C5D0 Copy CRC 7301C5D0 Accurately ripped (confidence 1) [07224586] (AR v2) Copy OK
Track 10
Filename D:\Koffin Kats ‎- Party Time In The End Times\10 Pigs In The Grove.wav
Peak level 98.9 % Extraction speed 1.8 X Track quality 100.0 % Test CRC 3659B3C2 Copy CRC 3659B3C2 Accurately ripped (confidence 1) [77139165] (AR v2) Copy OK
Track 11
Filename D:\Koffin Kats ‎- Party Time In The End Times\11 Until The Sun Explodes.wav
Peak level 98.9 % Extraction speed 1.8 X Track quality 100.0 % Test CRC 5AE1141A Copy CRC 5AE1141A Accurately ripped (confidence 1) [3E0EC0C3] (AR v2) Copy OK
Track 12
Filename D:\Koffin Kats ‎- Party Time In The End Times\12 Doesn't Really Matter.wav
Peak level 98.9 % Extraction speed 1.8 X Track quality 100.0 % Test CRC 0779517B Copy CRC 0779517B Accurately ripped (confidence 1) [806307C7] (AR v2) Copy OK
All tracks accurately ripped
No errors occurred
End of status report
---- CUETools DB Plugin V2.1.6
[CTDB TOCID: aGr2AMd.n4HQ354KXaZFxlfcI8w-] foundSubmit result: aGr2AMd.n4HQ354KXaZFxlfcI8w- has been confirmedTrack | CTDB Status 1 | (3/3) Accurately ripped 2 | (3/3) Accurately ripped 3 | (3/3) Accurately ripped 4 | (3/3) Accurately ripped 5 | (3/3) Accurately ripped 6 | (3/3) Accurately ripped 7 | (3/3) Accurately ripped 8 | (3/3) Accurately ripped 9 | (3/3) Accurately ripped 10 | (3/3) Accurately ripped 11 | (3/3) Accurately ripped 12 | (3/3) Accurately ripped
==== Log checksum 2AA196F710EA2441C707FCB7C5D463B4D2BFCFF1F1C5934411DEC4F05C7E0875 ====

Содержание индексной карты (.CUE)

REM GENRE PsychobillyREM DATE 2017REM DISCID 9C08380CREM COMMENT "ExactAudioCopy v1.3"PERFORMER "Koffin Kats"TITLE "Party Time In The End Times"REM COMPOSER ""FILE "01 A Path To Wickedness.wav" WAVE  TRACK 01 AUDIO    TITLE "A Path To Wickedness"    PERFORMER "Koffin Kats"    REM COMPOSER ""    INDEX 01 00:00:00FILE "02 Witch In The Woods.wav" WAVE  TRACK 02 AUDIO    TITLE "Witch In The Woods"    PERFORMER "Koffin Kats"    REM COMPOSER ""    INDEX 01 00:00:00FILE "03 Nasty Weather.wav" WAVE  TRACK 03 AUDIO    TITLE "Nasty Weather"    PERFORMER "Koffin Kats"    REM COMPOSER ""    INDEX 01 00:00:00FILE "04 Party Time In The End Times.wav" WAVE  TRACK 04 AUDIO    TITLE "Party Time In The End Times"    PERFORMER "Koffin Kats"    REM COMPOSER ""    INDEX 01 00:00:00FILE "05 No Free Rides.wav" WAVE  TRACK 05 AUDIO    TITLE "No Free Rides"    PERFORMER "Koffin Kats"    REM COMPOSER ""    INDEX 01 00:00:00FILE "06 lack Knight Satellite.wav" WAVE  TRACK 06 AUDIO    TITLE "lack Knight Satellite"    PERFORMER "Koffin Kats"    REM COMPOSER ""    INDEX 01 00:00:00FILE "07 Outrun.wav" WAVE  TRACK 07 AUDIO    TITLE "Outrun"    PERFORMER "Koffin Kats"    REM COMPOSER ""    INDEX 01 00:00:00FILE "08 Radiator Chains.wav" WAVE  TRACK 08 AUDIO    TITLE "Radiator Chains"    PERFORMER "Koffin Kats"    REM COMPOSER ""    INDEX 01 00:00:00FILE "09 Dark World.wav" WAVE  TRACK 09 AUDIO    TITLE "Dark World"    PERFORMER "Koffin Kats"    REM COMPOSER ""    INDEX 01 00:00:00FILE "10 Pigs In The Grove.wav" WAVE  TRACK 10 AUDIO    TITLE "Pigs In The Grove"    PERFORMER "Koffin Kats"    REM COMPOSER ""    INDEX 01 00:00:00FILE "11 Until The Sun Explodes.wav" WAVE  TRACK 11 AUDIO    TITLE "Until The Sun Explodes"    PERFORMER "Koffin Kats"    REM COMPOSER ""    INDEX 01 00:00:00FILE "12 Doesn't Really Matter.wav" WAVE  TRACK 12 AUDIO    TITLE "Doesn't Really Matter"    PERFORMER "Koffin Kats"    REM COMPOSER ""    INDEX 01 00:00:00
Вы не можете начинать темы
Вы не можете отвечать на сообщения
Вы не можете редактировать свои сообщения
Вы не можете удалять свои сообщения
Вы не можете голосовать в опросах
Вы не можете прикреплять файлы к сообщениям
Вы можете скачивать файлы
!ВНИМАНИЕ!

Сайт не предоставляет электронные версии произведений, а занимается лишь коллекционированием и каталогизацией ссылок, присылаемых и публикуемых на форуме нашими читателями. Если вы являетесь правообладателем какого-либо представленного материала и не желаете, чтобы ссылка на него находилась в нашем каталоге, свяжитесь с нами, и мы незамедлительно удалим ее. Файлы для обмена на трекере предоставлены пользователями сайта, и администрация не несет ответственности за их содержание. Просьба не заливать файлы, защищенные авторскими правами, а также файлы нелегального содержания!

Искали программы, игры, дополнения, музыка mp3, аниме, аудио книги, журналы? Добро пожаловать на свободный торрент трекер Torrents, у нас можно скачать бесплатно, без смс и регистрации и прочих ограничений лучшие, отборные сборки программ, игр. Скачать торрентом не составит труда даже не опытному пользователю. Раздачи ежедневно обновляются, только лучшие и качественные раздачи, подробные описания и скриншоты. Огромная коллекция программ для работы со звуком, графикой, дизайном, а так же множество плагинов и инструментов к ним с подробной инструкцией и рекомендациями. Прошивки для навигаторов, карты. Разнообразные игры, для Windows, Linux. В коллекцие есть и старые игры любых жанров, Rpg, Action, Shooter, strategy Множество дополнений, модификаций, сценариев для популярных игр в жанре экш, рпг, гонки, стратегии, логические игры. Множество аддонов и сценариев для Microsoft Flight Simulator Большая коллекция книг, учебников. Если нет возможности купить печатное издание - смело скачивайте цифровую версию книги или, быть может, журнала. Не любите читать - можно загрузить бесплатно аудикнигу. Для веб дизайнеров и программистов так же найдется множество специализированного софта, таких как: редакторы с подсветкой, среды программирования, компоненты, системы управления базами данных, разнообразные скрипты и шаблоны. Не так давно у нас появился материал для автолюбителей и владельцев мото - оригинальные и неоригинальные каталоги запчастей, книги и журналы по ремонту и обслуживанию, видеоуроки, статьи по чип тюнингу, прошивкам. Процедура получения контента элементарная, достаточно просто скачать торрент файл и добавить его в загрузку в вашем торрент клиенте. Если у вас нет специального торрент клиента, вы можете его скачать у нас.