Indian Idol 2018 | Kbayel Algeriene | Gekijouban Macross Delta: Gekijou no Walkre (2018)

Доктор Хаус / House M.D. / Сезон: 6 / Серии: 01-21 (21) (Дэвид Шор) [2009-2010, США, медицина, комедия, драма, детектив, BDRip 720p] (Original / LostFilm / Домашний / Sub) 

Цитировать
- Год выпуска: 2009-2010
Страна: США (FOX)
Жанр: медицина, комедия, драма, детектив
Продолжительность: ~ 00:44:00
Перевод:
• Профессиональный многоголосый закадровый - студия "Кравец"
• Профессиональный многоголосый закадровый - телеканал "Домашний"
Русские субтитры: есть
Английские субтитры: есть
Режиссёр: Дэвид Шор
В ролях: Хью Лори (Грегори Хаус), Лиза Эдельштейн (Лиза Кадди), Роберт Шон Леонард (Джеймс Уилсон), Омар Эппс (Эрик Форман), Джесси Спенсер (Роберт Чейз), Оливия Уайлд (Реми «Тринадцатая» Хадли), Питер Джейкобсон (Крис Тауб)
Описание: Сериал House, M.D. рассказывает о команде врачей, которые должны правильно поставить диагноз пациенту и спасти его. В принципе сериал представляет из себя вариацию схемы «врач как детектив», но в отличие от остальных сериалов, где врачи обследуют уже мертвого пациента, в House, M.D. больной находится еще в живых.
Возглавляет команду доктор Грегори Хаус, который ходит с тростью после того, как его мышечный инфаркт в правой ноге слишком поздно правильно диагностировали. Как врач Хаус просто гений, но сам не отличается проникновенностью в общении с больными и с удовольствием избегает их, если только есть возможность. Он сам всё время проводит в борьбе с собственной болью, а трость в его руке только подчеркивает его жесткую ядовитую манеру общения. Порой его поведение можно назвать почти бесчеловечным, и при этом он прекрасный врач, обладаюший нетипичным умом и безупречным инстинктом, что снискало ему глубокое уважение. Будучи инфекционистом, он ещё и замечательный диагност, который любит разгадывать медицинские загадки, чтобы спасти кому-то жизнь. Если бы все было по его воле, то Хаус лечил бы больных не выходя из своего кабинета.-Все раздачи сериала | Сэмпл | КиноПоиск | IMDb-Качество: BDRip 720p (SiNNERS)
Формат: MKV
Видео кодек: H.264
Аудио кодек: DTS, AC3
Видео: 1280x720 (16:9), ~5600 kbps, 23.976 fps, 0.253 bit/pixel, High@L4.1
Аудио #1: DTS, 48000 Hz, 6 ch, 1510 Kbps, 24 bit |Original|
Аудио #2: AC3, 48000 Hz, 6 ch, 384 Kbps, 16 bit |студия "Кравец"|
Аудио #3: AC3, 48000 Hz, 2 ch, 192 Kbps, 16 bit |телеканал "Домашний"|
Субтитры #1: RUS (полухардсаб)
Субтитры #2: ENG (полухардсаб)-За предоставленные русские субтитры огромное спасибо Juicy_J-

MI

O:\Фильмы\House M.D Season 6 BDRip 720p\House M.D. 08 - Ignorance is Bliss.mkv
   General
      Complete name : O:\Фильмы\House.Season 6.BD-Rip.1080p\House M.D Season 6 BDRip 720p\House M.D. 08 - Ignorance is Bliss.mkv
      Format : Matroska
      File size : 2.36 GiB
      Duration : 44mn 1s
      Overall bit rate : 7 683 Kbps
      Encoded date : UTC 2011-10-29 15:22:51
      Writing application : mkvmerge v4.8.0 ('I Got The...') ñáîðêà îò May 24 2011 03:12:58
      Writing library : libebml v1.2.0 + libmatroska v1.1.0
   Video #1
      ID : 1
      Format : AVC
      Format/Info : Advanced Video Codec
      Format profile : High@L4.1
      Format settings, CABAC : Yes
      Format settings, ReFrames : 5 frames
      Format settings, GOP : M=4, N=16
      Muxing mode : Container profile=Unknown@4.1
      Codec ID : V_MPEG4/ISO/AVC
      Duration : 44mn 1s
      Bit rate : 5 601 Kbps
      Width : 1 280 pixels
      Height : 720 pixels
      Display aspect ratio : 16:9
      Frame rate : 23.976 fps
      Color space : YUV
      Chroma subsampling : 4:2:0
      Bit depth : 8 bits
      Scan type : Progressive
      Bits/(Pixel*Frame) : 0.253
      Stream size : 1.67 GiB (71%)
      Title : 08. Счастье в неведении / Ignorance is Bliss
      Writing library : x264 core 104 r1703 cd21d05
      Encoding settings : cabac=1 / ref=5 / deblock=1:0:0 / analyse=0x3:0x113 / me=umh / subme=7 / psy=1 / psy_rd=1.00:0.00 / mixed_ref=1 / me_range=16 / chroma_me=1 / trellis=1 / 8x8dct=1 / cqm=0 / deadzone=21,11 / fast_pskip=0 / chroma_qp_offset=-2 / threads=12 / sliced_threads=0 / nr=0 / decimate=1 / interlaced=0 / constrained_intra=0 / bframes=3 / b_pyramid=2 / b_adapt=1 / b_bias=0 / direct=1 / weightb=1 / open_gop=0 / weightp=2 / keyint=250 / keyint_min=23 / scenecut=40 / intra_refresh=0 / rc_lookahead=40 / rc=2pass / mbtree=1 / bitrate=5601 / ratetol=1.0 / qcomp=0.60 / qpmin=10 / qpmax=51 / qpstep=4 / cplxblur=20.0 / qblur=0.5 / ip_ratio=1.40 / aq=1:1.00
   Audio #2
      ID : 2
      Format : DTS
      Format/Info : Digital Theater Systems
      Codec ID : A_DTS
      Duration : 44mn 1s
      Bit rate mode : Constant
      Bit rate : 1 510 Kbps
      Channel(s) : 6 channels
      Channel positions : Front: L C R, Side: L R, LFE
      Sampling rate : 48.0 KHz
      Bit depth : 24 bits
      Video delay : 11ms
      Stream size : 475 MiB (20%)
      Title : Original
   Audio #3
      ID : 3
      Format : AC-3
      Format/Info : Audio Coding 3
      Mode extension : CM (complete main)
      Codec ID : A_AC3
      Duration : 44mn 1s
      Bit rate mode : Constant
      Bit rate : 384 Kbps
      Channel(s) : 6 channels
      Channel positions : Front: L C R, Side: L R, LFE
      Sampling rate : 48.0 KHz
      Stream size : 121 MiB (5%)
      Title : Многоголосый закадровый - студия "Кравец"
      Language : Russian
   Audio #4
      ID : 4
      Format : AC-3
      Format/Info : Audio Coding 3
      Format profile : Dolby Digital
      Mode extension : CM (complete main)
      Codec ID : A_AC3
      Duration : 44mn 1s
      Bit rate mode : Constant
      Bit rate : 192 Kbps
      Channel(s) : 2 channels
      Channel positions : Front: L R
      Sampling rate : 48.0 KHz
      Stream size : 60.5 MiB (2%)
      Title : Многоголосый закадровый - телеканал "Домашний"
      Language : Russian
   Text #5
      ID : 5
      Format : UTF-8
      Codec ID : S_TEXT/UTF8
      Codec ID/Info : UTF-8 Plain Text
      Language : Russian
   Text #6
      ID : 6
      Format : UTF-8
      Codec ID : S_TEXT/UTF8
      Codec ID/Info : UTF-8 Plain Text

Скриншоты:


Список эпизодов:

01. Сломанный / Broken
02. Великое падение / Epic Fail
03. Тиран / The Tyrant
04. Карма в действии / Instant Karma
05. Храброе сердце / Brave Heart
06. Известные неизвестные / Known Unknowns
07. Командная игра / Teamwork
08. Счастье в неведении / Ignorance is Bliss
09. Уилсон / Wilson
10. Под прикрытием / The Down Low
11. Муки cовести / Remorse
12. На новый рубеж / Moving the Chains
13. С 5 до 9 / 5 to 9
14. Частная жизнь / Private Lives
15. Черная дыра / Black Hole
16. Изоляция / Lockdown
17. Падение рыцаря / Knight Fall
18. Свобода на час / Open and Shut
19. Выбор / The Choice
20. Багаж / Baggage
21. Помогите мне / Help Me
Вы не можете начинать темы
Вы не можете отвечать на сообщения
Вы не можете редактировать свои сообщения
Вы не можете удалять свои сообщения
Вы не можете голосовать в опросах
Вы не можете прикреплять файлы к сообщениям
Вы можете скачивать файлы
!ВНИМАНИЕ!

Сайт не предоставляет электронные версии произведений, а занимается лишь коллекционированием и каталогизацией ссылок, присылаемых и публикуемых на форуме нашими читателями. Если вы являетесь правообладателем какого-либо представленного материала и не желаете, чтобы ссылка на него находилась в нашем каталоге, свяжитесь с нами, и мы незамедлительно удалим ее. Файлы для обмена на трекере предоставлены пользователями сайта, и администрация не несет ответственности за их содержание. Просьба не заливать файлы, защищенные авторскими правами, а также файлы нелегального содержания!

Искали программы, игры, дополнения, музыка mp3, аниме, аудио книги, журналы? Добро пожаловать на свободный торрент трекер Torrents, у нас можно скачать бесплатно, без смс и регистрации и прочих ограничений лучшие, отборные сборки программ, игр. Скачать торрентом не составит труда даже не опытному пользователю. Раздачи ежедневно обновляются, только лучшие и качественные раздачи, подробные описания и скриншоты. Огромная коллекция программ для работы со звуком, графикой, дизайном, а так же множество плагинов и инструментов к ним с подробной инструкцией и рекомендациями. Прошивки для навигаторов, карты. Разнообразные игры, для Windows, Linux. В коллекцие есть и старые игры любых жанров, Rpg, Action, Shooter, strategy Множество дополнений, модификаций, сценариев для популярных игр в жанре экш, рпг, гонки, стратегии, логические игры. Множество аддонов и сценариев для Microsoft Flight Simulator Большая коллекция книг, учебников. Если нет возможности купить печатное издание - смело скачивайте цифровую версию книги или, быть может, журнала. Не любите читать - можно загрузить бесплатно аудикнигу. Для веб дизайнеров и программистов так же найдется множество специализированного софта, таких как: редакторы с подсветкой, среды программирования, компоненты, системы управления базами данных, разнообразные скрипты и шаблоны. Не так давно у нас появился материал для автолюбителей и владельцев мото - оригинальные и неоригинальные каталоги запчастей, книги и журналы по ремонту и обслуживанию, видеоуроки, статьи по чип тюнингу, прошивкам. Процедура получения контента элементарная, достаточно просто скачать торрент файл и добавить его в загрузку в вашем торрент клиенте. Если у вас нет специального торрент клиента, вы можете его скачать у нас.