SSNI289C | dj kusuka jamilah | A Leaf of Faith

Доктор Хаус / House M.D. / Сезон: 8 / Серии: 1-22 из 22 (Дэвид Шор) [2011, США, драма, детектив, BDRemux 1080p] MVO (LostFilm) + MVO (NewStudio) + MVO (Домашний) + Subs (Rus, Eng) + Original 

Цитировать
Доктор Хаус: Восьмой сезон
House M.D.: Season Eight
- Год выпуска: 2011
Страна: США
Жанр: драма, детектив
Продолжительность: 00:43:58
-Перевод:
  • профессиональный (многоголосый закадровый) LostFilm

  • профессиональный (многоголосый закадровый) NewStudio

  • профессиональный (многоголосый закадровый) Домашний
-Субтитры:
  • русские
  • английские
-Режиссер: Дэвид Шор
В ролях: Хью Лори, Роберт Шон Леонард, Лиза Эдельштейн, Омар Эппс, Джесси Спенсер, Дженнифер Моррисон, Питер Джекобсон, Оливия Уайлд, Кэл Пенн, Эмбер Тэмблин, Боббин Бергсторм, Одетт Эннэйбл, Шарлин Йи, Энн Дудек, Дженнифер Кристал, Лиз Бенуа, Стефани Вендитто, Села Уорд, Майкл Уэстон, Рон Перкинс, Эди Гатеги, Синтия Уэтрос, Дэвид Морс, Каролина Выдра, Трэйси Вилар
-Описание:
Сериал House, M.D. рассказывает о команде врачей, которые должны правильно поставить диагноз пациенту и спасти его. В принципе сериал представляет из себя вариацию схемы «врач как детектив», но в отличие от остальных сериалов, где врачи обследуют уже мертвого пациента, в House, M.D. больной находится еще в живых.
Возглавляет команду доктор Грегори Хаус, который ходит с тростью после того, как его мышечный инфаркт в правой ноге слишком поздно правильно диагностировали. Как врач Хаус просто гений, но сам не отличается проникновенностью в общении с больными и с удовольствием избегает их, если только есть возможность. Он сам всё время проводит в борьбе с собственной болью, а трость в его руке только подчеркивает его жесткую, ядовитую манеру общения. Порой его поведение можно назвать почти бесчеловечным, и при этом он прекрасный врач, обладающий нетипичным умом и безупречным инстинктом, что снискало ему глубокое уважение. Будучи инфекционистом, он ещё и замечательный диагност, который любит разгадывать медицинские загадки, чтобы спасти кому-то жизнь. Если бы все было по его воле, то Хаус лечил бы больных не выходя из своего кабинета.
-Информационные ссылки: КиноПоиск || IMDB-Качество: BDRemux 1080p
Формат: mkv
Видео: H.264, 1920x1080 (1.78:1), 21916 Kbps (~0.45 bit/pixel), 23.976 fps [1-5, 11-20]
Видео: VC-1, 1920x1080 (1.78:1), 23058 Kbps (~0.47 bit/pixel), 23.976 fps [6-10]
Видео: H.264, 1920x1080 (1.78:1), 29822 Kbps (~0.61 bit/pixel), 23.976 fps [21-22]
Аудио RUS 1: AC3, 48000Hz, 384 Kbps, 6ch |LostFilm|
Аудио RUS 2: AC3, 48000Hz, 384 Kbps, 6ch |NewStudio|
Аудио RUS 3: AC3, 48000Hz, 192 Kbps, 2ch |Домашний|
Аудио ENG: DTS-HD, 48000Hz, 3563 Kbps, 6ch, 24-bit (Core: DTS, 48000Hz, 1509 Kbps, 6ch)
-

Скриншоты

MediaInfo

General
Unique ID : 193148564550175854360015241503932730657 (0x914F0F779230782F84BA1301B920CD21)
Complete name : E:\House M.D. Season 8\House M.D. s08e01 [BDRemux 1920x1080 H.264 DTS-HD].mkv
Format : Matroska
Format version : Version 4 / Version 2
File size : 8.12 GiB
Duration : 43mn 58s
Overall bit rate mode : Variable
Overall bit rate : 26.4 Mbps
Encoded date : UTC 2013-07-15 16:56:35
Writing application : mkvmerge v6.3.0 ('You can't stop me!') built on Jun 27 2013 22:06:07
Writing library : libebml v1.3.0 + libmatroska v1.4.0
Video
ID : 1
Format : AVC
Format/Info : Advanced Video Codec
Format profile : High@L4.1
Format settings, CABAC : Yes
Format settings, ReFrames : 4 frames
Codec ID : V_MPEG4/ISO/AVC
Duration : 43mn 58s
Bit rate mode : Variable
Maximum bit rate : 35.0 Mbps
Width : 1 920 pixels
Height : 1 080 pixels
Display aspect ratio : 16:9
Frame rate mode : Constant
Frame rate : 23.976 fps
Color space : YUV
Chroma subsampling : 4:2:0
Bit depth : 8 bits
Scan type : Progressive
Default : No
Forced : No
Audio #1
ID : 2
Format : AC-3
Format/Info : Audio Coding 3
Mode extension : CM (complete main)
Format settings, Endianness : Big
Codec ID : A_AC3
Duration : 43mn 58s
Bit rate mode : Constant
Bit rate : 384 Kbps
Channel(s) : 6 channels
Channel positions : Front: L C R, Side: L R, LFE
Sampling rate : 48.0 KHz
Bit depth : 16 bits
Compression mode : Lossy
Stream size : 121 MiB (1%)
Title : LostFilm
Language : Russian
Default : Yes
Forced : No
Audio #2
ID : 3
Format : AC-3
Format/Info : Audio Coding 3
Mode extension : CM (complete main)
Format settings, Endianness : Big
Codec ID : A_AC3
Duration : 43mn 58s
Bit rate mode : Constant
Bit rate : 384 Kbps
Channel(s) : 6 channels
Channel positions : Front: L C R, Side: L R, LFE
Sampling rate : 48.0 KHz
Bit depth : 16 bits
Compression mode : Lossy
Stream size : 121 MiB (1%)
Title : NewStudio
Language : Russian
Default : No
Forced : No
Audio #3
ID : 4
Format : AC-3
Format/Info : Audio Coding 3
Mode extension : CM (complete main)
Format settings, Endianness : Big
Codec ID : A_AC3
Duration : 43mn 58s
Bit rate mode : Constant
Bit rate : 192 Kbps
Channel(s) : 2 channels
Channel positions : Front: L R
Sampling rate : 48.0 KHz
Bit depth : 16 bits
Compression mode : Lossy
Stream size : 60.4 MiB (1%)
Title : Domashniy
Language : Russian
Default : No
Forced : No
Audio #4
ID : 5
Format : DTS
Format/Info : Digital Theater Systems
Format profile : MA / Core
Mode : 16
Format settings, Endianness : Big
Codec ID : A_DTS
Duration : 43mn 58s
Bit rate mode : Variable
Bit rate : Unknown / 1 509 Kbps
Channel(s) : 6 channels
Channel positions : Front: L C R, Side: L R, LFE
Sampling rate : 48.0 KHz
Bit depth : 24 bits
Compression mode : Lossless / Lossy
Language : English
Default : No
Forced : No
Text #1
ID : 6
Format : UTF-8
Codec ID : S_TEXT/UTF8
Codec ID/Info : UTF-8 Plain Text
Language : Russian
Default : No
Forced : No
Text #2
ID : 7
Format : UTF-8
Codec ID : S_TEXT/UTF8
Codec ID/Info : UTF-8 Plain Text
Language : English
Default : No
Forced : No
Menu
00:00:00.000 : en:00:00:00.000
00:01:32.718 : en:00:01:32.718
00:17:25.836 : en:00:17:25.836
00:30:28.452 : en:00:30:28.452
Вы не можете начинать темы
Вы не можете отвечать на сообщения
Вы не можете редактировать свои сообщения
Вы не можете удалять свои сообщения
Вы не можете голосовать в опросах
Вы не можете прикреплять файлы к сообщениям
Вы можете скачивать файлы
!ВНИМАНИЕ!

Сайт не предоставляет электронные версии произведений, а занимается лишь коллекционированием и каталогизацией ссылок, присылаемых и публикуемых на форуме нашими читателями. Если вы являетесь правообладателем какого-либо представленного материала и не желаете, чтобы ссылка на него находилась в нашем каталоге, свяжитесь с нами, и мы незамедлительно удалим ее. Файлы для обмена на трекере предоставлены пользователями сайта, и администрация не несет ответственности за их содержание. Просьба не заливать файлы, защищенные авторскими правами, а также файлы нелегального содержания!

Искали программы, игры, дополнения, музыка mp3, аниме, аудио книги, журналы? Добро пожаловать на свободный торрент трекер Torrents, у нас можно скачать бесплатно, без смс и регистрации и прочих ограничений лучшие, отборные сборки программ, игр. Скачать торрентом не составит труда даже не опытному пользователю. Раздачи ежедневно обновляются, только лучшие и качественные раздачи, подробные описания и скриншоты. Огромная коллекция программ для работы со звуком, графикой, дизайном, а так же множество плагинов и инструментов к ним с подробной инструкцией и рекомендациями. Прошивки для навигаторов, карты. Разнообразные игры, для Windows, Linux. В коллекцие есть и старые игры любых жанров, Rpg, Action, Shooter, strategy Множество дополнений, модификаций, сценариев для популярных игр в жанре экш, рпг, гонки, стратегии, логические игры. Множество аддонов и сценариев для Microsoft Flight Simulator Большая коллекция книг, учебников. Если нет возможности купить печатное издание - смело скачивайте цифровую версию книги или, быть может, журнала. Не любите читать - можно загрузить бесплатно аудикнигу. Для веб дизайнеров и программистов так же найдется множество специализированного софта, таких как: редакторы с подсветкой, среды программирования, компоненты, системы управления базами данных, разнообразные скрипты и шаблоны. Не так давно у нас появился материал для автолюбителей и владельцев мото - оригинальные и неоригинальные каталоги запчастей, книги и журналы по ремонту и обслуживанию, видеоуроки, статьи по чип тюнингу, прошивкам. Процедура получения контента элементарная, достаточно просто скачать торрент файл и добавить его в загрузку в вашем торрент клиенте. Если у вас нет специального торрент клиента, вы можете его скачать у нас.