xxxHolic | Dragon Ball – Bảy Viên Ngọc Rồng chap 279 | Dragon Ball – Bảy Viên Ngọc Rồng chap 101

Доктор Хаус / HOUSE M.D. / Сезон 5 (01-24 из 24) [2008, США, драма, WEB-DL 720p] (LostFilm | Домашний | Original | Sub) 

Цитировать
-Доктор Хаус - Пятый сезон
HOUSE M.D. - Season Five- Год выхода в эфир: 2008
Страна: США | USA
Жанр: драма
Продолжительность: 24 из 24 эпизодов по ~ 44 минуты
Перевод: Профессиональный (многоголосый, закадровый)
Субтитры: русские, английские-Режиссер: Деран Сарафян, Дэвид Платт, Фред Гербер и другие...
В ролях: Хью Лори, Лиза Эдельштейн, Роберт Шон Леонард, Джесси Спенсер, Омар Эппс, Дженнифер Моррисон и другие...-Описание:
Небритый «сукин сын», наглый и гениальный врач-диагност с тростью.
Таким предстал перед зрителями герой одноименного сериала – Доктор Хаус. На фоне смертельных недугов пациентов юмор и цинизм доктора Грегори Хауса выглядел просто шокирующим. Так и началось шествие по миру телесериала, где соседствуют смерть и юмор.
«Все врут» - говорит нам с экрана доктор Хаус. Не лукавят, обманывают, а именно врут.
Из уст человека (пусть и выдуманного, существующего на экране и в головах сценаристов), лечащего людей от смертельных болезней, данная фраза звучит просто дико. Согласно уставу профессии врач, спасающий жизни больных, должен любить их, быть добрым, вселять уверенность. А как иначе? Оказывается, иначе – можно!
© Андрей Кравец- -Релиз от:
Качество: WEB-DL 720p
Формат: MKV
Видео кодек: H264/AVC
Аудио кодек: AC3
Видео: 1280x720 (1.78:1), 23.976 fps, ~4000 kbps avg, ~0.18 bit/pixel
Аудио #1: 48 kHz, AC3 Dolby Digital, 5.1 ch, 384 kbps avg |Студия Кравец|
Аудио #2: 48 kHz, AC3 Dolby Digital, 2.0 ch, 192 kbps avg |Телеканал Домашний|
Аудио #3: 48 kHz, AC3 Dolby Digital, 5.1 ch, 384 kbps avg |Оригинал|-
-

Список серий

5x01. Dying Changes Everything
5x02. Not Cancer
5x03. Adverse Events
5x04. Birthmarks
5x05. Lucky Thirteen
5x06. Joy
5x07. The Itch
5x08. Emancipation
5x09. Last Resort
5x10. Let Them Eat Cake
5x11. Joy to the World
5x12. Painless
5x13. Big Baby
5x14. The Greater Good
5x15. Unfaithful
5x16. The Softer Side
5x17. The Social Contract
5x18. Here Kitty
5x19. Locked In
5x20. Simple Explanation
5x21. Saviors
5x22. House Divided
5x23. Under My Skin
5x24. Both Sides Now

MEDiA iNFO

General
Complete name                            : House.M.D.S05E05.720p.WEB-DL.2xRus.Eng.HDCLUB.mkv
Format                                   : Matroska
Format version                           : Version 2
File size                                : 1.54 GiB
Duration                                 : 44mn 3s
Overall bit rate                         : 5 016 Kbps
Movie name                               : HOUSE (2008) S05E01 - Release for HDCLUB by Pro_Rock_
Encoded date                             : UTC 2011-10-19 11:55:09
Writing application                      : mkvmerge v5.0.1 ('Es ist Sommer') built on Oct  9 2011 11:55:43
Writing library                          : libebml v1.2.2 + libmatroska v1.3.0
Video
ID                                       : 1
Format                                   : AVC
Format/Info                              : Advanced Video Codec
Format profile                           : High@L3.1
Format settings, CABAC                   : No
Format settings, ReFrames                : 2 frames
Codec ID                                 : V_MPEG4/ISO/AVC
Duration                                 : 44mn 3s
Bit rate                                 : 3 956 Kbps
Width                                    : 1 280 pixels
Height                                   : 720 pixels
Display aspect ratio                     : 16:9
Frame rate                               : 23.976 fps
Color space                              : YUV
Chroma subsampling                       : 4:2:0
Bit depth                                : 8 bits
Scan type                                : Progressive
Bits/(Pixel*Frame)                       : 0.179
Stream size                              : 1.22 GiB (79%)
Title                                    : HOUSE (2008) S05E05 - Release for HDCLUB by Pro_Rock_
Language                                 : English
Color primaries                          : BT.709-5, BT.1361, IEC 61966-2-4, SMPTE RP177
Transfer characteristics                 : BT.709-5, BT.1361
Matrix coefficients                      : BT.709-5, BT.1361, IEC 61966-2-4 709, SMPTE RP177
Audio #1
ID                                       : 2
Format                                   : AC-3
Format/Info                              : Audio Coding 3
Mode extension                           : CM (complete main)
Codec ID                                 : A_AC3
Duration                                 : 44mn 3s
Bit rate mode                            : Constant
Bit rate                                 : 384 Kbps
Channel(s)                               : 6 channels
Channel positions                        : Front: L C R, Side: L R, LFE
Sampling rate                            : 48.0 KHz
Bit depth                                : 16 bits
Compression mode                         : Lossy
Stream size                              : 121 MiB (8%)
Title                                    : AC3 5.1 @ 384 kbps - многоголосый закадровый (Студия «Кравец»)
Language                                 : Russian
Audio #2
ID                                       : 3
Format                                   : AC-3
Format/Info                              : Audio Coding 3
Mode extension                           : CM (complete main)
Codec ID                                 : A_AC3
Duration                                 : 44mn 3s
Bit rate mode                            : Constant
Bit rate                                 : 192 Kbps
Channel(s)                               : 2 channels
Channel positions                        : Front: L R
Sampling rate                            : 48.0 KHz
Bit depth                                : 16 bits
Compression mode                         : Lossy
Stream size                              : 60.5 MiB (4%)
Title                                    : AC3 2.0 @ 192 kbps - многоголосый закадровый (Телеканал «Домашний»)
Language                                 : Russian
Audio #3
ID                                       : 4
Format                                   : AC-3
Format/Info                              : Audio Coding 3
Mode extension                           : CM (complete main)
Codec ID                                 : A_AC3
Duration                                 : 44mn 3s
Bit rate mode                            : Constant
Bit rate                                 : 384 Kbps
Channel(s)                               : 6 channels
Channel positions                        : Front: L C R, Side: L R, LFE
Sampling rate                            : 48.0 KHz
Bit depth                                : 16 bits
Compression mode                         : Lossy
Stream size                              : 121 MiB (8%)
Title                                    : AC3 5.1 @ 384 kbps
Language                                 : English
Text #1
ID                                       : 5
Format                                   : UTF-8
Codec ID                                 : S_TEXT/UTF8
Codec ID/Info                            : UTF-8 Plain Text
Language                                 : Russian
Text #2
ID                                       : 6
Format                                   : UTF-8
Codec ID                                 : S_TEXT/UTF8
Codec ID/Info                            : UTF-8 Plain Text
Language                                 : English
- Все раздачи сериала-
Вы не можете начинать темы
Вы не можете отвечать на сообщения
Вы не можете редактировать свои сообщения
Вы не можете удалять свои сообщения
Вы не можете голосовать в опросах
Вы не можете прикреплять файлы к сообщениям
Вы можете скачивать файлы
!ВНИМАНИЕ!

Сайт не предоставляет электронные версии произведений, а занимается лишь коллекционированием и каталогизацией ссылок, присылаемых и публикуемых на форуме нашими читателями. Если вы являетесь правообладателем какого-либо представленного материала и не желаете, чтобы ссылка на него находилась в нашем каталоге, свяжитесь с нами, и мы незамедлительно удалим ее. Файлы для обмена на трекере предоставлены пользователями сайта, и администрация не несет ответственности за их содержание. Просьба не заливать файлы, защищенные авторскими правами, а также файлы нелегального содержания!

Искали программы, игры, дополнения, музыка mp3, аниме, аудио книги, журналы? Добро пожаловать на свободный торрент трекер Torrents, у нас можно скачать бесплатно, без смс и регистрации и прочих ограничений лучшие, отборные сборки программ, игр. Скачать торрентом не составит труда даже не опытному пользователю. Раздачи ежедневно обновляются, только лучшие и качественные раздачи, подробные описания и скриншоты. Огромная коллекция программ для работы со звуком, графикой, дизайном, а так же множество плагинов и инструментов к ним с подробной инструкцией и рекомендациями. Прошивки для навигаторов, карты. Разнообразные игры, для Windows, Linux. В коллекцие есть и старые игры любых жанров, Rpg, Action, Shooter, strategy Множество дополнений, модификаций, сценариев для популярных игр в жанре экш, рпг, гонки, стратегии, логические игры. Множество аддонов и сценариев для Microsoft Flight Simulator Большая коллекция книг, учебников. Если нет возможности купить печатное издание - смело скачивайте цифровую версию книги или, быть может, журнала. Не любите читать - можно загрузить бесплатно аудикнигу. Для веб дизайнеров и программистов так же найдется множество специализированного софта, таких как: редакторы с подсветкой, среды программирования, компоненты, системы управления базами данных, разнообразные скрипты и шаблоны. Не так давно у нас появился материал для автолюбителей и владельцев мото - оригинальные и неоригинальные каталоги запчастей, книги и журналы по ремонту и обслуживанию, видеоуроки, статьи по чип тюнингу, прошивкам. Процедура получения контента элементарная, достаточно просто скачать торрент файл и добавить его в загрузку в вашем торрент клиенте. Если у вас нет специального торрент клиента, вы можете его скачать у нас.