Mom And Mackerel | Thám Tử Lừng Danh Conan chap 243 | Descargar

(Rock\'n\'Roll, Doo Wop) [CD] Dion And Dion & The Belmonts - Lovers Who Wander & So Why Didn\'t You Do That First Time? - 1998, WavPack (image+.cue), lossless 

Цитировать
Dion And Dion & The Belmonts (1962) & Lovers Who Wander & So Why Didn't You Do That First Time? (1985)
Жанр: Rock'n'Roll, Doo Wop
Носитель: CD
Страна-производитель диска (релиза): UK
Год издания: 1998
Издатель (лейбл): ACE Records
Номер по каталогу: CDCH 943
Страна исполнителя (группы): USA
Аудиокодек: WavPack (*.wv)
Тип рипа: image+.cue
Битрейт аудио: lossless
Продолжительность: 01:17:39
Источник (релизер): Рип сд из коллекции
Наличие сканов в содержимом раздачи: да
Треклист:
01. Dion / Lovers Who Wander [0:02:31.55]
02. Dion / Come Go With Me [0:02:52.50]
03. Dion / King Without A Queen [0:02:32.60]
04. Dion / So Long Friend (By The Way I Love You) [0:02:11.62]
05. Dion / The Twist [0:02:35.10]
06. Dion / Mi Muchacha (Little Girl) [0:02:27.68]
07. Dion / Stagger Lee [0:02:28.17]
08. Dion / Shout [0:04:21.65]
09. Dion / Tonight, Tonight [0:02:41.65]
10. Dion / (I Was) Born To Cry [0:02:26.68]
11. Dion / Queen Of The Hop [0:02:05.57]
12. Dion / Cancy Man [0:02:40.48]
13. Dion / Sandy [0:02:21.12]
14. Dion / Lost For Sure [0:02:39.35]
15. Dion & The Belmonts / The Wanderer [0:03:02.08]
16. Dion & The Belmonts / My Private Joy [0:02:07.15]
17. Dion & The Belmonts / Moon River [0:02:38.70]
18. Dion & The Belmonts / Ain't That Better Baby [0:02:45.45]
19. Dion & The Belmonts / Every Little Thing I Do [0:02:05.55]
20. Dion & The Belmonts / We Wen't Away [0:02:08.62]
21. Dion & The Belmonts / Come Take A Walk With Me [0:02:22.40]
22. Dion & The Belmonts / In A Room In A House [0:02:55.00]
23. Dion & The Belmonts / Lovers Who Wander [0:02:39.48]
24. Dion & The Belmonts / Tag Along [0:02:06.00]
25. Dion & The Belmonts / Crying [0:02:42.55]
26. Dion & The Belmonts / It Was Never Meant To Be [0:02:28.12]
27. Dion & The Belmonts / Will You Love Me Still [0:02:04.65]
28. Dion & The Belmonts / A Teenager In Love [0:03:13.65]
29. Dion & The Belmonts / That't How I Need You [0:02:29.50]
30. Dion & The Belmonts / Baby What You Want Me To Do [0:02:50.58]

Лог создания рипа

Exact Audio Copy V1.3 from 2. September 2016
EAC extraction logfile from 15. September 2018, 15:46
Dion And Dion & The Belmonts / Lovers Who Wander & So Why Didn't You Do That First Time?
Used drive : PLEXTOR DVDR PX-L890SA Adapter: 1 ID: 1
Read mode : SecureUtilize accurate stream : YesDefeat audio cache : YesMake use of C2 pointers : No
Read offset correction : 6Overread into Lead-In and Lead-Out : NoFill up missing offset samples with silence : YesDelete leading and trailing silent blocks : NoNull samples used in CRC calculations : YesUsed interface : Native Win32 interface for Win NT & 2000
Used output format : User Defined EncoderSelected bitrate : 1024 kBit/sQuality : HighAdd ID3 tag : NoCommand line compressor : C:\Program Files (x86)\Exact Audio Copy\wavpack.exeAdditional command line options : -lm %source%
TOC of the extracted CD
Track | Start | Length | Start sector | End sector --------------------------------------------------------- 1 | 0:00.00 | 2:31.55 | 0 | 11379 2 | 2:31.55 | 2:52.50 | 11380 | 24329 3 | 5:24.30 | 2:32.60 | 24330 | 35789 4 | 7:57.15 | 2:11.62 | 35790 | 45676 5 | 10:09.02 | 2:35.10 | 45677 | 57311 6 | 12:44.12 | 2:27.68 | 57312 | 68404 7 | 15:12.05 | 2:28.17 | 68405 | 79521 8 | 17:40.22 | 4:21.65 | 79522 | 99161 9 | 22:02.12 | 2:41.65 | 99162 | 111301 10 | 24:44.02 | 2:26.68 | 111302 | 122319 11 | 27:10.70 | 2:05.57 | 122320 | 131751 12 | 29:16.52 | 2:40.48 | 131752 | 143799 13 | 31:57.25 | 2:21.12 | 143800 | 154386 14 | 34:18.37 | 2:39.35 | 154387 | 166346 15 | 36:57.72 | 3:02.08 | 166347 | 180004 16 | 40:00.05 | 2:07.15 | 180005 | 189544 17 | 42:07.20 | 2:38.70 | 189545 | 201464 18 | 44:46.15 | 2:45.45 | 201465 | 213884 19 | 47:31.60 | 2:05.55 | 213885 | 223314 20 | 49:37.40 | 2:08.62 | 223315 | 232976 21 | 51:46.27 | 2:22.40 | 232977 | 243666 22 | 54:08.67 | 2:55.00 | 243667 | 256791 23 | 57:03.67 | 2:39.48 | 256792 | 268764 24 | 59:43.40 | 2:06.00 | 268765 | 278214 25 | 61:49.40 | 2:42.55 | 278215 | 290419 26 | 64:32.20 | 2:28.12 | 290420 | 301531 27 | 67:00.32 | 2:04.65 | 301532 | 310896 28 | 69:05.22 | 3:13.65 | 310897 | 325436 29 | 72:19.12 | 2:29.50 | 325437 | 336661 30 | 74:48.62 | 2:50.58 | 336662 | 349469
Range status and errors
Selected range
Filename D:\wwphil\Dion and Dion & The Belmonts - Lovers Who Wander & So Why Didn't You Do That First Time\Dion And Dion & The Belmonts - Lovers Who Wander & So Why Didn't You Do That First Time.wav
Peak level 100.0 % Extraction speed 6.8 X Range quality 99.9 % Test CRC A6AE8B22 Copy CRC A6AE8B22 Copy OK
No errors occurred
AccurateRip summary
Track 1 accurately ripped (confidence 2) [ABDA17F9] (AR v1)Track 2 accurately ripped (confidence 2) [6CDA9549] (AR v1)Track 3 accurately ripped (confidence 2) [23997795] (AR v1)Track 4 accurately ripped (confidence 2) [BE446609] (AR v1)Track 5 accurately ripped (confidence 2) [875F6B42] (AR v1)Track 6 accurately ripped (confidence 2) [5C7C63DF] (AR v1)Track 7 accurately ripped (confidence 2) [5E89F45F] (AR v1)Track 8 accurately ripped (confidence 2) [4027DC85] (AR v1)Track 9 accurately ripped (confidence 2) [52BA4DA9] (AR v1)Track 10 accurately ripped (confidence 2) [274FF45F] (AR v1)Track 11 accurately ripped (confidence 2) [3D19594D] (AR v1)Track 12 accurately ripped (confidence 2) [98296251] (AR v1)Track 13 accurately ripped (confidence 2) [C53D62D0] (AR v1)Track 14 accurately ripped (confidence 2) [C4A54D70] (AR v1)Track 15 accurately ripped (confidence 2) [58F5E76A] (AR v1)Track 16 accurately ripped (confidence 2) [630A9233] (AR v1)Track 17 accurately ripped (confidence 2) [F91FDBD9] (AR v1)Track 18 accurately ripped (confidence 2) [198883C3] (AR v1)Track 19 accurately ripped (confidence 2) [FB5A724E] (AR v1)Track 20 accurately ripped (confidence 2) [A095390F] (AR v1)Track 21 accurately ripped (confidence 2) [560704CB] (AR v1)Track 22 accurately ripped (confidence 2) [7A09263C] (AR v1)Track 23 accurately ripped (confidence 2) [564EDEBA] (AR v1)Track 24 accurately ripped (confidence 2) [37FA2A0F] (AR v1)Track 25 accurately ripped (confidence 2) [08F80F23] (AR v1)Track 26 accurately ripped (confidence 2) [4F8823AA] (AR v1)Track 27 accurately ripped (confidence 2) [834BC030] (AR v1)Track 28 accurately ripped (confidence 2) [E5E107B9] (AR v1)Track 29 accurately ripped (confidence 2) [E2543100] (AR v1)Track 30 accurately ripped (confidence 2) [E527891D] (AR v1)
All tracks accurately ripped
End of status report
==== Log checksum D5D66F66CD630D313EC7C85A6E67564BD28EB6B744EE0FCEFF87DF7CD15BFD8A ====

Скриншот спектра частот

Вы не можете начинать темы
Вы не можете отвечать на сообщения
Вы не можете редактировать свои сообщения
Вы не можете удалять свои сообщения
Вы не можете голосовать в опросах
Вы не можете прикреплять файлы к сообщениям
Вы можете скачивать файлы
!ВНИМАНИЕ!

Сайт не предоставляет электронные версии произведений, а занимается лишь коллекционированием и каталогизацией ссылок, присылаемых и публикуемых на форуме нашими читателями. Если вы являетесь правообладателем какого-либо представленного материала и не желаете, чтобы ссылка на него находилась в нашем каталоге, свяжитесь с нами, и мы незамедлительно удалим ее. Файлы для обмена на трекере предоставлены пользователями сайта, и администрация не несет ответственности за их содержание. Просьба не заливать файлы, защищенные авторскими правами, а также файлы нелегального содержания!

Искали программы, игры, дополнения, музыка mp3, аниме, аудио книги, журналы? Добро пожаловать на свободный торрент трекер Torrents, у нас можно скачать бесплатно, без смс и регистрации и прочих ограничений лучшие, отборные сборки программ, игр. Скачать торрентом не составит труда даже не опытному пользователю. Раздачи ежедневно обновляются, только лучшие и качественные раздачи, подробные описания и скриншоты. Огромная коллекция программ для работы со звуком, графикой, дизайном, а так же множество плагинов и инструментов к ним с подробной инструкцией и рекомендациями. Прошивки для навигаторов, карты. Разнообразные игры, для Windows, Linux. В коллекцие есть и старые игры любых жанров, Rpg, Action, Shooter, strategy Множество дополнений, модификаций, сценариев для популярных игр в жанре экш, рпг, гонки, стратегии, логические игры. Множество аддонов и сценариев для Microsoft Flight Simulator Большая коллекция книг, учебников. Если нет возможности купить печатное издание - смело скачивайте цифровую версию книги или, быть может, журнала. Не любите читать - можно загрузить бесплатно аудикнигу. Для веб дизайнеров и программистов так же найдется множество специализированного софта, таких как: редакторы с подсветкой, среды программирования, компоненты, системы управления базами данных, разнообразные скрипты и шаблоны. Не так давно у нас появился материал для автолюбителей и владельцев мото - оригинальные и неоригинальные каталоги запчастей, книги и журналы по ремонту и обслуживанию, видеоуроки, статьи по чип тюнингу, прошивкам. Процедура получения контента элементарная, достаточно просто скачать торрент файл и добавить его в загрузку в вашем торрент клиенте. Если у вас нет специального торрент клиента, вы можете его скачать у нас.