(OST) Покемон / Pokemon (Pokémon - Schnapp\' sie Dir alle) (John Loeffler) - 1999, FLAC (tracks), lossless 

Цитировать
Покемон / Pokemon
Название альбома: Pokémon - Schnapp' sie Dir alle
Жанр: Soundtrack
Композитор: John Loeffler
Год выпуска диска: 1999
Год выпуска фильма: 1999
Страна-производитель диска: Germany
Издатель (лейбл): Koch Records
Номер по каталогу: 333 33-2
Аудиокодек: FLAC (*.flac)
Тип рипа: tracks
Битрейт аудио: lossless
Продолжительность: 00:48:27
Источник: скачано с
сайт-источник/ник/другое: RED
Наличие сканов в содержимом раздачи: да
Треклист:
1 Pokémon Thema
2 Wie wird man Meister?
3 Vertania City
4 Was für ein Pokémon bist du?
5 Meine besten Freunde
6 Alles wird sich ändern
7 Es ist so weit
8 Pokémon (Dance Mix)
9 Gleich gibt es Ärger
10 Wir bleiben zusammen
11 In der Dunkelheit der Nacht
12 PokéRAP
13 Du kannst es schaffen

Лог создания рипа

Exact Audio Copy V1.3 from 2. September 2016
EAC extraction logfile from 19. March 2018, 17:20
Pokémon / Schnapp' sie Dir alle
Used drive : HL-DT-STDVDRAM GP57EB40 Adapter: 1 ID: 0
Read mode : SecureUtilize accurate stream : YesDefeat audio cache : YesMake use of C2 pointers : No
Read offset correction : 6Overread into Lead-In and Lead-Out : NoFill up missing offset samples with silence : YesDelete leading and trailing silent blocks : NoNull samples used in CRC calculations : YesUsed interface : Native Win32 interface for Win NT & 2000Gap handling : Appended to previous track
Used output format : User Defined EncoderSelected bitrate : 1024 kBit/sQuality : HighAdd ID3 tag : NoCommand line compressor : C:\Program Files (x86)\Exact Audio Copy\Flac\flac.exeAdditional command line options : -8 -e -p -V -T "ARTIST=%artist%" -T "TITLE=%title%" -T "ALBUM=%albumtitle%" -T "DATE=%year%" -T "TRACKNUMBER=%tracknr%" -T "GENRE=%genre%" -T "PERFORMER=%albuminterpret%" -T "COMPOSER=%composer%" %haslyrics%--tag-from-file=LYRICS="%lyricsfile%"%haslyrics% -T "ALBUMARTIST=%albumartist%" -T "DISCNUMBER=%cdnumber%" -T "TOTALDISCS=%totalcds%" -T "TOTALTRACKS=%numtracks%" -T "COMMENT=%comment%" %source% -o %dest%
TOC of the extracted CD
Track | Start | Length | Start sector | End sector --------------------------------------------------------- 1 | 0:00.00 | 3:18.37 | 0 | 14886 2 | 3:18.37 | 4:06.33 | 14887 | 33369 3 | 7:24.70 | 3:31.00 | 33370 | 49194 4 | 10:55.70 | 3:33.37 | 49195 | 65206 5 | 14:29.32 | 3:23.68 | 65207 | 80499 6 | 17:53.25 | 4:31.55 | 80500 | 100879 7 | 22:25.05 | 3:00.65 | 100880 | 114444 8 | 25:25.70 | 3:47.60 | 114445 | 131529 9 | 29:13.55 | 3:53.32 | 131530 | 149036 10 | 33:07.12 | 3:50.18 | 149037 | 166304 11 | 36:57.30 | 4:19.62 | 166305 | 185791 12 | 41:17.17 | 3:03.35 | 185792 | 199551 13 | 44:20.52 | 3:07.48 | 199552 | 213624 14 | 50:00.25 | 7:08.10 | 225025 | 257134
Track 1
Filename E:\Backups\Musick\Pokémon - Schnapp' sie Dir alle [1999] [FLAC]\01 - Pokémon Thema.wav
Pre-gap length 0:00:02.00
Peak level 100.0 % Extraction speed 2.3 X Track quality 100.0 % Test CRC 9547FC06 Copy CRC 9547FC06 Accurately ripped (confidence 4) [6EFD62AB] (AR v1) Copy OK
Track 2
Filename E:\Backups\Musick\Pokémon - Schnapp' sie Dir alle [1999] [FLAC]\02 - Wie wird man Meister.wav
Pre-gap length 0:00:01.56
Peak level 100.0 % Extraction speed 2.6 X Track quality 100.0 % Test CRC 44BE3340 Copy CRC 44BE3340 Accurately ripped (confidence 4) [9A9AED4A] (AR v1) Copy OK
Track 3
Filename E:\Backups\Musick\Pokémon - Schnapp' sie Dir alle [1999] [FLAC]\03 - Vertania City.wav
Pre-gap length 0:00:01.57
Peak level 100.0 % Extraction speed 2.8 X Track quality 100.0 % Test CRC D71336B7 Copy CRC D71336B7 Accurately ripped (confidence 4) [F3E54483] (AR v1) Copy OK
Track 4
Filename E:\Backups\Musick\Pokémon - Schnapp' sie Dir alle [1999] [FLAC]\04 - Was für ein Pokémon bist Du.wav
Pre-gap length 0:00:01.57
Peak level 100.0 % Extraction speed 3.0 X Track quality 100.0 % Test CRC 1391D34E Copy CRC 1391D34E Accurately ripped (confidence 3) [AD839DF9] (AR v1) Copy OK
Track 5
Filename E:\Backups\Musick\Pokémon - Schnapp' sie Dir alle [1999] [FLAC]\05 - Meine besten Freunde.wav
Pre-gap length 0:00:01.56
Peak level 100.0 % Extraction speed 3.1 X Track quality 100.0 % Test CRC 65EE3627 Copy CRC 65EE3627 Accurately ripped (confidence 3) [A26782F1] (AR v1) Copy OK
Track 6
Filename E:\Backups\Musick\Pokémon - Schnapp' sie Dir alle [1999] [FLAC]\06 - Alles wird sich ändern.wav
Pre-gap length 0:00:01.57
Peak level 100.0 % Extraction speed 3.5 X Track quality 100.0 % Test CRC 6DD48221 Copy CRC 6DD48221 Accurately ripped (confidence 3) [7A289FC1] (AR v1) Copy OK
Track 7
Filename E:\Backups\Musick\Pokémon - Schnapp' sie Dir alle [1999] [FLAC]\07 - Es ist so weit.wav
Pre-gap length 0:00:01.56
Peak level 96.3 % Extraction speed 3.4 X Track quality 100.0 % Test CRC CBC643DD Copy CRC CBC643DD Accurately ripped (confidence 4) [D1364F4A] (AR v1) Copy OK
Track 8
Filename E:\Backups\Musick\Pokémon - Schnapp' sie Dir alle [1999] [FLAC]\08 - Pokémon (Dance Mix).wav
Pre-gap length 0:00:01.57
Peak level 100.0 % Extraction speed 3.7 X Track quality 100.0 % Test CRC 44CC1288 Copy CRC 44CC1288 Accurately ripped (confidence 4) [460CE1A0] (AR v1) Copy OK
Track 9
Filename E:\Backups\Musick\Pokémon - Schnapp' sie Dir alle [1999] [FLAC]\09 - Gleich gibt es Ärger (Team Rocket).wav
Pre-gap length 0:00:01.57
Peak level 100.0 % Extraction speed 3.9 X Track quality 100.0 % Test CRC DAE54CF5 Copy CRC DAE54CF5 Accurately ripped (confidence 4) [1C8747AA] (AR v1) Copy OK
Track 10
Filename E:\Backups\Musick\Pokémon - Schnapp' sie Dir alle [1999] [FLAC]\10 - Wir bleiben zusammen.wav
Pre-gap length 0:00:01.56
Peak level 100.0 % Extraction speed 3.9 X Track quality 100.0 % Test CRC 9DB34958 Copy CRC 9DB34958 Accurately ripped (confidence 4) [ED799ADA] (AR v1) Copy OK
Track 11
Filename E:\Backups\Musick\Pokémon - Schnapp' sie Dir alle [1999] [FLAC]\11 - In der Dunkelheit der Nacht.wav
Pre-gap length 0:00:01.57
Peak level 100.0 % Extraction speed 4.1 X Track quality 100.0 % Test CRC 01D96CFA Copy CRC 01D96CFA Accurately ripped (confidence 4) [425C1127] (AR v1) Copy OK
Track 12
Filename E:\Backups\Musick\Pokémon - Schnapp' sie Dir alle [1999] [FLAC]\12 - PokéRAP.wav
Pre-gap length 0:00:01.56
Peak level 100.0 % Extraction speed 4.0 X Track quality 100.0 % Test CRC 1BC3BB63 Copy CRC 1BC3BB63 Accurately ripped (confidence 3) [18F63CD7] (AR v1) Copy OK
Track 13
Filename E:\Backups\Musick\Pokémon - Schnapp' sie Dir alle [1999] [FLAC]\13 - Du kannst es schaffen.wav
Pre-gap length 0:00:00.64
Peak level 100.0 % Extraction speed 2.4 X Track quality 100.0 % Test CRC 737FDFD1 Copy CRC 737FDFD1 Accurately ripped (confidence 3) [891534FF] (AR v1) Copy OK
All tracks accurately ripped
No errors occurred
End of status report
==== Log checksum 69EA487AC1F1228F88363225CAFD05F6120EB39B38A4C0E07CD1F61D9ED0771D ====
Этой раздаче требуются постоянные сидеры, так как не всегда удаеться круглосуточно раздавать. Поэтому скачавшие данный релиз, не уходите с раздачи и станьте сидерами))
Вы не можете начинать темы
Вы не можете отвечать на сообщения
Вы не можете редактировать свои сообщения
Вы не можете удалять свои сообщения
Вы не можете голосовать в опросах
Вы не можете прикреплять файлы к сообщениям
Вы можете скачивать файлы
!ВНИМАНИЕ!

Сайт не предоставляет электронные версии произведений, а занимается лишь коллекционированием и каталогизацией ссылок, присылаемых и публикуемых на форуме нашими читателями. Если вы являетесь правообладателем какого-либо представленного материала и не желаете, чтобы ссылка на него находилась в нашем каталоге, свяжитесь с нами, и мы незамедлительно удалим ее. Файлы для обмена на трекере предоставлены пользователями сайта, и администрация не несет ответственности за их содержание. Просьба не заливать файлы, защищенные авторскими правами, а также файлы нелегального содержания!

Искали программы, игры, дополнения, музыка mp3, аниме, аудио книги, журналы? Добро пожаловать на свободный торрент трекер Torrents, у нас можно скачать бесплатно, без смс и регистрации и прочих ограничений лучшие, отборные сборки программ, игр. Скачать торрентом не составит труда даже не опытному пользователю. Раздачи ежедневно обновляются, только лучшие и качественные раздачи, подробные описания и скриншоты. Огромная коллекция программ для работы со звуком, графикой, дизайном, а так же множество плагинов и инструментов к ним с подробной инструкцией и рекомендациями. Прошивки для навигаторов, карты. Разнообразные игры, для Windows, Linux. В коллекцие есть и старые игры любых жанров, Rpg, Action, Shooter, strategy Множество дополнений, модификаций, сценариев для популярных игр в жанре экш, рпг, гонки, стратегии, логические игры. Множество аддонов и сценариев для Microsoft Flight Simulator Большая коллекция книг, учебников. Если нет возможности купить печатное издание - смело скачивайте цифровую версию книги или, быть может, журнала. Не любите читать - можно загрузить бесплатно аудикнигу. Для веб дизайнеров и программистов так же найдется множество специализированного софта, таких как: редакторы с подсветкой, среды программирования, компоненты, системы управления базами данных, разнообразные скрипты и шаблоны. Не так давно у нас появился материал для автолюбителей и владельцев мото - оригинальные и неоригинальные каталоги запчастей, книги и журналы по ремонту и обслуживанию, видеоуроки, статьи по чип тюнингу, прошивкам. Процедура получения контента элементарная, достаточно просто скачать торрент файл и добавить его в загрузку в вашем торрент клиенте. Если у вас нет специального торрент клиента, вы можете его скачать у нас.

DxO Optics Pro | Baby Steps 221 | 4K Video Downloader 4 4 11 2412 X-NET