Покемон: Солнце и Луна: Ультраприключения (21 сезон) / Pokemon the Series: Sun & Moon—Ultra Adventures [TV] [1-5 из xx] [Без хардсаба] [RUS(int)] [2018, приключения, комедия, фэнтези, WEBRip] [HWP] [Американская версия] 

Цитировать
Покемон: Солнце и Луна: Ультраприключения / Pokemon the Series: Sun & Moon—Ultra Adventures- Страна: Япония / США
Год выпуска: 2018 г.
Жанр: приключения, комедия, фэнтези
Тип: TV-сериал
Серии: 1-5 эпизоды из xx по 22 минуте
Автор оригинала: Тадзири Сатоси
Режиссер оригинала: Юяма Кунихико
Студия: OLM-Релиз подготовлен группой Free Releasers Team "SORA"
  • Производство: SDI Media Russia
  • Захват звука: Vinozavr
  • Сведение звука: Ampho_dub
  • Роли озвучивали: Иван Калинин, Андрей Гриневич, Илья Хвостиков, Алёна Созинова, Анастасия Студилова, Антон Савенков, Антон Колесников, Мария Иващенко, Лариса Некипелова, Петр Иващенко, Дарья Фролова, Дмитрий Филимонов, Александр Дасевич, Ольга Зубкова, Андрей Бархударов, Антон Савенков, Лина Иванова, Екатерина Семёнова, Сергей Смирнов, Прохор Чеховской, Татьяна Шитова, Татьяна Веселкина, Ольга Кузьмина, Ольга Голованова
-Описание: Повстречав во сне легендарных покемонов Солгалео и Луналу, Эш дал им обещание... но забыл этот сон, едва проснувшись! Может быть, таинственный покемон Небби пробудит в нем воспоминания? Вместе с новым другом и другими учениками школы покемонов, Эш и Пикачу знакомятся с Фондом Этер... но, возможно, эта организация не столь невинна, как может показаться на первый взгляд.
Новое приключение Эша и Пикачу! Им предстоит защитить и людей, и покемонов от мистической силы, аналогов которой они еще не встречали!-Качество: WEBRip | Формат: AVI | Энкод: Ampho_dub
Тип релиза: Без хардсаба | Совместимость с бытовыми плеерами: Да
Видео: XviD (8 bit) 720х406, ~1 300 kbps, 23.976 fps
в составе контейнера:
Аудио: AC3, 192 kbps, 48.0 kHz, 2 ch [Russian] Озвучка 1: [DUB] - Многоголосый, Дублированный [SDI Media]

Список эпизодов

01. Заветная встреча!
02. Появление и исчезновение!
03. Обманчивое впечатление!
04. Замаскированное предостережение!
05. Ночь тысячи движений!

Подробные тех. данные

GeneralComplete name               : D:\Multimedia\Video\Pokemon\[FRT Sora] Pokémon the Series Sun & Moon Ultra Adventures [HWP]\[FRT Sora] Pokemon S21 E01 [HWP].aviFormat                      : AVIFormat/Info                 : Audio Video InterleaveFile size                   : 229 MiBDuration                    : 21 min 18 sOverall bit rate            : 1 501 kb/sMovie name                  : PokГ©mon S21E01 - A Dream Encounter!Writing application         : Lavf57.71.100
VideoID : 0Format : MPEG-4 VisualFormat profile : Advanced Simple@L5Format settings : BVOP3Format settings, BVOP : 3Format settings, QPel : NoFormat settings, GMC : No warppointsFormat settings, Matrix : Default (H.263)Codec ID : XVIDCodec ID/Hint : XviDDuration : 21 min 18 sBit rate : 1 299 kb/sWidth : 720 pixelsHeight : 406 pixelsDisplay aspect ratio : 16:9Frame rate : 23.976 (24000/1001) FPSColor space : YUVChroma subsampling : 4:2:0Bit depth : 8 bitsScan type : ProgressiveCompression mode : LossyBits/(Pixel*Frame) : 0.185Stream size : 198 MiB (86%)Writing library : XviD 67
AudioID : 1Format : AC-3Format/Info : Audio Coding 3Commercial name : Dolby DigitalCodec ID : 2000Duration : 21 min 18 sBit rate mode : ConstantBit rate : 192 kb/sChannel(s) : 2 channelsChannel layout : L RSampling rate : 48.0 kHzFrame rate : 31.250 FPS (1536 SPF)Bit depth : 16 bitsCompression mode : LossyStream size : 29.3 MiB (13%)Alignment : Aligned on interleavesInterleave, duration : 32 ms (0.77 video frame)Service kind : Complete Main

Скриншоты

Вы не можете начинать темы
Вы не можете отвечать на сообщения
Вы не можете редактировать свои сообщения
Вы не можете удалять свои сообщения
Вы не можете голосовать в опросах
Вы не можете прикреплять файлы к сообщениям
Вы можете скачивать файлы
!ВНИМАНИЕ!

Сайт не предоставляет электронные версии произведений, а занимается лишь коллекционированием и каталогизацией ссылок, присылаемых и публикуемых на форуме нашими читателями. Если вы являетесь правообладателем какого-либо представленного материала и не желаете, чтобы ссылка на него находилась в нашем каталоге, свяжитесь с нами, и мы незамедлительно удалим ее. Файлы для обмена на трекере предоставлены пользователями сайта, и администрация не несет ответственности за их содержание. Просьба не заливать файлы, защищенные авторскими правами, а также файлы нелегального содержания!

Искали программы, игры, дополнения, музыка mp3, аниме, аудио книги, журналы? Добро пожаловать на свободный торрент трекер Torrents, у нас можно скачать бесплатно, без смс и регистрации и прочих ограничений лучшие, отборные сборки программ, игр. Скачать торрентом не составит труда даже не опытному пользователю. Раздачи ежедневно обновляются, только лучшие и качественные раздачи, подробные описания и скриншоты. Огромная коллекция программ для работы со звуком, графикой, дизайном, а так же множество плагинов и инструментов к ним с подробной инструкцией и рекомендациями. Прошивки для навигаторов, карты. Разнообразные игры, для Windows, Linux. В коллекцие есть и старые игры любых жанров, Rpg, Action, Shooter, strategy Множество дополнений, модификаций, сценариев для популярных игр в жанре экш, рпг, гонки, стратегии, логические игры. Множество аддонов и сценариев для Microsoft Flight Simulator Большая коллекция книг, учебников. Если нет возможности купить печатное издание - смело скачивайте цифровую версию книги или, быть может, журнала. Не любите читать - можно загрузить бесплатно аудикнигу. Для веб дизайнеров и программистов так же найдется множество специализированного софта, таких как: редакторы с подсветкой, среды программирования, компоненты, системы управления базами данных, разнообразные скрипты и шаблоны. Не так давно у нас появился материал для автолюбителей и владельцев мото - оригинальные и неоригинальные каталоги запчастей, книги и журналы по ремонту и обслуживанию, видеоуроки, статьи по чип тюнингу, прошивкам. Процедура получения контента элементарная, достаточно просто скачать торрент файл и добавить его в загрузку в вашем торрент клиенте. Если у вас нет специального торрент клиента, вы можете его скачать у нас.

My Secret Hotel | Ux4 American Socket 4 Pins. Zocalo Ux4. 4 Pins Americano. Baquelita. 1Pc. | Vedi Prodotto