IMDb: 5 HD Leo Da Vinci: Mission Mona Lisa | Advertising | Téléréalité

Доктор Хаус / House M.D. / Сезон: 6 / Серии: 1-22 (22) (Грег Яйтанс, Питер О’Фаллон, Мэтт Сакма) [2009, США, драма, детектив, WEB-DL 720p] MVO LostFilm + rus sub 

Цитировать
Доктор Хаус / House M.D. / Сезон: 6
Год выпуска: 2009
Страна: США
Жанр: драма, детектив
Продолжительность серии: ~44 мин.
Перевод: профессиональный многоголосый закадровый, LostFilm
Режиссёр: Грег Яйтанс, Питер О’Фаллон, Мэтт Сакма
В ролях: Хью Лори, Омар Эппс, Лиза Эдельштейн, Роберт Шон Леонард, Дженнифер Моррисон, Джесси Спенсер, Оливия Уайлд, Питер Джекобсон и др.
Описание: Сериал House M.D. рассказывает о команде врачей, которые должны правильно поставить диагноз болезни пациента и спасти его. В принципе сериал представляет из себя вариацию схемы «врач как детектив», но в отличие от остальных сериалов, где врачи обследуют уже мертвого пациента, в House M.D. больной находится еще в живых.
Возглавляет команду доктор Грегори Хауз, который ходит с палочкой после того, как его мышечный инфаркт в правой ноге слишком поздно правильно диагностировали. Как врач Хауз просто гений, но сам не отличается проникновенностью в общении с больными и с удовольствием избегает их, если только есть возможность. Он сам всё время проводит в борьбе с собственной болью, а трость в его руке только подчеркивает его жесткую ядовитую манеру общения. Порой его поведение можно назвать почти бесчеловечным, и при этом он прекрасный врач, обладаюший нетипичным умом и безупречным инстинктом, что снискало ему глубокое уважение. Будучи инфекционистом, он ещё и замечательный диагност, который любит разгадывать медицинские загадки, чтобы спасти кому-то жизнь. Если бы все было по его воле, то Хауз лечил бы больных не выходя из своего кабинета.

Доп. информация:
Дорожка №1:
Перевод: Relicit.
Мед. редактор: Mirra.
Озвучка: Студия "Кравец".
Субтитры:
1-20 серии
Перевод: Pacific
Медицинский консультант и редактор: Зарубенко И.П.
21-22 серии
"Суверенный Лепрозорий"-=2366&f[]=2367&f[]=2368&f[]=2372&f[]=2371&f[]=2370&f[]=625&nm=House]Все раздачи сериала-Сэпмл: http://multi-up.com/180034
Качество: WEB-DL 720p
Формат: MKV
Видео кодек: H.264
Аудио кодек: AC3
Видео: MPEG-4 AVC, 1280x720, 23.976 fps, ~4000 kbps, 0.183 bit/pixel
Аудио #1: Русский: 48 kHz, AC3, 3/2 (L,C,R,l,r) LFE ch, ~448.00 kbps avg |Многоголосый закадровый, LostFilm|
Аудио #2: Английский: 48 kHz, AC3, 3/2 (L,C,R,l,r) LFE ch, ~384.00 kbps avg
Субтитры: Русские, Английские
Русские форсированные субтитры - [url=http:// СПАМ и тут

Список серий

1. Сломанный (Broken, Pt. 1) [44:47]
2. Сломанный (Broken, Pt. 2) [45:18]
3. Великое падение (Epic Fail) [43:56]
4. Тиран (The Tyrant) [43:57]
5. Карма в действии (Instant Karma) [43:34]
6. Храброе сердце (Brave Heart) [43:52]
7. Известные неизвестные (Known Unknowns) [43:58]
8. Командная игра (Teamwork) [43:54]
9. Счастье в неведении (Ignorance is Bliss) [44:00]
10. Уилсон (Wilson) [43:56]
11. Под прикрытием (The Down Low) [43:45]
12. Муки cовести (Remorse) [43:57]
13. На новый рубеж (Moving the Chains) [44:05]
14. С 5 до 9 (5 to 9) [44:03]
15. Частная жизнь (Private Lives) [44:05]
16. Черная дыра (Black Hole) [43:57]
17. Изоляция (Lockdown) [44:05]
18. Падение рыцаря (Knight Fall) [43:54]
19. Свобода на час (Open and Shut) [43:58]
20. Выбор (The Choice) [43:59]
21. Багаж (Baggage) [43:59]
22. Помогите мне (Help Me) [44:59]
http://www.fox.com/house/recaps/season-6/

MI

General
Complete name : House S06E22 Help Me.mkv
Format : Matroska
Format version : Version 2
File size : 1.57 GiB
Duration : 44mn 59s
Overall bit rate : 4 996 Kbps
Encoded date : UTC 2010-05-20 18:32:40
Writing application : mkvmerge v3.4.0 ('Rapunzel') built on May 15 2010 09:38:20
Writing library : libebml v0.8.0 libmatroska v0.9.0
Video
ID : 1
Format : AVC
Format/Info : Advanced Video Codec
Format profile : High@L3.1
Format settings, CABAC : No
Format settings, ReFrames : 2 frames
Codec ID : V_MPEG4/ISO/AVC
Duration : 44mn 59s
Bit rate : 4 064 Kbps
Width : 1 280 pixels
Height : 720 pixels
Display aspect ratio : 16:9
Frame rate : 23.976 fps
Color space : YUV
Chroma subsampling : 4:2:0
Bit depth : 8 bits
Scan type : Progressive
Bits/(Pixel*Frame) : 0.184
Stream size : 1.28 GiB (81%)
Language : English
Color primaries : BT.709-5, BT.1361, IEC 61966-2-4, SMPTE RP177
Transfer characteristics : BT.709-5, BT.1361
Matrix coefficients : BT.709-5, BT.1361, IEC 61966-2-4 709, SMPTE RP177
Audio #1
ID : 2
Format : AC-3
Format/Info : Audio Coding 3
Mode extension : CM (complete main)
Codec ID : A_AC3
Duration : 44mn 59s
Bit rate mode : Constant
Bit rate : 448 Kbps
Channel(s) : 6 channels
Channel positions : Front: L C R, Side: L R, LFE
Sampling rate : 48.0 KHz
Bit depth : 16 bits
Compression mode : Lossy
Stream size : 144 MiB (9%)
Language : Russian
Audio #2
ID : 3
Format : AC-3
Format/Info : Audio Coding 3
Mode extension : CM (complete main)
Codec ID : A_AC3
Duration : 44mn 59s
Bit rate mode : Constant
Bit rate : 384 Kbps
Channel(s) : 6 channels
Channel positions : Front: L C R, Side: L R, LFE
Sampling rate : 48.0 KHz
Bit depth : 16 bits
Compression mode : Lossy
Stream size : 124 MiB (8%)
Language : English
Text #1
ID : 4
Format : UTF-8
Codec ID : S_TEXT/UTF8
Codec ID/Info : UTF-8 Plain Text
Language : Russian
Text #2
ID : 5
Format : UTF-8
Codec ID : S_TEXT/UTF8
Codec ID/Info : UTF-8 Plain Text
Language : English
Вы не можете начинать темы
Вы не можете отвечать на сообщения
Вы не можете редактировать свои сообщения
Вы не можете удалять свои сообщения
Вы не можете голосовать в опросах
Вы не можете прикреплять файлы к сообщениям
Вы можете скачивать файлы
!ВНИМАНИЕ!

Сайт не предоставляет электронные версии произведений, а занимается лишь коллекционированием и каталогизацией ссылок, присылаемых и публикуемых на форуме нашими читателями. Если вы являетесь правообладателем какого-либо представленного материала и не желаете, чтобы ссылка на него находилась в нашем каталоге, свяжитесь с нами, и мы незамедлительно удалим ее. Файлы для обмена на трекере предоставлены пользователями сайта, и администрация не несет ответственности за их содержание. Просьба не заливать файлы, защищенные авторскими правами, а также файлы нелегального содержания!

Искали программы, игры, дополнения, музыка mp3, аниме, аудио книги, журналы? Добро пожаловать на свободный торрент трекер Torrents, у нас можно скачать бесплатно, без смс и регистрации и прочих ограничений лучшие, отборные сборки программ, игр. Скачать торрентом не составит труда даже не опытному пользователю. Раздачи ежедневно обновляются, только лучшие и качественные раздачи, подробные описания и скриншоты. Огромная коллекция программ для работы со звуком, графикой, дизайном, а так же множество плагинов и инструментов к ним с подробной инструкцией и рекомендациями. Прошивки для навигаторов, карты. Разнообразные игры, для Windows, Linux. В коллекцие есть и старые игры любых жанров, Rpg, Action, Shooter, strategy Множество дополнений, модификаций, сценариев для популярных игр в жанре экш, рпг, гонки, стратегии, логические игры. Множество аддонов и сценариев для Microsoft Flight Simulator Большая коллекция книг, учебников. Если нет возможности купить печатное издание - смело скачивайте цифровую версию книги или, быть может, журнала. Не любите читать - можно загрузить бесплатно аудикнигу. Для веб дизайнеров и программистов так же найдется множество специализированного софта, таких как: редакторы с подсветкой, среды программирования, компоненты, системы управления базами данных, разнообразные скрипты и шаблоны. Не так давно у нас появился материал для автолюбителей и владельцев мото - оригинальные и неоригинальные каталоги запчастей, книги и журналы по ремонту и обслуживанию, видеоуроки, статьи по чип тюнингу, прошивкам. Процедура получения контента элементарная, достаточно просто скачать торрент файл и добавить его в загрузку в вашем торрент клиенте. Если у вас нет специального торрент клиента, вы можете его скачать у нас.