Деревенская глубинка (ОВА-1) / Non Non Biyori: Okinawa e Iku Koto ni Natta [OVA] [Без хардсаба] [1 из 1] [RUS(ext),JAP+SUB] [2014, комедия, повседневность, BDRip] [1080p] 

Цитировать
- Год выпуска: 2014 | Страна: Япония
Жанр: комедия, повседневность
Продолжительность: OVA, 1 эп. по 20 мин.-Перевод: субтитры от Nachtwandler (Timecraft)-Озвучка: одноголосая жен от Eladiel (Onibaku)-Режиссер: Синъя Кавацура
Студия:  
-Описание: Сугуру , молчаливый старший брат Нацуми и Комари , выигрывает путёвку на Окинаву. В предвкушении поездки вся дружная компания начинает размышлять о разном. Например, о том, что может понадобиться в путешествии, как впервые вести себя на борту самолёта и где же, в конце концов, находится Окинава. Ясно одно: это жаркое место где-то на юге. Тем временем несносная Рэн беспокоится, что поездка может навсегда её изменить, так как по заверению Каэдэ , давней подруги старшей сестры Рэн, Окинава меняет взгляды на жизнь.-AniDB World Art MAL-Качество: BDRip | Рип: U3-Rip
Тип релиза: без хардсаба, без линковки
Формат видео: MKV
Видео: x264, Hi10P, 1920x1080, 23.976fps, 11 Mbps
Аудио JAP: FLAC, 48.0 kHz, 2.0 ch, 740 Kbps
Аудио RUS (ext): Vorbis, 48.0 kHz, 2.0 ch, 350 Kbps

MediaInfo

GeneralUnique ID                                : 93923600868106489300206720698691741652 (0x46A9070CD6C2685F4CAEC0AB080DE7D4)Complete name                            : /run/media/deadnews/data1/releases/[U3-Rip] Non Non Biyori (2014) OVA-1 [BDRip 1920x1080 x264 FLAC]/[U3-Rip] Non Non Biyori - EP13 (OAD) [BDRip AVC-yuv420p10 1920x1080p FLAC].mkvFormat                                   : MatroskaFormat version                           : Version 4File size                                : 1.70 GiBDuration                                 : 20 min 47 sOverall bit rate mode                    : VariableOverall bit rate                         : 11.7 Mb/sEncoded date                             : UTC 2018-09-18 23:59:09Writing application                      : mkvmerge v26.0.0 ('In The Game') 64-bitWriting library                          : libebml v1.3.6 + libmatroska v1.4.9
VideoID : 1Format : AVCFormat/Info : Advanced Video CodecFormat profile : High 10@L4.1Format settings : CABAC / 4 Ref FramesFormat settings, CABAC : YesFormat settings, ReFrames : 4 framesCodec ID : V_MPEG4/ISO/AVCDuration : 20 min 47 sBit rate : 11.0 Mb/sWidth : 1 920 pixelsHeight : 1 080 pixelsDisplay aspect ratio : 16:9Frame rate mode : ConstantFrame rate : 23.976 (24000/1001) FPSColor space : YUVChroma subsampling : 4:2:0Bit depth : 10 bitsScan type : ProgressiveBits/(Pixel*Frame) : 0.221Stream size : 1.59 GiB (94%)Writing library : x264 core 155 r2901 7d0ff22Encoding settings : cabac=1 / ref=4 / deblock=1:0:0 / analyse=0x3:0x133 / me=tesa / subme=11 / psy=1 / psy_rd=1.00:0.00 / mixed_ref=1 / me_range=32 / chroma_me=1 / trellis=2 / 8x8dct=1 / cqm=0 / deadzone=21,11 / fast_pskip=0 / chroma_qp_offset=-2 / threads=9 / lookahead_threads=2 / sliced_threads=0 / nr=0 / decimate=0 / interlaced=0 / bluray_compat=0 / constrained_intra=0 / bframes=16 / b_pyramid=2 / b_adapt=2 / b_bias=0 / direct=3 / weightb=1 / open_gop=0 / weightp=2 / keyint=230 / keyint_min=22 / scenecut=40 / intra_refresh=0 / rc_lookahead=60 / rc=crf / mbtree=0 / crf=15.0 / qcomp=0.70 / qpmin=0 / qpmax=41 / qpstep=4 / vbv_maxrate=62500 / vbv_bufsize=78125 / crf_max=0.0 / nal_hrd=none / filler=0 / ip_ratio=1.40 / pb_ratio=1.30 / aq=1:0.85Default : YesForced : NoColor range : LimitedMatrix coefficients : BT.709
AudioID : 2Format : FLACFormat/Info : Free Lossless Audio CodecCodec ID : A_FLACDuration : 20 min 47 sBit rate mode : VariableBit rate : 737 kb/sChannel(s) : 2 channelsChannel layout : L RSampling rate : 48.0 kHzFrame rate : 11.719 FPS (4096 SPF)Bit depth : 16 bitsCompression mode : LosslessStream size : 110 MiB (6%)Writing library : libFLAC 1.2.1 (UTC 2007-09-17)Language : JapaneseDefault : YesForced : No
Menu00:00:00.000 : :Chapter 0100:01:09.987 : :Chapter 0200:02:40.035 : :Chapter 0300:09:51.007 : :Chapter 0400:18:49.503 : :Chapter 0500:20:19.468 : :Chapter 06

Скриншоты

Вы не можете начинать темы
Вы не можете отвечать на сообщения
Вы не можете редактировать свои сообщения
Вы не можете удалять свои сообщения
Вы не можете голосовать в опросах
Вы не можете прикреплять файлы к сообщениям
Вы можете скачивать файлы
!ВНИМАНИЕ!

Сайт не предоставляет электронные версии произведений, а занимается лишь коллекционированием и каталогизацией ссылок, присылаемых и публикуемых на форуме нашими читателями. Если вы являетесь правообладателем какого-либо представленного материала и не желаете, чтобы ссылка на него находилась в нашем каталоге, свяжитесь с нами, и мы незамедлительно удалим ее. Файлы для обмена на трекере предоставлены пользователями сайта, и администрация не несет ответственности за их содержание. Просьба не заливать файлы, защищенные авторскими правами, а также файлы нелегального содержания!

Искали программы, игры, дополнения, музыка mp3, аниме, аудио книги, журналы? Добро пожаловать на свободный торрент трекер Torrents, у нас можно скачать бесплатно, без смс и регистрации и прочих ограничений лучшие, отборные сборки программ, игр. Скачать торрентом не составит труда даже не опытному пользователю. Раздачи ежедневно обновляются, только лучшие и качественные раздачи, подробные описания и скриншоты. Огромная коллекция программ для работы со звуком, графикой, дизайном, а так же множество плагинов и инструментов к ним с подробной инструкцией и рекомендациями. Прошивки для навигаторов, карты. Разнообразные игры, для Windows, Linux. В коллекцие есть и старые игры любых жанров, Rpg, Action, Shooter, strategy Множество дополнений, модификаций, сценариев для популярных игр в жанре экш, рпг, гонки, стратегии, логические игры. Множество аддонов и сценариев для Microsoft Flight Simulator Большая коллекция книг, учебников. Если нет возможности купить печатное издание - смело скачивайте цифровую версию книги или, быть может, журнала. Не любите читать - можно загрузить бесплатно аудикнигу. Для веб дизайнеров и программистов так же найдется множество специализированного софта, таких как: редакторы с подсветкой, среды программирования, компоненты, системы управления базами данных, разнообразные скрипты и шаблоны. Не так давно у нас появился материал для автолюбителей и владельцев мото - оригинальные и неоригинальные каталоги запчастей, книги и журналы по ремонту и обслуживанию, видеоуроки, статьи по чип тюнингу, прошивкам. Процедура получения контента элементарная, достаточно просто скачать торрент файл и добавить его в загрузку в вашем торрент клиенте. Если у вас нет специального торрент клиента, вы можете его скачать у нас.

Hợp tác nội dung | Fairy Tail OVA Episode 2 English Subbed | IMDb: 3 S1E1 Charmed - Season 1